<?xml version="1.0" standalone="no"?>
<!DOCTYPE svg PUBLIC "-//W3C//DTD SVG 1.1//EN" "http://www.w3.org/Graphics/SVG/1.1/DTD/svg11.dtd" >
<svg xmlns="http://www.w3.org/2000/svg">
<metadata>Generated by IcoMoon</metadata>
<defs>
<font id="PPUI-Icons" horiz-adv-x="1024">
<font-face units-per-em="1024" ascent="960" descent="-64" />
<missing-glyph horiz-adv-x="1024" />
<glyph unicode="&#x20;" horiz-adv-x="512" d="" />
<glyph unicode="&#xe900;" glyph-name="add" d="M533.355 469.333h213.333c11.782 0 21.333-9.551 21.333-21.333s-9.551-21.333-21.333-21.333h-213.333v-213.333c0-11.782-9.551-21.333-21.333-21.333s-21.333 9.551-21.333 21.333v213.333h-213.333c-11.782 0-21.333 9.551-21.333 21.333s9.551 21.333 21.333 21.333h213.333v213.333c0 11.782 9.551 21.333 21.333 21.333s21.333-9.551 21.333-21.333v-213.333z" />
<glyph unicode="&#xe901;" glyph-name="arrow-left" d="M143.062 427.603c-8.722 2.678-15.062 10.797-15.062 20.397 0 0.591 0.024 1.176 0.071 1.754-0.492 6.024 1.566 12.217 6.174 16.827l298.625 298.751c8.329 8.333 21.837 8.336 30.17 0.006s8.336-21.837 0.006-30.17l-265.723-265.836h677.344c11.782 0 21.333-9.551 21.333-21.333s-9.551-21.333-21.333-21.333h-670.319l258.735-258.662c8.332-8.33 8.334-21.838 0.004-30.17s-21.838-8.334-30.17-0.004l-289.855 289.773z" />
<glyph unicode="&#xe902;" glyph-name="arrow-right" d="M844.428 426.667h-695.095c-11.782 0-21.333 9.551-21.333 21.333s9.551 21.333 21.333 21.333h695.238l-262.32 262.246c-8.332 8.33-8.334 21.838-0.004 30.17s21.838 8.334 30.17 0.004l298.667-298.582c8.332-8.33 8.334-21.836 0.005-30.169l-298.624-298.751c-8.329-8.333-21.837-8.336-30.17-0.006s-8.336 21.837-0.006 30.17l262.141 262.252z" />
<glyph unicode="&#xe903;" glyph-name="warning" d="M512 64c-212.077 0-384 171.923-384 384s171.923 384 384 384c212.077 0 384-171.923 384-384s-171.923-384-384-384zM512 106.667c188.513 0 341.333 152.82 341.333 341.333s-152.82 341.333-341.333 341.333c-188.513 0-341.333-152.82-341.333-341.333s152.82-341.333 341.333-341.333zM490.667 254.653c0 12.474 10.206 22.68 22.68 22.68s22.68-10.206 22.68-22.68c0-12.474-10.206-22.68-22.68-22.68s-22.68 10.206-22.68 22.68zM490.667 661.333c0 11.782 9.551 21.333 21.333 21.333s21.333-9.551 21.333-21.333v-302.156c0-11.782-9.551-21.333-21.333-21.333s-21.333 9.551-21.333 21.333v302.156z" />
<glyph unicode="&#xe904;" glyph-name="bank" d="M256 576h-106.667c-21.735 0-29.55 28.701-10.816 39.721l341.034 200.608c10.014 5.891 21.232 8.836 32.449 8.836s22.435-2.945 32.449-8.836l341.034-200.608c18.734-11.020 10.918-39.721-10.816-39.721h-106.667v-235.38c0-11.782-9.551-21.333-21.333-21.333s-21.333 9.551-21.333 21.333v256.713c0 11.782 9.551 21.333 21.333 21.333h49.657l-273.508 160.887c-6.676 3.927-14.957 3.927-21.633 0l-273.508-160.887h348.324c35.346 0 64-28.654 64-64v-214.047c0-11.782-9.551-21.333-21.333-21.333s-21.333 9.551-21.333 21.333v214.047c0 11.782-9.551 21.333-21.333 21.333h-106.538v-330.667c0-5.891 4.776-10.667 10.667-10.667h309.205c11.782 0 21.333-9.551 21.333-21.333v-21.154h64c11.782 0 21.333-9.551 21.333-21.333v-85.512c0-11.782-9.551-21.333-21.333-21.333h-725.333c-11.782 0-21.333 9.551-21.333 21.333v85.512c0 11.782 9.551 21.333 21.333 21.333h64v21.154c0 11.782 9.551 21.333 21.333 21.333h82.963c11.782 0 21.333-9.551 21.333-21.333s-9.551-21.333-21.333-21.333h-61.63v-21.154c0-11.782-9.551-21.333-21.333-21.333h-64v-42.846h682.667v42.846h-64c-11.782 0-21.333 9.551-21.333 21.333v21.154h-287.872c-29.455 0-53.333 23.878-53.333 53.333v330.667h-128.128v-235.938c0-11.782-9.551-21.333-21.333-21.333s-21.333 9.551-21.333 21.333v235.938z" />
<glyph unicode="&#xe905;" glyph-name="browser" d="M170.872 576h682.395l-0.089 127.709h-682.306v-127.709zM170.872 533.333v-341.475l682.661-0.388-0.237 341.863h-682.424zM855.132 148.803l-684.602 0.389c-23.386 0-42.325 18.939-42.325 42.325v512.534c0 23.358 18.945 42.325 42.325 42.325h683.010c23.382 0 42.304-18.969 42.304-42.31l0.358-515.891c0-23.694-17.853-39.371-41.070-39.371zM768 636.046c0 13.925 11.293 25.287 25.218 25.287s25.287-11.362 25.287-25.287c0-13.925-11.362-25.218-25.287-25.218s-25.218 11.293-25.218 25.218zM213.333 636.046c0 13.925 11.293 25.287 25.218 25.287s25.287-11.362 25.287-25.287c0-13.925-11.362-25.218-25.287-25.218s-25.218 11.293-25.218 25.218zM298.667 636.046c0 13.925 11.293 25.287 25.218 25.287s25.287-11.362 25.287-25.287c0-13.925-11.362-25.218-25.287-25.218s-25.218 11.293-25.218 25.218zM384 636.046c0 13.925 11.293 25.287 25.218 25.287s25.287-11.362 25.287-25.287c0-13.925-11.362-25.218-25.287-25.218s-25.218 11.293-25.218 25.218z" />
<glyph unicode="&#xe906;" glyph-name="calendar-paused" d="M127.936 394.299v288.329c0 35.249 28.751 64 64 64h64.021v21.333c0 11.782 9.551 21.333 21.333 21.333s21.333-9.551 21.333-21.333v-21.333h426.667v21.333c0 11.782 9.551 21.333 21.333 21.333s21.333-9.551 21.333-21.333v-21.333h63.979c35.249 0 64-28.751 64-64 0-11.782-9.551-21.333-21.333-21.333s-21.333 9.551-21.333 21.333c0 11.685-9.649 21.333-21.333 21.333h-63.979v-21.333c0-11.782-9.551-21.333-21.333-21.333s-21.333 9.551-21.333 21.333v21.333h-426.667v-21.333c0-11.782-9.551-21.333-21.333-21.333s-21.333 9.551-21.333 21.333v21.333h-64.021c-11.685 0-21.333-9.649-21.333-21.333v-106.667h704.009c11.782 0 21.333-9.551 21.333-21.333v-384c0-35.249-28.751-64-64-64h-345.557c-38.853-75.958-117.888-127.962-209.054-127.962-129.589 0-234.667 105.077-234.667 234.667 0 72.832 33.191 137.921 85.269 180.966zM170.603 422.374c32.020 16.383 68.297 25.626 106.731 25.626 129.589 0 234.667-105.077 234.667-234.667 0-22.201-3.084-43.682-8.847-64.038h328.791c11.685 0 21.333 9.649 21.333 21.333v362.667h-682.675v-110.921zM469.333 213.333c0 106.025-85.975 192-192 192s-192-85.975-192-192c0-106.025 85.975-192 192-192s192 85.975 192 192zM341.333 128c0-11.782-9.551-21.333-21.333-21.333s-21.333 9.551-21.333 21.333v170.667c0 11.782 9.551 21.333 21.333 21.333s21.333-9.551 21.333-21.333v-170.667zM256 128c0-11.782-9.551-21.333-21.333-21.333s-21.333 9.551-21.333 21.333v170.667c0 11.782 9.551 21.333 21.333 21.333s21.333-9.551 21.333-21.333v-170.667zM490.667 405.333c-5.547 0-11.093 2.133-14.933 6.4-4.267 3.84-6.4 8.96-6.4 14.933 0 5.547 2.133 11.093 6.4 14.976 7.68 8.064 22.187 8.064 29.867 0 4.267-3.883 6.4-9.429 6.4-14.976 0-5.973-2.133-11.093-6.4-14.933-3.84-4.267-9.387-6.4-14.933-6.4zM618.667 234.667c-2.987 0-5.547 0.427-8.107 1.707-2.56 0.896-5.12 2.603-6.827 4.693-2.133 1.707-3.84 4.267-4.693 6.869-1.28 2.517-1.707 5.12-1.707 8.064 0 5.547 2.133 11.093 6.4 14.976 7.68 8.064 22.187 8.064 29.867 0 4.267-3.883 6.4-9.429 6.4-14.976 0-2.944-0.427-5.547-1.707-8.064-0.853-2.603-2.56-5.163-4.693-6.869-1.707-2.091-4.267-3.797-6.827-4.693-2.56-1.28-5.12-1.707-8.107-1.707zM618.667 320c-5.547 0-11.093 2.133-14.933 6.4-2.133 1.707-3.84 4.267-4.693 6.869-1.28 2.517-1.707 5.12-1.707 8.064 0 5.547 2.133 11.093 6.4 14.976 7.68 8.064 22.187 8.064 29.867 0 4.267-3.883 6.4-9.429 6.4-14.976 0-2.944-0.427-5.547-1.707-8.064-0.853-2.603-2.56-5.163-4.693-6.869-3.84-4.267-9.387-6.4-14.933-6.4zM618.667 405.333c-2.987 0-5.547 0.427-8.107 1.707-2.56 0.896-5.12 2.603-7.253 4.693-1.707 1.707-3.413 4.267-4.267 6.869-1.28 2.517-1.707 5.12-1.707 8.064 0 5.547 2.133 11.093 5.973 14.976 8.107 8.064 22.613 8.064 30.293 0 4.267-3.883 6.4-9.429 6.4-14.976 0-2.944-0.427-5.547-1.707-8.064-0.853-2.603-2.56-5.163-4.693-6.869-3.84-4.267-9.387-6.4-14.933-6.4zM746.667 320c-5.547 0-11.093 2.133-14.933 6.4-2.133 1.707-3.84 4.267-4.693 6.869-1.28 2.517-1.707 5.12-1.707 8.064 0 5.547 2.133 11.093 6.4 14.976 7.68 8.064 22.187 8.064 29.867 0 4.267-3.883 6.4-9.429 6.4-14.976 0-2.944-0.427-5.547-1.707-8.064-0.853-2.603-2.56-5.163-4.693-6.869-1.707-2.091-4.267-3.797-6.827-4.693-2.56-1.28-5.547-1.707-8.107-1.707zM746.667 405.333c-5.547 0-11.093 2.133-14.933 6.4-4.267 3.84-6.4 8.96-6.4 14.933 0 5.547 2.133 11.093 6.4 14.976 7.68 8.064 22.187 8.064 29.867 0 4.267-3.883 6.4-9.429 6.4-14.976 0-2.944-0.427-5.547-1.707-8.064-0.853-2.603-2.56-5.163-4.693-6.869-1.707-2.091-4.267-3.797-6.827-4.693-2.56-1.28-5.547-1.707-8.107-1.707z" />
<glyph unicode="&#xe907;" glyph-name="calendar" d="M725.333 704h-426.611v-21.333c0-11.782-9.551-21.333-21.333-21.333s-21.333 9.551-21.333 21.333v21.333h-64.021c-11.685 0-21.333-9.649-21.333-21.333v-106.667h704c11.782 0 21.333-9.551 21.333-21.333v-384c0-35.249-28.751-64-64-64h-640c-35.249 0-64 28.751-64 64v512c0 35.249 28.751 64 64 64h64.021v21.333c0 11.782 9.551 21.333 21.333 21.333s21.333-9.551 21.333-21.333v-21.333h426.611v21.338c0 11.782 9.551 21.333 21.333 21.333s21.333-9.551 21.333-21.333v-21.338h64.034c35.249 0 64-28.751 64-64 0-11.782-9.551-21.333-21.333-21.333s-21.333 9.551-21.333 21.333c0 11.685-9.649 21.333-21.333 21.333h-64.034v-21.329c0-11.782-9.551-21.333-21.333-21.333s-21.333 9.551-21.333 21.333v21.329zM170.701 533.333v-362.667c0-11.685 9.649-21.333 21.333-21.333h640c11.685 0 21.333 9.649 21.333 21.333v362.667h-682.667zM362.667 234.671c-2.987 0-5.547 0.427-8.107 1.707-2.56 0.896-5.12 2.603-6.827 4.693-4.267 3.84-6.4 9.387-6.4 14.933s2.133 11.093 6.4 14.976c1.707 2.091 4.267 3.797 6.827 4.651 7.68 3.413 17.493 1.28 23.040-4.651 4.267-3.883 6.4-9.429 6.4-14.976s-2.133-11.093-6.4-14.933c-3.84-4.267-9.387-6.4-14.933-6.4zM362.667 320.004c-2.987 0-5.547 0.427-8.107 1.707-2.56 0.896-5.12 2.603-6.827 4.693-2.133 1.707-3.84 4.267-4.693 6.869-1.28 2.517-1.707 5.12-1.707 8.064 0 5.547 2.133 11.093 6.4 14.976 5.973 5.931 14.933 8.064 23.040 4.651 2.56-0.853 5.12-2.56 6.827-4.651 4.267-3.883 6.4-9.429 6.4-14.976 0-2.944-0.427-5.547-1.707-8.064-0.853-2.603-2.56-5.163-4.693-6.869-1.707-2.091-4.267-3.797-6.827-4.693-2.56-1.28-5.12-1.707-8.107-1.707zM490.667 234.671c-2.987 0-5.547 0.427-8.107 1.707-2.56 0.896-5.12 2.603-6.827 4.693-4.267 3.84-6.4 9.387-6.4 14.933s2.133 11.093 6.4 14.976c1.707 2.091 4.267 3.797 6.827 4.651 7.68 3.413 17.493 1.28 23.040-4.651 4.267-3.883 6.4-9.429 6.4-14.976s-2.133-11.093-6.4-14.933c-3.84-4.267-9.387-6.4-14.933-6.4zM490.667 320.004c-5.547 0-11.093 2.133-14.933 6.4-2.133 1.707-3.84 4.267-4.693 6.869-1.28 2.517-1.707 5.12-1.707 8.064 0 5.547 2.133 11.093 6.4 14.976 1.707 2.091 4.267 3.797 6.827 4.651 8.107 3.413 17.067 1.28 23.040-4.651 4.267-3.883 6.4-9.429 6.4-14.976 0-2.944-0.427-5.547-1.707-8.064-0.853-2.603-2.56-5.163-4.693-6.869-1.707-2.091-4.267-3.797-6.827-4.693-2.56-1.28-5.12-1.707-8.107-1.707zM490.667 405.338c-2.987 0-5.547 0.427-8.107 1.707-2.56 0.896-5.12 2.603-6.827 4.693-4.267 3.84-6.4 9.387-6.4 14.933 0 2.603 0.427 5.547 1.707 8.107 0.853 2.56 2.56 5.163 4.693 6.869 5.547 5.931 15.36 8.064 23.040 4.651 2.56-0.853 5.12-2.56 6.827-4.651 2.133-1.707 3.84-4.309 4.693-6.869 1.28-2.56 1.707-5.504 1.707-8.107 0-5.547-2.133-11.093-6.4-14.933-3.84-4.267-9.387-6.4-14.933-6.4zM618.667 234.671c-2.987 0-5.547 0.427-8.107 1.707-2.56 0.896-5.12 2.603-6.827 4.693-2.133 1.707-3.84 4.267-4.693 6.869-1.28 2.517-1.707 5.12-1.707 8.064 0 5.547 2.133 11.093 6.4 14.976 1.707 2.091 4.267 3.797 6.827 4.651 5.12 2.133 11.093 2.133 16.213 0 2.56-0.853 5.12-2.56 6.827-4.651 4.267-3.883 6.4-9.429 6.4-14.976s-2.133-11.093-6.4-14.933c-1.707-2.091-4.267-3.797-6.827-4.693-2.56-1.28-5.12-1.707-8.107-1.707zM618.667 320.004c-2.987 0-5.547 0.427-8.107 1.707-2.56 0.896-5.12 2.603-6.827 4.693-2.133 1.707-3.84 4.267-4.693 6.869-1.28 2.517-1.707 5.12-1.707 8.064 0 5.547 2.133 11.093 6.4 14.976 7.68 8.064 21.76 8.064 29.867 0 4.267-3.883 6.4-9.429 6.4-14.976 0-2.944-0.427-5.547-1.707-8.064-0.853-2.603-2.56-5.163-4.693-6.869-3.84-4.267-9.387-6.4-14.933-6.4zM618.667 405.338c-2.987 0-5.547 0.427-8.107 1.707-2.56 0.896-5.12 2.603-6.827 4.693-4.267 3.84-6.4 9.387-6.4 14.933s2.133 11.093 6.4 14.976c5.547 5.931 14.933 8.064 23.040 4.651 2.56-0.853 5.12-2.56 6.827-4.651 2.133-1.707 3.84-4.309 4.693-6.869 1.28-2.56 1.707-5.504 1.707-8.107 0-5.547-2.133-11.093-6.4-14.933-3.84-4.267-9.387-6.4-14.933-6.4zM746.667 320.004c-2.987 0-5.547 0.427-8.107 1.707-2.56 0.896-5.12 2.603-6.827 4.693-2.133 1.707-3.84 4.267-4.693 6.869-1.28 2.517-1.707 5.12-1.707 8.064 0 5.547 2.133 11.093 6.4 14.976 1.707 2.091 4.267 3.797 6.827 4.651 8.107 3.413 17.067 1.28 23.040-4.651 4.267-3.883 6.4-9.429 6.4-14.976 0-2.944-0.427-5.547-1.707-8.064-0.853-2.603-2.56-5.163-4.693-6.869-1.707-2.091-4.267-3.797-6.827-4.693-2.56-1.28-5.12-1.707-8.107-1.707zM746.667 405.338c-2.987 0-5.547 0.427-8.107 1.707-2.56 0.896-5.12 2.603-6.827 4.693-4.267 3.84-6.4 9.387-6.4 14.933s2.133 11.093 6.4 14.976c7.68 8.064 22.187 8.064 29.867 0 4.267-3.883 6.4-9.429 6.4-14.976s-2.133-11.093-6.4-14.933c-1.707-2.091-4.267-3.797-6.827-4.693-2.56-1.28-5.12-1.707-8.107-1.707z" />
<glyph unicode="&#xe908;" glyph-name="camera-add" d="M853.51 437.657l-0.096-241.513c0-25.852-21.024-47.007-46.676-47.007h-588.871c-25.863 0-46.676 21.059-46.676 47l-0.116 332.769c0 25.827 20.922 46.982 46.574 46.982h105.146c8.217 0 22.292 5.888 26.622 10.015l40.507 50.956c14.045 14.081 38.759 24.377 58.76 24.377h127.197c7.905 0 16.66-1.668 25.213-4.564 17.639 87.829 95.221 153.997 188.238 153.997 106.028 0 192-85.972 192-192 0-83.522-53.348-154.598-127.823-181.010zM810.84 427.858c-7.060-0.787-14.236-1.191-21.507-1.191-103.722 0-188.251 82.273-191.879 185.111-6.778 3.838-15.623 6.79-21.573 6.79h-127.197c-8.645 0-22.496-5.77-26.927-10.015l-40.526-50.975c-13.937-13.937-38.848-24.357-58.435-24.357h-105.146c-1.982 0-3.907-1.947-3.907-4.307l0.116-332.769c0-2.495 1.823-4.34 4.009-4.34h588.871c2.028 0 4.009 1.993 4.009 4.349l0.092 231.706zM810.667 597.333v-42.667c0-11.782-9.551-21.333-21.333-21.333s-21.333 9.551-21.333 21.333v42.667h-42.667c-11.782 0-21.333 9.551-21.333 21.333s9.551 21.333 21.333 21.333h42.667v42.667c0 11.782 9.551 21.333 21.333 21.333s21.333-9.551 21.333-21.333v-42.667h42.667c11.782 0 21.333-9.551 21.333-21.333s-9.551-21.333-21.333-21.333h-42.667zM938.667 618.667c0 82.464-66.869 149.333-149.333 149.333s-149.333-66.869-149.333-149.333c0-82.464 66.869-149.333 149.333-149.333s149.333 66.869 149.333 149.333zM512 234.667c-70.689 0-128 57.311-128 128s57.311 128 128 128c70.689 0 128-57.311 128-128s-57.311-128-128-128zM512 277.333c47.125 0 85.333 38.209 85.333 85.333s-38.209 85.333-85.333 85.333c-47.125 0-85.333-38.209-85.333-85.333s38.209-85.333 85.333-85.333zM223.485 618.667c-11.782 0-21.333 9.551-21.333 21.333s9.551 21.333 21.333 21.333h72.533c11.782 0 21.333-9.551 21.333-21.333s-9.551-21.333-21.333-21.333h-72.533z" />
<glyph unicode="&#xe909;" glyph-name="camera" d="M704.57 618.554h103.875c16.699 0 29.636-7.72 37.554-19.877 4.473-6.868 6.531-13.508 7.484-21.822l0.035-98.113-0.102-239.931c0-25.852-21.024-47.007-46.676-47.007h-588.871c-25.863 0-46.676 21.059-46.676 47l-0.116 332.769c0 25.827 20.922 46.982 46.574 46.982h105.146c8.217 0 22.292 5.888 26.622 10.015l40.507 50.956c14.045 14.081 38.759 24.377 58.76 24.377h127.197c19.743 0 44.788-10.405 59.923-25.641l40.501-47.846c5.955-5.955 20.129-11.861 28.265-11.861zM810.246 575.39c-0.376 0.577-0.241 0.497-1.802 0.497h-103.875c-19.484 0-44.501 10.424-59.617 25.641l-40.501 47.846c-5.962 5.962-20.16 11.861-28.57 11.861h-127.197c-8.645 0-22.496-5.77-26.927-10.015l-40.526-50.975c-13.937-13.937-38.848-24.357-58.435-24.357h-105.146c-1.982 0-3.907-1.947-3.907-4.307l0.116-332.769c0-2.495 1.823-4.34 4.009-4.34h588.871c2.028 0 4.009 1.993 4.009 4.349l0.102 239.923c-0.029 81.692-0.029 81.747 0.168 95.136 0.001-0.137-0.301 0.788-0.772 1.512zM512 277.333c-70.689 0-128 57.311-128 128s57.311 128 128 128c70.689 0 128-57.311 128-128s-57.311-128-128-128zM512 320c47.125 0 85.333 38.209 85.333 85.333s-38.209 85.333-85.333 85.333c-47.125 0-85.333-38.209-85.333-85.333s38.209-85.333 85.333-85.333zM223.485 661.333c-11.782 0-21.333 9.551-21.333 21.333s9.551 21.333 21.333 21.333h72.533c11.782 0 21.333-9.551 21.333-21.333s-9.551-21.333-21.333-21.333h-72.533z" />
<glyph unicode="&#xe90a;" glyph-name="card" d="M282.461 532.915c-11.782 0-21.333 9.551-21.333 21.333s9.551 21.333 21.333 21.333h563.633c27.569 0 49.906-22.368 49.906-49.946v-326.355c0-27.578-22.337-49.946-49.906-49.946h-668.18c-27.569 0-49.906 22.368-49.906 49.946l-0.007 497.441c0 27.578 22.337 49.946 49.912 49.946l668.187-0.188c27.564-0.007 49.893-22.373 49.893-49.943l0.007-51.783c0.002-11.782-9.548-21.335-21.33-21.336s-21.335 9.548-21.336 21.33l-0.007 51.786c0 4.026-3.247 7.279-7.238 7.28l-668.182 0.188c-3.992 0-7.24-3.253-7.24-7.279l0.007-497.441c0-4.027 3.248-7.28 7.24-7.28h668.18c3.992 0 7.24 3.253 7.24 7.28v326.355c0 4.027-3.248 7.28-7.24 7.28h-563.633z" />
<glyph unicode="&#xe90b;" glyph-name="cart" d="M128 704c-11.782 0-21.333 9.551-21.333 21.333s9.551 21.333 21.333 21.333h92.075c29.020 0 54.381-19.537 61.819-47.387l88.723-320.57c2.495-9.419 11.034-16.043 20.636-16.043h389.973c9.691 0 18.181 6.568 20.789 16.59l62.201 211.879c3.421 13.167-6.005 27.531-20.654 27.531h-459.563c-11.782 0-21.333 9.551-21.333 21.333s9.551 21.333 21.333 21.333h459.563c44.318 0 72.011-42.201 61.771-81.571l-62.197-211.865c-7.303-28.188-32.78-47.897-61.91-47.897h-389.973c-29.026 0-54.448 19.719-61.819 47.557l-88.712 320.526c-2.509 9.392-10.978 15.916-20.648 15.916h-92.075zM448 192c0 23.546-19.121 42.667-42.667 42.667s-42.667-19.121-42.667-42.667c0-23.546 19.121-42.667 42.667-42.667s42.667 19.121 42.667 42.667zM490.667 192c0-47.11-38.223-85.333-85.333-85.333s-85.333 38.223-85.333 85.333c0 47.11 38.223 85.333 85.333 85.333s85.333-38.223 85.333-85.333zM832 192c0 23.546-19.121 42.667-42.667 42.667s-42.667-19.121-42.667-42.667c0-23.546 19.121-42.667 42.667-42.667s42.667 19.121 42.667 42.667zM874.667 192c0-47.11-38.223-85.333-85.333-85.333s-85.333 38.223-85.333 85.333c0 47.11 38.223 85.333 85.333 85.333s85.333-38.223 85.333-85.333z" />
<glyph unicode="&#xe90c;" glyph-name="chat" d="M510.911 789.333c-189.097 0-340.266-151.169-340.266-340.266 0-189.124 151.154-340.266 340.266-340.266 63.259 0 122.069 15.331 172.624 44.898 5.254 3.073 11.57 3.755 17.359 1.875l150.252-48.794c1.251-0.406 2.457 0.799 2.054 2.041l-48.837 150.212c-1.883 5.792-1.201 12.114 1.875 17.371 29.601 50.585 44.938 109.39 44.938 172.662 0 189.112-151.141 340.266-340.266 340.266zM510.911 66.136c-212.675 0-382.932 170.243-382.932 382.932 0 212.661 170.271 382.932 382.932 382.932 212.689 0 382.932-170.257 382.932-382.932 0-67.265-15.636-130.496-45.998-185.779l45.934-141.284c11.165-34.398-21.407-66.97-55.808-55.804l-141.323 45.894c-55.256-30.329-118.488-45.959-185.737-45.959zM362.709 362.667c-11.782 0-21.333 9.551-21.333 21.333s9.551 21.333 21.333 21.333h213.333c11.782 0 21.333-9.551 21.333-21.333s-9.551-21.333-21.333-21.333h-213.333zM362.709 490.667c-11.782 0-21.333 9.551-21.333 21.333s9.551 21.333 21.333 21.333h298.667c11.782 0 21.333-9.551 21.333-21.333s-9.551-21.333-21.333-21.333h-298.667z" />
<glyph unicode="&#xe90d;" glyph-name="check-alt" d="M316.638 139.833l-186.14 185.799c-11.13 11.073-16.705 25.636-16.711 40.21-0.006 14.553 5.541 29.117 16.654 40.231 22.13 22.187 58.14 22.244 80.441 0.114l145.977-145.692 456.306 455.339c11.127 11.099 25.7 16.645 40.27 16.633 14.556-0.013 29.111-5.573 40.228-16.69 11.083-11.168 16.615-25.728 16.604-40.27-0.010-14.571-5.586-29.123-16.718-40.228l-496.469-495.445c-11.15-11.093-25.714-16.612-40.22-16.612-14.564 0-29.070 5.518-40.22 16.612z" />
<glyph unicode="&#xe90e;" glyph-name="check-circle-alt" d="M423.734 344.566l274.127 295.312c21.375 23.027 57.37 24.366 80.397 2.991s24.366-57.37 2.991-80.397l-316.847-341.333c-22.881-24.649-62.036-24.175-84.313 1.021l-138.264 156.377c-20.811 23.538-18.601 59.49 4.936 80.301s59.49 18.601 80.301-4.936l96.671-109.335zM512.017 903.094c-251.392 0-455.111-203.776-455.111-455.111 0-251.392 203.719-455.111 455.111-455.111 251.335 0 455.111 203.719 455.111 455.111 0 251.335-203.776 455.111-455.111 455.111v0z" />
<glyph unicode="&#xe90f;" glyph-name="check-circle" d="M512 64c-212.077 0-384 171.923-384 384s171.923 384 384 384c212.077 0 384-171.923 384-384s-171.923-384-384-384zM512 106.667c188.513 0 341.333 152.82 341.333 341.333s-152.82 341.333-341.333 341.333c-188.513 0-341.333-152.82-341.333-341.333s152.82-341.333 341.333-341.333zM697.502 591.084c8.331 8.332 21.838 8.332 30.17 0.002s8.332-21.838 0.002-30.17l-298.636-298.667c-8.475-8.476-22.267-8.308-30.534 0.371l-115.284 121.046c-8.126 8.532-7.796 22.035 0.735 30.161s22.035 7.796 30.161-0.735l100.208-105.216 283.179 283.208z" />
<glyph unicode="&#xe910;" glyph-name="check" d="M389.534 287.592l384.239 409.669c8.060 8.594 21.561 9.026 30.154 0.966s9.026-21.561 0.966-30.154l-400.182-426.667c-8.568-9.135-23.125-8.959-31.469 0.381l-154.485 172.922c-7.85 8.786-7.090 22.273 1.696 30.122s22.273 7.090 30.122-1.696l138.958-155.543z" />
<glyph unicode="&#xe911;" glyph-name="chevron-circle-down" d="M511.349 330.557l176.821 195.744c7.898 8.743 21.388 9.428 30.131 1.53s9.428-21.388 1.53-30.131l-192.71-213.333c-8.492-9.401-23.257-9.373-31.714 0.058l-191.29 213.333c-7.866 8.772-7.131 22.26 1.641 30.125s22.26 7.131 30.125-1.641l175.466-195.685zM512 64c-212.077 0-384 171.923-384 384s171.923 384 384 384c212.077 0 384-171.923 384-384s-171.923-384-384-384zM512 106.667c188.513 0 341.333 152.82 341.333 341.333s-152.82 341.333-341.333 341.333c-188.513 0-341.333-152.82-341.333-341.333s152.82-341.333 341.333-341.333z" />
<glyph unicode="&#xe912;" glyph-name="chevron-circle-up" d="M512.651 565.443l-176.821-195.744c-7.898-8.743-21.388-9.428-30.131-1.53s-9.428 21.388-1.53 30.131l192.71 213.333c8.492 9.401 23.257 9.373 31.714-0.058l191.29-213.333c7.866-8.772 7.131-22.26-1.641-30.125s-22.26-7.131-30.125 1.641l-175.466 195.685zM512 832c212.077 0 384-171.923 384-384s-171.923-384-384-384c-212.077 0-384 171.923-384 384s171.923 384 384 384zM512 789.333c-188.513 0-341.333-152.82-341.333-341.333s152.82-341.333 341.333-341.333c188.513 0 341.333 152.82 341.333 341.333s-152.82 341.333-341.333 341.333z" />
<glyph unicode="&#xe913;" glyph-name="chevron-down" d="M271.085 612.418l240.915-240.915 240.915 240.915c8.331 8.331 21.839 8.331 30.17 0s8.331-21.839 0-30.17l-256-256c-8.331-8.331-21.839-8.331-30.17 0l-256 256c-8.331 8.331-8.331 21.839 0 30.17s21.839 8.331 30.17 0z" />
<glyph unicode="&#xe914;" glyph-name="chevron-left" d="M676.418 688.915c8.331 8.331 8.331 21.839 0 30.17s-21.839 8.331-30.17 0l-256-256c-8.331-8.331-8.331-21.839 0-30.17l256-256c8.331-8.331 21.839-8.331 30.17 0s8.331 21.839 0 30.17l-240.915 240.915 240.915 240.915z" />
<glyph unicode="&#xe915;" glyph-name="chevron-right-alt" d="M422.172 750.080l-80.839-80.839 222.094-222.151-219.762-219.705 80.839-80.896 300.316 300.316-302.649 303.275zM512 903.111c251.335 0 455.111-203.776 455.111-455.111 0-251.392-203.776-455.111-455.111-455.111-251.392 0-455.111 203.719-455.111 455.111 0 251.335 203.719 455.111 455.111 455.111z" />
<glyph unicode="&#xe916;" glyph-name="chevron-right" d="M390.248 688.915c-8.331 8.331-8.331 21.839 0 30.17s21.839 8.331 30.17 0l256-256c8.331-8.331 8.331-21.839 0-30.17l-256-256c-8.331-8.331-21.839-8.331-30.17 0s-8.331 21.839 0 30.17l240.915 240.915-240.915 240.915z" />
<glyph unicode="&#xe917;" glyph-name="chevron-up" d="M271.085 326.248c-8.331-8.331-21.839-8.331-30.17 0s-8.331 21.839 0 30.17l256 256c8.331 8.331 21.839 8.331 30.17 0l256-256c8.331-8.331 8.331-21.839 0-30.17s-21.839-8.331-30.17 0l-240.915 240.915-240.915-240.915z" />
<glyph unicode="&#xe918;" glyph-name="clear" d="M542.189 448.019l150.839-150.839c8.331-8.331 8.331-21.839 0-30.17s-21.839-8.331-30.17 0l-150.839 150.839-150.839-150.839c-8.331-8.331-21.839-8.331-30.17 0s-8.331 21.839 0 30.17l150.839 150.839-150.852 150.852c-8.331 8.331-8.331 21.839 0 30.17s21.839 8.331 30.17 0l150.852-150.852 150.852 150.852c8.331 8.331 21.839 8.331 30.17 0s8.331-21.839 0-30.17l-150.852-150.852z" />
<glyph unicode="&#xe919;" glyph-name="close" d="M515.032 475.138l286.614 286.614c8.331 8.331 21.839 8.331 30.17 0s8.331-21.839 0-30.17l-286.614-286.614 286.614-286.614c8.331-8.331 8.331-21.839 0-30.17s-21.839-8.331-30.17 0l-286.614 286.614-286.614-286.614c-8.331-8.331-21.839-8.331-30.17 0s-8.331 21.839 0 30.17l286.614 286.614-286.614 286.614c-8.331 8.331-8.331 21.839 0 30.17s21.839 8.331 30.17 0l286.614-286.614z" />
<glyph unicode="&#xe91a;" glyph-name="critical-alt" d="M586.374 857.353l414.729-737.295c11.375-20.222 13.619-43.099 8.064-63.872-5.728-21.422-19.749-40.608-40.603-52.338-12.773-7.185-27.181-10.959-41.836-10.959h-829.457c-47.128 0-85.333 38.205-85.333 85.333 0 14.655 3.774 29.063 10.959 41.836l414.729 737.295c11.352 20.182 29.687 33.965 50.274 40.024 21.314 6.273 45.042 4.268 65.936-7.485 13.621-7.662 24.877-18.918 32.539-32.539zM512 675.556c-31.419 0-56.889-25.47-56.889-56.889v-227.556c0-31.419 25.47-56.889 56.889-56.889s56.889 25.47 56.889 56.889v227.556c0 31.419-25.47 56.889-56.889 56.889zM512 106.667c31.419 0 56.889 25.47 56.889 56.889s-25.47 56.889-56.889 56.889c-31.419 0-56.889-25.47-56.889-56.889s25.47-56.889 56.889-56.889z" />
<glyph unicode="&#xe91b;" glyph-name="desktop" d="M491.423 149.333l0.143 78.634c0 27.316 21.832 49.178 48.95 49.178l307.38 0.112c3.404 0 6.291 2.851 6.291 6.098v457.369c0 3.281-2.809 6.098-6.125 6.098h-670.654c-3.26 0-6.125-2.844-6.125-6.098v-335.391h618.052c11.782 0 21.333-9.551 21.333-21.333s-9.551-21.333-21.333-21.333h-618.052v-79.311c0-3.281 2.809-6.098 6.125-6.098h250.331c11.782 0 21.333-9.551 21.333-21.333s-9.551-21.333-21.333-21.333h-250.331c-26.907 0-48.792 21.946-48.792 48.764v457.369c0 26.891 22.040 48.764 48.792 48.764h670.654c26.907 0 48.792-21.946 48.792-48.764v-457.369c0-26.931-22.107-48.764-48.95-48.764l-307.38-0.112c-3.548 0-6.291-2.746-6.291-6.55l-0.143-78.595h204.271c11.782 0 21.333-9.551 21.333-21.333s-9.551-21.333-21.333-21.333h-440.632c-11.782 0-21.333 9.551-21.333 21.333s9.551 21.333 21.333 21.333h193.694z" />
<glyph unicode="&#xe91c;" glyph-name="edit" d="M740.6 699.046c0.693 0.994 1.455 1.91 2.275 2.747 16.207 26.325 9.253 61.089-16.413 79.092-21.382 14.982-49.899 13.99-70.153-1.894-9.271-7.271-22.681-5.65-29.952 3.621s-5.65 22.681 3.621 29.952c18.064 14.167 39.928 21.466 61.932 21.638 20.552 0.161 41.226-5.896 59.043-18.38 27.736-19.455 42.796-50.263 43.285-81.73 0.321-20.631-5.621-41.545-18.359-59.73-0.795-1.135-1.68-2.169-2.638-3.098l-94.858-135.995c-6.749-9.676-20.070-12.037-29.734-5.271l-114.794 80.379-243.556-346.985-21.572-138.073 119.080 68.216 202.923 283.325c6.86 9.579 20.187 11.782 29.766 4.922s11.782-20.187 4.922-29.766l-205.63-287.103-6.74-6.089-161.651-92.603c-15.526-8.894-34.444 4.126-31.682 21.804l29.194 186.856c0.504 3.225 1.741 6.291 3.616 8.963l324.298 462.016c6.762 9.633 20.047 11.97 29.691 5.224l114.503-80.109 19.58 28.071zM599.511 703.913l-41.142-58.613 97.247-68.093 40.995 58.773-97.1 67.933z" />
<glyph unicode="&#xe91d;" glyph-name="elipsis-vertical" d="M576 682.667c0-35.371-28.672-64-64-64s-64 28.629-64 64c0 35.371 28.672 64 64 64s64-28.629 64-64zM576 469.124c0-35.371-28.672-64-64-64s-64 28.629-64 64c0 35.371 28.672 64 64 64s64-28.629 64-64zM576 255.582c0-35.371-28.672-64-64-64s-64 28.629-64 64c0 35.371 28.672 64 64 64s64-28.629 64-64z" />
<glyph unicode="&#xe91e;" glyph-name="email" d="M512 398.139l341.333 220.932v65.507c0 10.057-9.691 19.049-22.187 19.049h-638.293c-12.496 0-22.187-8.992-22.187-19.049v-65.507l341.333-220.932zM128 684.578c0 34.364 29.477 61.716 64.853 61.716h638.293c35.376 0 64.853-27.352 64.853-61.716v-88.715l-384-248.549-341.333 220.932v-357.198c0-10.057 9.691-19.049 22.187-19.049h638.293c12.496 0 22.187 8.992 22.187 19.049v236.951c0 11.782 9.551 21.333 21.333 21.333s21.333-9.551 21.333-21.333v-236.951c0-34.364-29.477-61.716-64.853-61.716h-638.293c-35.376 0-64.853 27.352-64.853 61.716v396.109c-0.003 0.219-0.003 0.439 0 0.658v76.762z" />
<glyph unicode="&#xe91f;" glyph-name="error" d="M522.407 784.492c-10.285 5.748-23.282 2.069-29.030-8.216l-332.613-595.203c-1.777-3.181-2.711-6.763-2.711-10.407 0-11.782 9.551-21.333 21.333-21.333h665.227c3.644 0 7.226 0.933 10.407 2.711 10.285 5.748 13.963 18.745 8.216 29.030l-332.613 595.203c-1.926 3.446-4.77 6.29-8.216 8.216zM567.868 797.090l332.613-595.203c17.243-30.855 6.207-69.846-24.648-87.089-9.542-5.332-20.29-8.132-31.221-8.132h-665.227c-35.346 0-64 28.654-64 64 0 10.931 2.799 21.679 8.132 31.221l332.613 595.203c17.243 30.855 56.234 41.89 87.089 24.648 10.338-5.777 18.871-14.31 24.648-24.648zM490.667 254.653c0 12.474 10.206 22.68 22.68 22.68s22.68-10.206 22.68-22.68c0-12.474-10.206-22.68-22.68-22.68s-22.68 10.206-22.68 22.68zM490.667 554.532c-0.074 11.782 9.416 21.393 21.198 21.468s21.393-9.416 21.468-21.198l1.347-213.333c0.074-11.782-9.416-21.393-21.198-21.468s-21.393 9.416-21.468 21.198l-1.347 213.333z" />
<glyph unicode="&#xe920;" glyph-name="external-alt" d="M807.216 803.556h-195.66c-23.564 0-42.667 19.103-42.667 42.667s19.103 42.667 42.667 42.667h298.667c23.564 0 42.667-19.103 42.667-42.667v-274.165c0-23.564-19.103-42.667-42.667-42.667s-42.667 19.103-42.667 42.667v171.159l-313.214-313.214c-16.662-16.662-43.677-16.662-60.34 0s-16.662 43.677 0 60.34l313.214 313.214zM753.778 277.333c0 23.564 19.103 42.667 42.667 42.667s42.667-19.103 42.667-42.667v-151.704c0-65.456-53.063-118.519-118.519-118.519h-530.963c-65.456 0-118.519 53.063-118.519 118.519v530.963c0 65.456 53.063 118.519 118.519 118.519h149.346c23.564 0 42.667-19.103 42.667-42.667s-19.103-42.667-42.667-42.667h-149.346c-18.328 0-33.185-14.858-33.185-33.185v-530.963c0-18.328 14.858-33.185 33.185-33.185h530.963c18.328 0 33.185 14.858 33.185 33.185v151.704z" />
<glyph unicode="&#xe921;" glyph-name="faq" d="M632.098 531.306c-29.486-121.383-138.076-210.828-268.659-210.828-47.556 0-92.415 10.864-131.794 31.95l-97.124-30.903c-29.17-9.493-56.818 18.155-47.327 47.32l31.582 97.131c-21.793 40.34-33.438 85.28-33.438 131.792 0 153.324 124.254 276.565 278.101 276.565 153.563 0 276.565-123.002 276.565-276.565 0-7.717-0.31-15.359-0.919-22.912 7.13 0.547 14.284 0.824 21.454 0.824 153.62 0 276.608-123.016 276.608-276.608 0-47.509-10.86-92.34-31.95-131.722l31.649-97.216c9.377-29.119-18.193-56.726-47.338-47.308l-97.199 31.592c-39.362-21.075-84.192-31.911-131.77-31.911-127.437 0-236.506 85.369-267.742 206.647-2.939 11.41 3.929 23.041 15.338 25.98s23.041-3.929 25.98-15.338c26.401-102.508 118.536-174.622 226.424-174.622 43.604 0 84.031 10.529 118.718 30.828 5.256 3.076 11.577 3.759 17.369 1.876l96.53-31.374-31.42 96.514c-1.886 5.795-1.205 12.119 1.873 17.379 20.318 34.719 30.871 75.153 30.871 118.676 0 130.030-103.887 233.941-233.941 233.941-9.514 0-19.005-0.574-28.442-1.707zM130.852 365.132l96.668 30.758c5.757 1.832 12.021 1.137 17.237-1.913 34.694-20.287 75.135-30.832 118.682-30.832 129.872 0 233.899 104.412 233.899 234.624 0 129.999-103.899 233.899-233.899 233.899-130.361 0-235.435-104.217-235.435-233.899 0-42.124 11.285-82.698 32.364-118.718 3.077-5.257 3.759-11.579 1.876-17.372l-31.392-96.547zM576 192c-11.782 0-21.333 9.551-21.333 21.333s9.551 21.333 21.333 21.333h170.667c11.782 0 21.333-9.551 21.333-21.333s-9.551-21.333-21.333-21.333h-170.667zM576 320c-11.782 0-21.333 9.551-21.333 21.333s9.551 21.333 21.333 21.333h213.333c11.782 0 21.333-9.551 21.333-21.333s-9.551-21.333-21.333-21.333h-213.333zM321.79 683.9c-7.074-9.422-20.446-11.326-29.869-4.253s-11.326 20.446-4.253 29.869c16.325 21.745 40.605 35.002 72.401 36.986 99.918 6.201 141.266-129.405 39.799-172.202-15.922-6.736-15.461-6.159-15.774-20.243-0.262-11.779-10.023-21.116-21.802-20.854s-21.116 10.023-20.854 21.802c0.718 32.327 11.449 45.747 41.827 58.599 55.068 23.227 33.588 93.673-20.546 90.314-19.241-1.201-32.056-8.197-40.929-20.017zM362.667 448.309c-5.547 0-11.093 2.133-14.933 6.4-4.267 3.84-6.4 8.96-6.4 14.933 0 5.547 2.133 11.093 6.4 14.976 7.68 8.064 22.187 8.064 29.867 0 4.267-3.883 6.4-9.429 6.4-14.976 0-5.973-2.133-11.093-6.4-14.933-3.84-4.267-9.387-6.4-14.933-6.4z" />
<glyph unicode="&#xe922;" glyph-name="filter" d="M300.8 192h-66.133c-28.444 0-28.444 42.667 0 42.667h66.133c9.882 48.69 52.925 85.333 104.533 85.333s94.651-36.643 104.533-85.333h279.467c28.444 0 28.444-42.667 0-42.667h-279.467c-9.882-48.69-52.925-85.333-104.533-85.333s-94.651 36.643-104.533 85.333zM556.8 448h-364.8c-14.222 0-21.333 10.667-21.333 21.333s7.111 21.333 21.333 21.333h364.8c9.882 48.69 52.925 85.333 104.533 85.333s94.651-36.643 104.533-85.333h66.133c14.222 0 21.333-10.667 21.333-21.333s-7.111-21.333-21.333-21.333h-66.133c-9.882-48.69-52.925-85.333-104.533-85.333s-94.651 36.643-104.533 85.333zM300.8 704h-66.133c-28.444 0-28.444 42.667 0 42.667h66.133c9.882 48.69 52.925 85.333 104.533 85.333s94.651-36.643 104.533-85.333h279.467c28.444 0 28.444-42.667 0-42.667h-279.467c-9.882-48.69-52.925-85.333-104.533-85.333s-94.651 36.643-104.533 85.333zM405.333 661.333c35.35 0 64 28.65 64 64s-28.65 64-64 64c-35.35 0-64-28.65-64-64s28.65-64 64-64zM661.333 405.333c35.35 0 64 28.65 64 64s-28.65 64-64 64c-35.35 0-64-28.65-64-64s28.65-64 64-64zM405.333 149.333c35.35 0 64 28.65 64 64s-28.65 64-64 64c-35.35 0-64-28.65-64-64s28.65-64 64-64z" />
<glyph unicode="&#xe923;" glyph-name="heart" d="M537.999 590.985c76.845-101.139 55.382-190.44-26.366-185.229-81.465-4.94-102.758 84.215-26.030 185.235-0.081 0.333-0.154 0.667-0.219 1.002-26.437 42.582-73.392 69.361-125.19 69.361-81.153 0-146.859-65.165-146.859-145.493 0-39.688 18.946-80.105 51.286-114.898l247.196-243.686 246.53 243.003c32.987 35.459 51.929 75.877 51.929 115.603 0 80.291-65.712 145.451-146.859 145.451-51.807 0-98.767-26.788-125.203-69.381-0.064-0.324-0.135-0.646-0.214-0.968zM511.799 555.171c-50.018-68.818-38.172-109.479-1.781-106.76 1.043 0.078 2.074 0.079 3.088 0.009 0.161-0.008 0.322-0.019 0.483-0.031 36.39-2.718 48.238 37.974-1.79 106.782zM511.477 106.691c-5.532-0.096-11.098 1.946-15.35 6.138l-262.104 258.411c-39.794 42.776-63.356 93.042-63.356 144.621 0 103.972 84.887 188.16 189.525 188.16 60.741 0 116.382-28.625 151.62-75.218 35.239 46.58 90.872 75.196 151.604 75.196 104.631 0 189.525-84.181 189.525-188.117 0-51.615-23.558-101.883-63.999-145.326l-261.461-257.749c-4.419-4.356-10.258-6.392-16.003-6.116z" />
<glyph unicode="&#xe924;" glyph-name="hide-alt" d="M580.114 313.603l125.348-117.98c-53.284-30.506-117.8-50.229-194.491-50.229-249.078 0-400.080 214.26-414.277 306.092l-34.999-2.83c0 0 35.897 120.451 152.304 209.497l110.162-103.648c-23.632-33.112-37.829-73.322-37.829-117.081 0-111.645 90.529-202.174 202.174-202.174 48.117 0 91.697 17.522 126.426 45.601l-34.819 32.752zM669.969 351.073c12.804 26.193 20.712 55.216 20.712 86.351 0 111.69-90.529 202.174-202.174 202.174-35.538 0-68.38-9.929-97.268-26.238l92.326-86.845c1.707 0.090 3.19 0.764 4.942 0.764 49.6 0 89.855-40.21 89.855-89.855 0-0.045-0.045-0.090-0.045-0.135l91.652-86.216zM777.66 249.671l135.007-127.055c9.075-8.491 9.48-22.733 0.988-31.764-4.448-4.672-10.423-7.054-16.354-7.054-5.526 0-11.097 2.022-15.41 6.11l-727.647 684.831c-9.030 8.491-9.435 22.733-0.943 31.764 8.536 9.030 22.733 9.435 31.764 0.943l107.916-101.581c58.316 27.586 129.841 46.051 217.989 46.051 269.565 0 449.276-303.261 449.276-303.261l-61.191 8.446c-12.49-60.293-52.071-142.51-121.394-207.431zM407.619 475.94l124.135-116.812c-12.894-7.143-27.496-11.546-43.265-11.546-49.6 0-89.855 40.255-89.855 89.855 0 13.838 3.37 26.777 8.986 38.503z" />
<glyph unicode="&#xe925;" glyph-name="info-alt" d="M512-7.111c-250.937 0-455.111 204.231-455.111 455.111 0 250.994 204.174 455.111 455.111 455.111s455.111-204.117 455.111-455.111c0-250.88-204.174-455.111-455.111-455.111zM512 163.556c31.419 0 56.889 25.47 56.889 56.889v227.556c0 31.419-25.47 56.889-56.889 56.889s-56.889-25.47-56.889-56.889v-227.556c0-31.419 25.47-56.889 56.889-56.889zM512 732.444c-31.419 0-56.889-25.47-56.889-56.889s25.47-56.889 56.889-56.889c31.419 0 56.889 25.47 56.889 56.889s-25.47 56.889-56.889 56.889z" />
<glyph unicode="&#xe926;" glyph-name="info" d="M512 832c212.077 0 384-171.923 384-384s-171.923-384-384-384c-212.077 0-384 171.923-384 384s171.923 384 384 384zM512 789.333c-188.513 0-341.333-152.82-341.333-341.333s152.82-341.333 341.333-341.333c188.513 0 341.333 152.82 341.333 341.333s-152.82 341.333-341.333 341.333zM490.667 641.347c0 12.474 10.206 22.68 22.68 22.68s22.68-10.206 22.68-22.68c0-12.474-10.206-22.68-22.68-22.68s-22.68 10.206-22.68 22.68zM490.667 234.667v302.156c0 11.782 9.551 21.333 21.333 21.333s21.333-9.551 21.333-21.333v-302.156c0-11.782-9.551-21.333-21.333-21.333s-21.333 9.551-21.333 21.333z" />
<glyph unicode="&#xe927;" glyph-name="laptop" d="M233.692 234.667h492.034c18.927 0 38.173 14.896 43.577 33.534l105.298 386.673c0.471 4.392-1.178 6.46-3.017 6.46h-459.54c-8.078 0-16.68-6.739-18.072-14.577l-53.354-208.577c-2.92-11.415-14.54-18.301-25.955-15.381s-18.301 14.54-15.381 25.955l52.983 206.821c4.588 27.335 31.509 48.426 59.779 48.426h459.54c28.444 0 48.496-25.155 44.816-56.991l-106.019-390.337c-10.719-36.991-46.484-64.672-84.655-64.672h-492.034c-32.57 0-63.818 12.912-86.826 35.897-2.29 2.287-4.029 5.065-5.086 8.124l-33.944 98.215c-4.789 13.856 5.503 28.302 20.163 28.302h556.042c11.782 0 21.333-9.551 21.333-21.333s-9.551-21.333-21.333-21.333h-526.097l22.455-64.973c14.613-12.991 33.579-20.231 53.293-20.231z" />
<glyph unicode="&#xe928;" glyph-name="link" d="M461.194 437.977c5.129-10.607 0.688-23.364-9.919-28.493s-23.364-0.688-28.493 9.919c-27.44 56.747-16.41 125.325 28.879 170.615l150.849 150.849c29.159 29.159 67.375 43.738 105.592 43.739s76.437-14.579 105.597-43.739c28.932-28.932 43.511-66.782 43.736-104.702 0.229-38.515-14.35-77.101-43.736-106.487l-90.256-90.256c-8.331-8.331-21.839-8.331-30.17 0s-8.331 21.839 0 30.17l90.256 90.256c41.656 41.656 41.656 109.194 0 150.849s-109.194 41.656-150.849 0l-150.849-150.849c-32.352-32.352-40.232-81.348-20.638-121.871zM563.829 498.517c-4.886 10.721-0.156 23.373 10.565 28.26s23.373 0.156 28.26-10.565c25.629-56.235 14.109-123.132-30.315-167.557l-150.849-150.849c-31.026-31.026-72.309-45.546-112.935-43.559-35.736 1.748-70.963 16.268-98.255 43.559-28.666 28.666-43.241 66.086-43.726 103.655-0.502 38.862 14.074 77.882 43.726 107.534l62.218 62.218c8.331 8.331 21.839 8.331 30.17 0s8.331-21.839 0-30.17l-62.218-62.218c-41.656-41.656-41.656-109.194 0-150.849s109.194-41.656 150.849 0l150.849 150.849c31.736 31.736 39.966 79.528 21.661 119.692z" />
<glyph unicode="&#xe929;" glyph-name="list-detailed" d="M448 618.667c-11.782 0-21.333 9.551-21.333 21.333s9.551 21.333 21.333 21.333h384c11.782 0 21.333-9.551 21.333-21.333s-9.551-21.333-21.333-21.333h-384zM192 618.667c-11.782 0-21.333 9.551-21.333 21.333s9.551 21.333 21.333 21.333h128c11.782 0 21.333-9.551 21.333-21.333s-9.551-21.333-21.333-21.333h-128zM448 490.667c-11.782 0-21.333 9.551-21.333 21.333s9.551 21.333 21.333 21.333h384c11.782 0 21.333-9.551 21.333-21.333s-9.551-21.333-21.333-21.333h-384zM192 490.667c-11.782 0-21.333 9.551-21.333 21.333s9.551 21.333 21.333 21.333h128c11.782 0 21.333-9.551 21.333-21.333s-9.551-21.333-21.333-21.333h-128zM448 362.667c-11.782 0-21.333 9.551-21.333 21.333s9.551 21.333 21.333 21.333h384c11.782 0 21.333-9.551 21.333-21.333s-9.551-21.333-21.333-21.333h-384zM192 362.667c-11.782 0-21.333 9.551-21.333 21.333s9.551 21.333 21.333 21.333h128c11.782 0 21.333-9.551 21.333-21.333s-9.551-21.333-21.333-21.333h-128zM448 234.667c-11.782 0-21.333 9.551-21.333 21.333s9.551 21.333 21.333 21.333h384c11.782 0 21.333-9.551 21.333-21.333s-9.551-21.333-21.333-21.333h-384zM192 234.667c-11.782 0-21.333 9.551-21.333 21.333s9.551 21.333 21.333 21.333h128c11.782 0 21.333-9.551 21.333-21.333s-9.551-21.333-21.333-21.333h-128z" />
<glyph unicode="&#xe92a;" glyph-name="list-simple" d="M192.021 618.667c-11.782 0-21.333 9.551-21.333 21.333s9.551 21.333 21.333 21.333h640c11.782 0 21.333-9.551 21.333-21.333s-9.551-21.333-21.333-21.333h-640zM192.021 490.667c-11.782 0-21.333 9.551-21.333 21.333s9.551 21.333 21.333 21.333h640c11.782 0 21.333-9.551 21.333-21.333s-9.551-21.333-21.333-21.333h-640zM192 362.667c-11.782 0-21.333 9.551-21.333 21.333s9.551 21.333 21.333 21.333h640c11.782 0 21.333-9.551 21.333-21.333s-9.551-21.333-21.333-21.333h-640zM192.021 234.667c-11.782 0-21.333 9.551-21.333 21.333s9.551 21.333 21.333 21.333h640c11.782 0 21.333-9.551 21.333-21.333s-9.551-21.333-21.333-21.333h-640z" />
<glyph unicode="&#xe92b;" glyph-name="lock-alt" d="M369.778 642.332v-80.612h284.444v80.612c0 81.067-63.829 146.944-142.222 146.944s-142.222-65.877-142.222-146.944v0zM791.268 561.721c34.304 0 62.066-28.217 62.066-63.147v-442.482c0-34.93-27.762-63.26-62.066-63.26h-558.535c-34.304 0-62.066 28.331-62.066 63.26v442.482c0 34.93 27.762 63.147 62.066 63.147h23.268v80.612c0 143.986 114.631 260.722 256 260.722s256-116.736 256-260.722v-80.612h23.268z" />
<glyph unicode="&#xe92c;" glyph-name="logo-paypal" d="M235.583 209.244l52.324 2.892c11.764 0.65 21.828-8.36 22.478-20.124s-8.36-21.828-20.124-22.478l-57.938-3.169c-14.131 0-22.258 1.832-30.789 12.011-7.561 9.022-10.857 19.646-9.045 31.464l91.578 584.613c4.19 27.268 23.682 36.625 52.266 36.625h219.95c7.576 0 14.019 0.124 26.459 0.454 44.811 1.189 61.724 0.299 83.081-7.283 72.478-25.8 120.756-86.417 111.764-179.515-0.328-2.557-0.716-5.493-1.153-8.695 45.917-41.429 57.053-86.453 44.203-153.711-23.899-125.492-102.582-187.539-235.579-187.539h-17.112c-4.446 0-12.926-9.786-14.546-19.983l-24.191-161.315c-3.257-21.554-17.22-44.945-39.708-44.945h-114.459c-12.749 0-17.115 5.509-21.283 14.785-0.945 2.102-1.646 4.106-2.53 6.956 1.177-3.833-0.885 2.367 1.338-0.106-6.348 7.657-7.76 25.075-6.445 34.19l43.832 282.476 1.233 3.603c6.696 16.998 22.502 29.845 40.93 29.845h64.521c131.731 0 206.521 51.011 231.265 161.622 0.162 0.856 0.162 0.856 0.326 1.736 0.622 3.361 1.275 7.157 1.949 11.314-15.958 5.908-39.933 8.905-71.57 8.905h-182.805c-8.989 0-9.721-0.458-9.637 0.238l-22.332-112.684c-2.29-11.557-13.516-19.070-25.074-16.779s-19.070 13.516-16.779 25.074c7.619 38.444 7.619 38.444 22.167 111.745 3.406 22.388 23.717 35.073 51.654 35.073h182.805c31.050 0 56.63-2.487 77.216-8.471 3.304 65.844-31.061 107.031-84.291 125.98-14.45 5.13-28.537 5.871-67.658 4.834-12.801-0.34-19.526-0.469-27.59-0.469h-219.95c-10.102 0-10.021 0.039-10.104-0.5l-90.647-578.667zM496.638 397.627h-64.521c0.701 0-0.512-0.986-0.843-1.744l0.003 0.968-42.949-278.729c0.121 0.73 0.189-1.796 0.343-3.854-0.067 0.991-0.004-0.685-3.216 3.099 1.848-2.187 2.865-3.921 3.776-6.154h94.517c1.614 2.856 2.963 6.603 3.27 8.63l24.216 161.473c4.607 29.013 28.116 56.14 56.713 56.14h17.112c112.921 0 173.681 47.914 193.668 152.867 7.865 41.165 5.391 68.38-11.521 92.619-32.039-125.2-124.042-185.315-270.567-185.315zM375.042 111.212h13.921c-1.643 2.060-4.159 0-13.921 0z" />
<glyph unicode="&#xe92d;" glyph-name="menu" d="M192.021 661.333c-11.782 0-21.333 9.551-21.333 21.333s9.551 21.333 21.333 21.333h640c11.782 0 21.333-9.551 21.333-21.333s-9.551-21.333-21.333-21.333h-640zM192.021 448.021c-11.782 0-21.333 9.551-21.333 21.333s9.551 21.333 21.333 21.333h640c11.782 0 21.333-9.551 21.333-21.333s-9.551-21.333-21.333-21.333h-640zM192.021 234.667c-11.782 0-21.333 9.551-21.333 21.333s9.551 21.333 21.333 21.333h640c11.782 0 21.333-9.551 21.333-21.333s-9.551-21.333-21.333-21.333h-640z" />
<glyph unicode="&#xe92e;" glyph-name="mobile" d="M602.845 106.42c11.782-0.002 21.332-9.555 21.33-21.337s-9.555-21.332-21.337-21.33l-239.631 0.038c-35.55 0-64.406 28.856-64.406 64.406v639.738c0 35.566 28.836 64.143 64.409 64.143l297.696-0.038c35.57 0 64.406-28.577 64.406-64.143v-682.811c0-11.782-9.551-21.333-21.333-21.333s-21.333 9.551-21.333 21.333v682.811c0 11.915-9.648 21.476-21.742 21.476l-297.696 0.038c-12.092 0-21.74-9.561-21.74-21.476v-639.738c0-11.986 9.754-21.74 21.743-21.74l239.635-0.038zM480 191.963c0 17.716 14.322 32.037 32 32.037s32-14.322 32-32.037c0-17.678-14.322-32-32-32s-32 14.322-32 32zM448 704c-11.782 0-21.333 9.551-21.333 21.333s9.551 21.333 21.333 21.333h128c11.782 0 21.333-9.551 21.333-21.333s-9.551-21.333-21.333-21.333h-128z" />
<glyph unicode="&#xe92f;" glyph-name="notification" d="M490.667 810.351c0 11.782 9.551 21.333 21.333 21.333s21.333-9.551 21.333-21.333v-84.638c0-11.782-9.551-21.333-21.333-21.333-102.112 0-185.813-94.184-185.813-208.529v-102.272c0-35.323-21.998-77.501-50.879-97.696l-4.361-2.348c-1.072-0.425-3.746-1.899-6.324-4.117-3.395-2.921-4.953-5.707-4.953-8.82 0 0.326 0.222-0.833 0.689-1.648 0.602-1.048 1.469-1.552 6.137-1.552h498.389c4.642 0 5.495 0.496 6.093 1.54 0.469 0.818 0.691 1.981 0.691 1.66 0 2.002-1.599 4.719-5.212 7.854-2.914 2.528-5.951 4.321-7.366 4.96l-4.117 2.45c-28.106 21.333-49.822 63.182-49.822 97.718v102.272c0 83.847-48.002 158.49-119.025 189.423-10.802 4.705-15.745 17.275-11.040 28.077s17.275 15.745 28.077 11.040c86.721-37.769 144.655-127.857 144.655-228.54v-102.272c0-20.301 14.395-48.624 31.436-62.539 4.436-2.276 9.757-5.671 15.162-10.36 12.093-10.492 19.918-23.791 19.918-40.082 0-6.455-1.535-14.491-6.338-22.873-8.188-14.289-23.151-22.993-43.112-22.993h-498.389c-19.972 0-34.944 8.696-43.143 22.981-4.812 8.385-6.351 16.426-6.351 22.886 0 16.973 7.721 30.778 19.793 41.164 5.532 4.76 11 8.072 15.617 10.223 16.808 12.809 31.107 40.846 31.107 61.594v102.272c0 129.097 90.408 238.152 207.147 250.109v64.392zM574.545 180.449c5.45 10.446 18.336 14.496 28.782 9.046s14.496-18.336 9.046-28.782c-5.065-9.708-11.585-18.562-19.337-26.315-19.478-19.425-50.92-30.898-81.036-30.898-29.148 0-57.712 11.305-77.545 30.869-7.477 7.428-11.367 13.55-18.012 26.433-5.401 10.471-1.291 23.338 9.181 28.739s23.338 1.291 28.739-9.181c4.722-9.155 6.726-12.309 10.108-15.669 11.657-11.498 29.412-18.525 47.53-18.525 19.393 0 39.927 7.493 50.886 18.422 4.68 4.68 8.612 10.019 11.659 15.86z" />
<glyph unicode="&#xe930;" glyph-name="pending-paused" d="M486.87 107.577c8.33-0.606 16.71-0.91 25.13-0.91 188.495 0 341.333 152.838 341.333 341.333s-152.838 341.333-341.333 341.333c-188.495 0-341.333-152.838-341.333-341.333 0-8.42 0.305-16.8 0.91-25.13 31.781 16.074 67.712 25.13 105.756 25.13 129.589 0 234.667-105.077 234.667-234.667 0-38.044-9.056-73.976-25.13-105.756zM461.428 67.803c-42.984-54.297-109.475-89.137-184.094-89.137-129.589 0-234.667 105.077-234.667 234.667 0 74.67 34.887 141.202 89.248 184.183-0.621 1.621-1.052 3.345-1.264 5.148-1.762 14.972-2.651 30.102-2.651 45.336 0 212.059 171.941 384 384 384s384-171.941 384-384c0-212.059-171.941-384-384-384-15.441 0-30.775 0.913-45.946 2.723-1.611 0.192-3.159 0.559-4.626 1.080zM469.333 213.333c0 106.025-85.975 192-192 192s-192-85.975-192-192c0-106.025 85.975-192 192-192s192 85.975 192 192zM341.333 128c0-11.782-9.551-21.333-21.333-21.333s-21.333 9.551-21.333 21.333v170.667c0 11.782 9.551 21.333 21.333 21.333s21.333-9.551 21.333-21.333v-170.667zM256 128c0-11.782-9.551-21.333-21.333-21.333s-21.333 9.551-21.333 21.333v170.667c0 11.782 9.551 21.333 21.333 21.333s21.333-9.551 21.333-21.333v-170.667zM533.333 456.841l100.418-100.418c8.331-8.331 8.331-21.839 0-30.17s-21.839-8.331-30.17 0l-106.667 106.667c-4.001 4.001-6.248 9.427-6.248 15.085v234.667c0 11.782 9.551 21.333 21.333 21.333s21.333-9.551 21.333-21.333v-225.83z" />
<glyph unicode="&#xe931;" glyph-name="pending" d="M633.752 356.423c8.331-8.331 8.331-21.839 0-30.17s-21.839-8.331-30.17 0l-106.667 106.667c-4.001 4.001-6.248 9.427-6.248 15.085v234.667c0 11.782 9.551 21.333 21.333 21.333s21.333-9.551 21.333-21.333v-225.83l100.418-100.418zM853.333 448c0 188.495-152.838 341.333-341.333 341.333s-341.333-152.838-341.333-341.333c0-188.495 152.838-341.333 341.333-341.333s341.333 152.838 341.333 341.333zM896 448c0-212.059-171.941-384-384-384s-384 171.941-384 384c0 212.059 171.941 384 384 384s384-171.941 384-384z" />
<glyph unicode="&#xe932;" glyph-name="phone" d="M636.805 317.145c35.341 9.142 71.459-11.758 81.106-46.926l26.41-95.772c9.804-35.386-10.812-72.015-46.953-82.286l-102.814-24.919c-13.3-3.78-26.759-4.756-39.835-2.525-11.614 1.982-19.423 13.004-17.441 24.618s13.004 19.423 24.618 17.441c6.513-1.111 13.584-0.599 21.797 1.719l102.805 24.917c12.797 3.643 20.243 16.873 16.698 29.669l-26.425 95.824c-3.483 12.698-16.512 20.237-29.308 16.927l-101.706-26.174c-4.019-1.034-8.252-0.874-12.181 0.461-20.163 6.853-48.159 25.985-75.243 63.103-16.466 22.566-30.578 49.73-41.703 81.85-22.008 63.52-19.39 125.777-1.796 181.727 5.215 16.586 10.531 28.806 14.326 35.858 2.536 4.713 6.751 8.3 11.809 10.051l97.983 33.912c11.997 4.178 18.737 16.937 15.414 29.194l-23.393 86.343c-3.471 12.814-16.615 20.422-29.145 17.149l-94.139-26.296c-9.821-2.578-18.528-7.933-25.283-15.548-56.518-63.813-82.006-199.438-29.395-371.236 30.434-99.271 75.233-172.305 127.506-220.502 8.662-7.987 9.209-21.483 1.223-30.145s-21.483-9.209-30.145-1.223c-57.96 53.441-106.773 133.020-139.378 239.37-56.839 185.602-28.438 336.731 38.26 412.037 12.356 13.928 28.399 23.795 46.056 28.427l94.158 26.301c35.519 9.288 71.867-11.753 81.464-47.178l23.392-86.339c9.185-33.882-9.42-69.107-42.602-80.661l-89.605-31.012c-2.289-5.288-5.026-12.466-7.803-21.3-15.049-47.858-17.284-101.006 1.411-154.962 9.754-28.16 21.905-51.551 35.853-70.667 12.733-17.45 26.172-30.328 39.404-39.371 4.022-2.749 7.433-4.774 10.081-6.179l94.518 24.324z" />
<glyph unicode="&#xe933;" glyph-name="play-sm" d="M384 581.587v-267.173l229.769 133.587-229.769 133.587zM373.389 637.109l293.547-170.667c14.148-8.225 14.148-28.66 0-36.886l-293.547-170.667c-14.222-8.269-32.056 1.992-32.056 18.443v341.333c0 16.451 17.834 26.711 32.056 18.443z" />
<glyph unicode="&#xe934;" glyph-name="play" d="M369.916 143.743c7.025-9.458 5.053-22.821-4.405-29.847-7.22-5.363-15.975-8.259-24.969-8.259-23.127 0-41.875 18.748-41.875 41.875v598.795c0 8.069 2.288 15.972 6.598 22.792 12.588 19.92 38.941 25.864 58.861 13.276l443.888-280.502c7.929-5.011 14.66-11.703 19.717-19.604 19.054-29.771 10.365-69.351-19.406-88.405l-343.491-219.834c-9.924-6.351-23.117-3.455-29.468 6.469s-3.455 23.117 6.469 29.468l343.491 219.834c9.924 6.351 12.82 19.545 6.469 29.468-1.685 2.633-3.929 4.864-6.572 6.535l-443.888 280.502v-597.288c9.352 5.967 21.865 3.768 28.583-5.276z" />
<glyph unicode="&#xe935;" glyph-name="question-alt" d="M511.977 903.134c251.335 0 455.111-203.776 455.111-455.111s-203.776-455.111-455.111-455.111c-251.392 0-455.111 203.776-455.111 455.111s203.719 455.111 455.111 455.111zM458.445 163.578h113.778v113.778h-113.778v-113.778zM652.777 449.388c37.604 37.604 58.311 87.609 58.311 140.857 0 53.191-20.708 103.196-58.311 140.8-77.596 77.54-203.947 77.54-281.543 0l-40.22-40.22 80.384-80.498 40.277 40.22c33.28 33.28 87.381 33.28 120.661 0 16.1-16.1 24.974-37.547 24.974-60.302 0-22.812-8.875-44.26-24.974-60.359-16.1-16.156-37.547-24.974-60.359-24.974h-56.889v-170.667h113.778v65.081c31.403 9.273 60.132 26.34 83.911 50.062z" />
<glyph unicode="&#xe936;" glyph-name="recurring-paused" d="M461.126 67.396c-42.993-54.064-109.339-88.729-183.771-88.729-129.589 0-234.667 105.077-234.667 234.667 0 74.414 34.648 140.745 88.689 183.739-2.23 16.808-3.356 33.826-3.356 50.979 0 212.074 171.912 384 384 384 117.854 0 226.65-53.554 298.645-142.603v121.219c0 11.782 9.551 21.333 21.333 21.333s21.333-9.551 21.333-21.333v-169.691c0-11.782-9.551-21.333-21.333-21.333h-170.667c-11.782 0-21.333 9.551-21.333 21.333s9.551 21.333 21.333 21.333h116.407c-64.012 79.365-160.809 127.075-265.719 127.075-188.523 0-341.333-152.823-341.333-341.333 0-8.437 0.306-16.834 0.913-25.18 31.78 16.073 67.71 25.129 105.753 25.129 129.589 0 234.667-105.077 234.667-234.667 0-38.025-9.047-73.939-25.105-105.708 8.321-0.604 16.693-0.908 25.105-0.908 188.51 0 341.333 152.811 341.333 341.333 0 13.912-0.835 27.732-2.49 41.378-1.419 11.696 6.913 22.328 18.609 23.747s22.328-6.913 23.747-18.609c1.862-15.351 2.801-30.887 2.801-46.516 0-212.088-171.926-384-384-384-17.126 0-34.116 1.122-50.896 3.344zM469.355 213.333c0 106.025-85.975 192-192 192s-192-85.975-192-192c0-106.025 85.975-192 192-192s192 85.975 192 192zM341.355 128c0-11.782-9.551-21.333-21.333-21.333s-21.333 9.551-21.333 21.333v170.667c0 11.782 9.551 21.333 21.333 21.333s21.333-9.551 21.333-21.333v-170.667zM256.021 128c0-11.782-9.551-21.333-21.333-21.333s-21.333 9.551-21.333 21.333v170.667c0 11.782 9.551 21.333 21.333 21.333s21.333-9.551 21.333-21.333v-170.667z" />
<glyph unicode="&#xe937;" glyph-name="recurring" d="M234.667 212.432v-105.766c0-11.782-9.551-21.333-21.333-21.333s-21.333 9.551-21.333 21.333v170.667c0 11.782 9.551 21.333 21.333 21.333h170.667c11.782 0 21.333-9.551 21.333-21.333s-9.551-21.333-21.333-21.333h-129.512c59.968-80.383 154.561-129.213 257.532-129.213 177.314 0 321.185 143.883 321.185 321.185 0 13.127-0.785 26.132-2.343 38.977-1.419 11.696 6.913 22.328 18.609 23.747s22.328-6.913 23.747-18.609c1.765-14.551 2.654-29.271 2.654-44.114 0-200.866-162.973-363.852-363.852-363.852-108.707 0-209.211 48.073-277.353 128.312zM810.96 704.524v105.832c0 11.782 9.551 21.333 21.333 21.333s21.333-9.551 21.333-21.333v-170.464c0-11.782-9.551-21.333-21.333-21.333h-170.859c-11.782 0-21.333 9.551-21.333 21.333s9.551 21.333 21.333 21.333h129.467c-59.927 80.392-154.546 129.285-257.588 129.285-177.314 0-321.185-143.883-321.185-321.185 0-13.127 0.785-26.132 2.343-38.977 1.419-11.696-6.913-22.328-18.609-23.747s-22.328 6.913-23.747 18.609c-1.765 14.551-2.654 29.271-2.654 44.114 0 200.866 162.973 363.852 363.852 363.852 108.9 0 209.533-48.239 277.647-128.653z" />
<glyph unicode="&#xe938;" glyph-name="refresh" d="M777.742 662.309c-63.989 79.339-160.787 127.075-265.721 127.075-188.523 0-341.333-152.823-341.333-341.333 0-188.538 152.795-341.333 341.333-341.333 188.51 0 341.333 152.811 341.333 341.333 0 13.912-0.835 27.732-2.49 41.378-1.419 11.696 6.913 22.328 18.609 23.747s22.328-6.913 23.747-18.609c1.862-15.351 2.801-30.887 2.801-46.516 0-212.088-171.926-384-384-384-212.102 0-384 171.898-384 384 0 212.074 171.912 384 384 384 117.88 0 226.675-53.582 298.645-142.601v121.217c0 11.782 9.551 21.333 21.333 21.333s21.333-9.551 21.333-21.333v-169.691c0-11.782-9.551-21.333-21.333-21.333h-170.667c-11.782 0-21.333 9.551-21.333 21.333s9.551 21.333 21.333 21.333h116.409z" />
<glyph unicode="&#xe939;" glyph-name="search" d="M804.281 185.824c8.395-8.267 8.498-21.775 0.23-30.169s-21.775-8.498-30.169-0.23c-4.912 4.838-13.503 13.309-24.548 24.217-18.408 18.18-36.817 36.401-54.001 53.468l-1 0.993c-44.528 44.229-72.030 71.932-77.806 78.682-18.14 21.195-20.12 55.31-6.038 77.936 18.907 31.972 29.029 69.042 29.029 107.968 0 115.27-82.303 205.312-188.501 205.312-107.739 0-195.499-91.719-195.499-205.312 0-113.556 87.765-205.269 195.499-205.269 31.005 0 60.938 7.532 88.009 21.813 10.421 5.497 23.325 1.506 28.823-8.915s1.506-23.325-8.915-28.823c-33.159-17.493-69.917-26.742-107.917-26.742-131.728 0-238.165 111.226-238.165 247.936 0 136.746 106.431 247.979 238.165 247.979 130.661 0 231.168-109.958 231.168-247.979 0-46.56-12.171-91.131-35.219-130.095-4.659-7.49-3.862-21.244 1.976-28.065 4.58-5.351 33.016-33.995 75.459-76.154l0.998-0.991c17.153-17.035 35.534-35.23 53.916-53.384 11.029-10.893 19.607-19.35 24.505-24.175z" />
<glyph unicode="&#xe93a;" glyph-name="settings" d="M879.926 506.838c7.634-2.79 13.020-9.676 13.888-17.758 3.035-28.245 2.907-56.688-0.413-84.676-0.963-8.121-6.484-14.976-14.213-17.649l-82.58-28.557c-5.268-16.819-11.983-33.033-20.088-48.532l37.285-80.216c3.433-7.386 2.361-16.082-2.763-22.413-17.967-22.2-38.132-42.185-60.197-59.573-6.425-5.063-15.178-6.006-22.534-2.429l-78.515 38.184c-15.5-8.059-31.729-14.754-48.531-20.006l-30.437-83.162c-2.792-7.63-9.676-13.011-17.754-13.879-28.080-3.018-56.512-2.876-84.638 0.409-8.136 0.95-15.010 6.475-17.687 14.217l-28.566 82.606c-16.842 5.306-33.059 12.030-48.486 20.107l-80.257-37.284c-7.365-3.422-16.035-2.364-22.362 2.727-22.014 17.714-42.056 37.949-59.605 60.168-5.074 6.424-6.025 15.186-2.446 22.549l38.179 78.549c-8.051 15.451-14.736 31.681-20.001 48.545l-83.152 30.39c-7.636 2.791-13.021 9.678-13.889 17.762-3.017 28.126-2.876 56.508 0.409 84.634 0.95 8.136 6.475 15.010 14.217 17.687l82.601 28.564c5.298 16.836 12.020 33.048 20.116 48.528l-37.288 80.266c-3.43 7.383-2.359 16.075 2.761 22.404 17.845 22.062 38.041 42.065 60.133 59.514 6.424 5.074 15.186 6.025 22.549 2.446l78.556-38.183c15.461 8.047 31.709 14.744 48.54 20.003l30.437 83.207c2.796 7.644 9.699 13.031 17.794 13.886 28.118 2.971 56.489 2.816 84.551-0.461 8.136-0.95 15.010-6.475 17.687-14.217l28.564-82.601c16.836-5.298 33.047-12.020 48.528-20.116l80.266 37.288c7.365 3.422 16.035 2.364 22.362-2.727 21.924-17.641 41.928-37.851 59.542-60.1 5.087-6.425 6.043-15.197 2.461-22.568l-38.184-78.559c8.057-15.485 14.743-31.723 20.005-48.583l83.152-30.39zM852.543 471.419l-80.541 29.436c-6.499 2.375-11.442 7.755-13.261 14.431-5.717 20.992-13.924 40.887-24.489 59.388-3.494 6.119-3.742 13.568-0.662 19.905l37.003 76.128c-10.625 12.398-22.105 23.992-34.322 34.651l-77.745-36.117c-6.277-2.916-13.58-2.606-19.587 0.833-18.529 10.607-38.388 18.842-59.35 24.583-6.79 1.86-12.226 6.95-14.526 13.603l-27.683 80.053c-16.225 1.254-32.53 1.34-48.778 0.258l-29.473-80.57c-2.376-6.496-7.755-11.437-14.429-13.255-20.93-5.7-40.879-13.94-59.334-24.486-6.12-3.497-13.571-3.746-19.91-0.664l-76.136 37.007c-12.327-10.56-23.925-22.051-34.68-34.351l36.105-77.72c2.916-6.277 2.606-13.58-0.833-19.587-10.607-18.529-18.842-38.388-24.583-59.35-1.86-6.79-6.95-12.226-13.603-14.526l-80.052-27.683c-1.255-16.254-1.333-32.566-0.23-48.815l80.536-29.434c6.499-2.375 11.442-7.755 13.261-14.431 5.72-21.005 13.928-40.891 24.478-59.32 3.505-6.122 3.756-13.58 0.673-19.925l-37.008-76.139c10.604-12.385 22.105-23.993 34.374-34.69l77.747 36.118c6.285 2.92 13.596 2.605 19.606-0.844 18.409-10.564 38.306-18.814 59.293-24.575 6.785-1.862 12.216-6.951 14.515-13.6l27.683-80.052c16.259-1.255 32.587-1.333 48.821-0.231l29.479 80.547c2.377 6.495 7.755 11.434 14.428 13.251 20.879 5.686 40.791 13.916 59.354 24.497 6.118 3.487 13.562 3.731 19.895 0.651l76.097-37.008c12.31 10.535 23.905 22.031 34.713 34.399l-36.102 77.671c-2.918 6.278-2.608 13.582 0.831 19.591 10.624 18.558 18.843 38.407 24.523 59.309 1.85 6.808 6.947 12.261 13.614 14.567l80.070 27.689c1.261 16.183 1.332 32.506 0.218 48.807zM512.004 362.667c47.133 0 85.333 38.2 85.333 85.333s-38.2 85.333-85.333 85.333c-47.133 0-85.333-38.2-85.333-85.333s38.2-85.333 85.333-85.333zM512.004 320c-70.698 0-128 57.302-128 128s57.302 128 128 128c70.698 0 128-57.302 128-128s-57.302-128-128-128z" />
<glyph unicode="&#xe93b;" glyph-name="shield" d="M533.333 618.667v-405.333c0-11.782-9.551-21.333-21.333-21.333s-21.333 9.551-21.333 21.333v426.667c0 11.782 9.551 21.333 21.333 21.333h349.952c12.788 0 22.703-11.173 21.182-23.87-0.911-7.608-1.88-14.858-2.936-21.914-34.395-232.864-169.913-453.115-358.512-549.224-6.084-3.101-13.285-3.101-19.37-0.001-222.912 113.557-374.316 395.842-374.316 659.009 0 11.782 9.551 21.333 21.333 21.333 126.425 0 287.959 52.818 344.818 101.534 7.985 6.842 19.765 6.844 27.754 0.006 58.352-49.953 217.443-101.539 352.761-101.539 11.782 0 21.333-9.551 21.333-21.333s-9.551-21.333-21.333-21.333c-135.779 0-292.616 48.068-366.66 101.005-69.068-49.054-213.909-95.501-337.004-100.552 7.62-238.044 144.303-489.064 340.992-595.034 169.349 91.437 292.873 294.31 325.528 509.246h-304.189z" />
<glyph unicode="&#xe93c;" glyph-name="show-alt" d="M579.759 436.431c0-49.861-40.467-90.327-90.327-90.327s-90.327 40.467-90.327 90.327c0 49.861 40.467 90.327 90.327 90.327s90.327-40.467 90.327-90.327zM692.668 436.431c0-112.232-91.005-203.237-203.237-203.237s-203.237 91.005-203.237 203.237c0 112.232 91.005 203.237 203.237 203.237s203.237-91.005 203.237-203.237zM902.138 456.213l61.513-8.491c0 0-180.655 304.855-451.637 304.855-361.31 0-451.637-304.855-451.637-304.855l35.183 2.8c14.272-92.269 166.067-307.655 416.455-307.655 243.749 0 366.097 197.411 390.124 313.346z" />
<glyph unicode="&#xe93d;" glyph-name="acorns" d="M216.778 512h592.636c0.255 1.323 0.488 2.787 0.681 4.377 2.263 18.646-1.955 43.328-13.139 67.519-30.953 66.956-104.009 115.574-223.501 127.364-28.122 2.775-56.138 64.454-57.472 66.090-1.486 1.821-3.026 3.579-4.626 5.271-4.642-36.292-23.45-64.562-52.47-67.093-122.221-10.661-197.448-59.841-230.303-128.827-11.9-24.986-16.742-50.676-14.874-70.344 0.149-1.566 0.336-3.023 0.548-4.358h2.522zM810.55 469.333c1.971-96.846-18.607-328.955-254.242-381.401-14.671-14.294-35.63-45.266-44.013-45.266s-31.438 30.971-44.013 45.266c-239.35 48.785-257.687 283.775-254.679 381.401h-17.155c-52.388 3.977-50.885 261.695 258.731 288.701 3.404 0.297 31.603 37.342 1.851 95.299 99.963-12.832 116.482-99.204 120.615-99.612 303.084-29.905 302.353-280.421 248.012-284.388h-15.106zM767.96 469.333h-511.736c-1.934-51.371 3.595-107.719 20.911-160.561 30.994-94.582 93.603-157.414 199.669-179.033l14.045-2.863 9.468-10.762c1.87-2.125 7.294-8.609 11.543-13.713 6.023 7.122 10.114 11.648 14.673 16.090l8.678 8.456 11.827 2.632c103.839 23.112 166.157 85.772 197.942 178.848 18.15 53.15 24.351 109.664 22.98 160.905z" />
<glyph unicode="&#xe93e;" glyph-name="cash-check" d="M832 404.816c0-11.782-9.551-21.333-21.333-21.333s-21.333 9.551-21.333 21.333v189.47c0 2.521-0.43 3.048 1.422 3.048h-557.511c1.852 0 1.422-0.527 1.422-3.048v-292.571c0-2.535 0.419-3.048-1.422-3.048h557.511c-1.832 0-1.422 0.502-1.422 3.048 0 11.782 9.551 21.333 21.333 21.333s21.333-9.551 21.333-21.333c0-24.42-17.39-45.714-41.244-45.714h-557.511c-23.837 0-41.244 21.3-41.244 45.714v292.571c0 24.396 17.41 45.714 41.244 45.714h557.511c23.834 0 41.244-21.319 41.244-45.714v-189.47zM704 554.667c11.782 0 21.333-9.551 21.333-21.333s-9.551-21.333-21.333-21.333h-384c-11.782 0-21.333 9.551-21.333 21.333s9.551 21.333 21.333 21.333h384zM595.633 405.382c-8.929 9.158-34.128 3.994-55.15-17.567-8.236-8.448-14.424-18.102-18.018-27.738-4.117-11.039-16.404-16.65-27.444-12.533s-16.65 16.404-12.533 27.444c5.694 15.267 15.117 29.968 27.445 42.613 35.762 36.679 87.315 47.244 116.249 17.567 4.071-4.176 7.365-8.849 9.905-13.903 23.509 13.59 50.534 14.215 68.011-3.683 14.212-14.613 16.301-36.415 8.438-57.503-4.116-11.040-16.403-16.652-27.442-12.536s-16.652 16.403-12.536 27.442c2.611 7.001 2.17 11.597 0.983 12.817-2.631 2.694-15.022 0.15-26.61-11.748-4.792-4.901-8.354-10.435-10.397-15.882-10.008-26.736-49.934-11.83-40.016 14.803 0.017 0.045 0.034 0.090 0.051 0.136 5.2 13.958 4.124 25.080-0.937 30.27zM128 725.333v-128h-42.667v149.333c0 11.782 9.551 21.333 21.333 21.333h149.333v-42.667h-128zM256 170.667v-42.667h-149.333c-11.782 0-21.333 9.551-21.333 21.333v149.333h42.667v-128h128zM896 298.667h42.667v-149.333c0-11.782-9.551-21.333-21.333-21.333h-149.333v42.667h128v128zM768 725.333v42.667h149.333c11.782 0 21.333-9.551 21.333-21.333v-149.333h-42.667v128h-128z" />
<glyph unicode="&#xe93f;" glyph-name="star-alt" d="M512 281.446l-246.101-174.763 94.208 282.567-246.329 172.544h304.356l93.867 284.444 93.867-284.444h304.356l-246.329-172.544 94.208-282.567z" />
<glyph unicode="&#xe940;" glyph-name="store" d="M469.333 234.667h341.333v303.216c-9.471-2.972-19.942-4.549-31.406-4.549-27.154 0-51.351 12.568-67.632 32.33-16.267-19.764-40.454-32.33-67.624-32.33-27.152 0-51.338 12.567-67.61 32.328-16.271-19.762-40.457-32.328-67.61-32.328-27.169 0-51.356 12.566-67.624 32.33-16.28-19.763-40.477-32.33-67.632-32.33s-51.344 12.57-67.616 32.336c-16.275-19.765-40.464-32.336-67.603-32.336-49.405 0-88.979 41.549-88.979 92.369 0 25.39 3.947 50.868 10.512 75.345 3.944 14.703 7.934 25.956 10.74 32.592 0.481 1.137 1.053 2.218 1.706 3.233-1.047 2.519-1.625 5.282-1.625 8.18v65.613c0 11.782 9.551 21.333 21.333 21.333h642.204c11.782 0 21.333-9.551 21.333-21.333v-65.613c0-3.729-0.957-7.235-2.639-10.285 0.411-0.835 0.771-1.703 1.075-2.602 2.62-7.748 6.451-20.442 10.279-35.844 3.307-13.31 5.985-26.332 7.807-38.705 1.694-11.503 2.607-22.177 2.562-33.304-0.766-11.742-4.457-27.921-13.623-44.468-3.001-5.417-6.409-10.447-10.223-15.043 1.632-3.015 2.558-6.468 2.558-10.137v-321.166c11.485-2.662 21.734-9.76 29.267-20.012 8.717-11.794 13.399-27.135 13.399-42.886l-0.069-85.287c-0.010-11.775-9.558-21.316-21.333-21.316h-725.264c-11.782 0-21.333 9.551-21.333 21.333v85.333c0 31.040 18.178 58.485 44.606 63.265v248.977c0 11.782 9.551 21.333 21.333 21.333s21.333-9.551 21.333-21.333v-248.242h83.394v192c0 11.782 9.551 21.333 21.333 21.333h128c11.782 0 21.333-9.551 21.333-21.333v-192zM426.667 234.667v170.667h-85.333v-170.667h85.333zM213.333 746.667h599.538v42.667h-599.538v-42.667zM170.667 106.667h682.615l0.052 63.953c0 6.91-1.962 13.338-5.080 17.557-2.063 2.807-3.874 3.823-5.121 3.823h-662.264c-3.988 0-10.201-8.406-10.201-21.333v-64zM576 321.552c-11.782 0-21.333 9.551-21.333 21.333v83.782c0 11.782 9.551 21.333 21.333 21.333h128c11.782 0 21.333-9.551 21.333-21.333v-83.782c0-11.782-9.551-21.333-21.333-21.333h-128zM682.667 364.218v41.115h-85.333v-41.115h85.333zM201.056 689.995c-5.665-21.122-9.056-43.008-9.056-64.293 0-27.708 20.949-49.702 46.312-49.702 25.31 0 46.276 22.013 46.276 49.702 0 28.444 42.667 28.444 42.667 0 0-27.704 20.945-49.702 46.276-49.702 25.342 0 46.312 22.009 46.312 49.702 0 28.444 42.667 28.444 42.667 0 0-27.719 20.923-49.702 46.276-49.702 25.331 0 46.276 21.998 46.276 49.702 0 28.444 42.667 28.444 42.667 0 0-27.704 20.945-49.702 46.276-49.702 25.353 0 46.276 21.984 46.276 49.702 0 28.444 42.667 28.444 42.667 0 0-27.694 20.97-49.702 46.312-49.702 22.22 0 35.71 8.808 44.415 24.522 5.591 10.092 7.977 20.551 8.324 25.18 0 7.459-0.741 16.117-2.152 25.7-1.602 10.876-4.008 22.577-7.003 34.632-1.646 6.622-3.29 12.693-4.807 17.966h-612.866c-1.306-4.053-2.707-8.752-4.116-14.005z" />
<glyph unicode="&#xe941;" glyph-name="support" d="M737.82 703.943l-90.786-90.786c11.027-9.027 21.135-19.137 30.159-30.167l90.787 90.787c-9.418 10.67-19.492 20.746-30.161 30.165zM703.865 730.327c-54.677 37.227-120.735 58.985-191.882 58.985-71.119 0-137.159-21.75-191.829-58.961l93.167-93.167c29.51 15.426 63.077 24.15 98.679 24.15 35.613 0 69.19-8.729 98.707-24.165l93.158 93.158zM794.36 639.817l-93.164-93.164c15.418-29.504 24.137-63.062 24.137-98.653 0-35.602-8.724-69.169-24.15-98.679l93.187-93.152c37.99 55.781 58.947 122.132 58.947 191.81 0 71.128-21.747 137.17-58.956 191.839zM256.015 222.18c9.423-10.673 19.503-20.753 30.176-30.175l90.81 90.81c-11.034 9.029-21.147 19.141-30.177 30.175l-90.809-90.809zM229.632 256.137l93.185 93.185c-15.426 29.51-24.15 63.077-24.15 98.679 0 35.591 8.719 69.149 24.136 98.653l-93.163 93.198c-37.229-54.677-58.99-120.732-58.99-191.871 0-71.122 21.759-137.167 58.982-191.842zM320.149 165.622c54.673-37.22 120.716-58.977 191.834-58.977 34.562 0 68.384 5.133 100.728 15.121 11.258 3.476 23.202-2.831 26.678-14.089s-2.831-23.202-14.089-26.678c-36.41-11.243-74.474-17.021-113.317-17.021-212.059 0-384 171.941-384 384 0 212.088 171.926 384 384 384 212.102 0 384-171.898 384-384 0-86.474-28.735-168.473-80.222-234.912-0.268-0.394-0.55-0.782-0.848-1.163-18.966-24.276-40.8-46.193-64.989-65.271-8.491-6.697-20.65-5.981-28.296 1.665l-110.666 110.666c-29.579-15.518-63.246-24.298-98.961-24.298-35.596 0-69.158 8.721-98.665 24.143l-93.187-93.187zM767.979 222.22l-90.802 90.769c-8.962-10.951-18.991-20.994-29.929-29.971l90.771-90.771c6.627 5.846 13.024 11.945 19.177 18.283 0.217 0.247 0.441 0.49 0.672 0.73 3.456 3.587 6.827 7.242 10.112 10.961zM286.194 703.971c-10.671-9.419-20.749-19.495-30.169-30.165l90.782-90.815c9.031 11.038 19.145 21.154 30.182 30.186l-90.794 90.794zM512 277.333c94.245 0 170.667 76.422 170.667 170.667s-76.422 170.667-170.667 170.667c-94.245 0-170.667-76.422-170.667-170.667s76.422-170.667 170.667-170.667z" />
<glyph unicode="&#xe942;" glyph-name="trash-alt" d="M349.393 775.111l19.609 84.038c6.008 25.747 28.962 43.962 55.401 43.962h175.196c26.439 0 49.393-18.215 55.401-43.962l19.609-84.038h150.281c23.564 0 42.667-19.103 42.667-42.667s-19.103-42.667-42.667-42.667h-30.085l-22.596-587.484c-2.35-61.091-52.557-109.405-113.694-109.405h-293.028c-61.136 0-111.344 48.314-113.694 109.405l-22.596 587.484h-30.085c-23.564 0-42.667 19.103-42.667 42.667s19.103 42.667 42.667 42.667h150.281zM437.018 775.111h149.964l-9.956 42.667h-130.053l-9.956-42.667zM348.486 588.314l28.444-454.536c0.736-11.759 10.865-20.695 22.624-19.959s20.695 10.865 19.959 22.624l-28.444 454.536c-0.736 11.759-10.865 20.695-22.624 19.959s-20.695-10.865-19.959-22.624zM675.514 588.314c0.736 11.759-8.2 21.888-19.959 22.624s-21.888-8.2-22.624-19.959l-28.444-454.536c-0.736-11.759 8.2-21.888 19.959-22.624s21.888 8.2 22.624 19.959l28.444 454.536zM490.667 589.647v-454.536c0-11.782 9.551-21.333 21.333-21.333s21.333 9.551 21.333 21.333v454.536c0 11.782-9.551 21.333-21.333 21.333s-21.333-9.551-21.333-21.333z" />
<glyph unicode="&#xe943;" glyph-name="unlock-alt" d="M369.789 561.778v137.557c0 81.010 63.829 146.887 142.222 146.887 70.713 0 129.422-53.646 140.288-123.676 4.722-26.681 27.876-46.99 55.922-46.99 31.403 0 56.889 25.429 56.889 56.889 0 2.901-0.455 5.803-0.853 8.533l0.171 0.057c-0.114 0.569-0.284 1.138-0.398 1.764-0.057 0.683-0.228 1.422-0.398 2.162-21.276 122.14-125.611 215.040-251.62 215.040-141.369 0-256-116.679-256-260.665v-137.557h-23.268c-34.304 0-62.066-28.217-62.066-63.204v-442.482c0-34.873 27.762-63.204 62.066-63.204h558.535c34.304 0 62.066 28.331 62.066 63.204v442.482c0 34.987-27.762 63.204-62.066 63.204h-421.49z" />
<glyph unicode="&#xe944;" glyph-name="user-add" d="M768 234.667h64c11.782 0 21.333-9.551 21.333-21.333s-9.551-21.333-21.333-21.333h-64v-62.212c0-11.782-9.551-21.333-21.333-21.333s-21.333 9.551-21.333 21.333v62.212h-64.833c-11.782 0-21.333 9.551-21.333 21.333s9.551 21.333 21.333 21.333h64.833v63.242c0 11.782 9.551 21.333 21.333 21.333s21.333-9.551 21.333-21.333v-63.242zM558.652 696.23c-48.024-69.717-112.58-116.769-195.583-129.518-10.277-1.579-20.195 4.482-23.48 14.347-5.001 15.021-19.173 25.412-35.277 25.412-20.517 0-37.151-16.645-37.151-37.179 0-0.060 0-0.060 0.041-0.877 0.066-1.193 0.066-1.193 0.101-3.143 0-31.436 14.516-55.236 39.705-73.43 9.184-6.634 19.139-11.998 29.088-16.143 5.868-2.445 10.265-3.892 12.407-4.457 11.393-3.005 18.192-14.676 15.188-26.068s-14.676-18.192-26.068-15.188c-14.454 3.812-34.936 12.345-55.598 27.269-35.495 25.639-57.388 61.533-57.388 108.017 0 0.060 0 0.060-0.041 0.877-0.066 1.193-0.066 1.193-0.101 3.143 0 44.092 35.73 79.846 79.817 79.846 28.050 0 53.323-14.63 67.626-37.38 62.885 13.948 112.83 52.426 151.577 108.676 17.631 25.595 31.689 53.144 42.468 80.693 6.431 16.435 10.296 29.056 11.956 35.9 4.466 18.418 28.939 22.303 38.889 6.173 29.277-47.46 36.729-80.189 36.395-130.755-0.028-3.578-0.028-3.578-0.065-7.106-0.070-6.696-0.091-9.708-0.081-13.994l-0.007-0.451c-0.168-14.365 1.020-33.582 4.717-51.867 1.941-9.599 4.439-17.946 7.447-24.628 4.073-9.057 10.029-18.631 19.899-32.61 1.577-2.234 8.684-12.181 10.551-14.834 4.112-5.843 7.205-10.443 9.906-14.828 7.897-12.818 12.134-23.209 12.134-34.161 0-11.436-5.222-20.714-14.067-29.987-4.829-5.063-6.686-6.65-19.862-17.488-13.32-10.956-18.367-16.897-18.367-18.309 0-62.649-15.489-138.301-51.473-154.282-28.007-12.456-70.397-18.938-123.29-20.295v-149.605c0-15.932-16.83-26.243-31.024-19.005l-234.667 119.652c-7.145 3.643-11.643 10.985-11.643 19.005v87.132c0 11.782 9.551 21.333 21.333 21.333s21.333-9.551 21.333-21.333v-74.063l192-97.897v135.843c0 11.778 9.545 21.327 21.322 21.333 57.34 0.030 102.456 5.837 127.305 16.889 12.41 5.512 26.135 72.543 26.135 115.293 0 19.876 9.806 31.419 33.93 51.261 13.544 11.14 18.367 16.197 18.367 14.523 0 3.336-3.777 9.467-24.78 39.214-11.337 16.057-18.478 27.536-23.954 39.712-4.449 9.883-7.832 21.184-10.358 33.68-4.405 21.788-5.76 43.71-5.56 60.821 0.009 0.678 0.009 0.678 0.009 0.341-0.016 3.998 0.005 7.152 0.077 14.054 0.037 3.501 0.037 3.501 0.064 6.94 0.168 25.406-1.738 44.521-8.366 64.101-11.393-27.487-25.784-54.823-43.539-80.598z" />
<glyph unicode="&#xe945;" glyph-name="user" d="M643.986 674.897c-48.024-69.717-112.58-116.769-195.583-129.518-10.277-1.579-20.195 4.482-23.48 14.347-5.001 15.021-19.173 25.412-35.277 25.412-20.517 0-37.151-16.645-37.151-37.179 0-0.060 0-0.060 0.041-0.877 0.066-1.193 0.066-1.193 0.101-3.143 0-31.436 14.516-55.236 39.705-73.43 9.184-6.634 19.139-11.998 29.088-16.143 5.868-2.445 10.265-3.892 12.407-4.457 11.393-3.005 18.192-14.676 15.188-26.068s-14.676-18.192-26.068-15.188c-14.454 3.812-34.936 12.345-55.598 27.269-35.495 25.639-57.388 61.533-57.388 108.017 0 0.060 0 0.060-0.041 0.877-0.066 1.193-0.066 1.193-0.101 3.143 0 44.092 35.73 79.846 79.817 79.846 28.050 0 53.323-14.63 67.626-37.38 62.885 13.948 112.83 52.426 151.577 108.676 17.631 25.595 31.689 53.144 42.468 80.693 6.431 16.435 10.296 29.056 11.956 35.9 4.466 18.418 28.939 22.303 38.889 6.173 29.277-47.46 36.729-80.189 36.395-130.755-0.028-3.578-0.028-3.578-0.065-7.106-0.070-6.696-0.091-9.708-0.081-13.994l-0.007-0.451c-0.168-14.365 1.020-33.582 4.717-51.867 1.941-9.599 4.439-17.946 7.447-24.628 4.073-9.057 10.029-18.631 19.899-32.61 1.577-2.234 8.684-12.181 10.551-14.834 4.112-5.843 7.205-10.443 9.906-14.828 7.897-12.818 12.134-23.209 12.134-34.161 0-11.436-5.222-20.714-14.067-29.987-4.829-5.063-6.686-6.65-19.862-17.488-13.32-10.956-18.367-16.897-18.367-18.309 0-62.649-15.489-138.301-51.473-154.282-28.007-12.456-70.397-18.938-123.29-20.295v-149.605c0-15.932-16.83-26.243-31.024-19.005l-234.667 119.652c-7.145 3.643-11.643 10.985-11.643 19.005v87.132c0 11.782 9.551 21.333 21.333 21.333s21.333-9.551 21.333-21.333v-74.063l192-97.897v135.843c0 11.778 9.545 21.327 21.322 21.333 57.34 0.030 102.456 5.837 127.305 16.889 12.41 5.512 26.135 72.543 26.135 115.293 0 19.876 9.806 31.419 33.93 51.261 13.544 11.14 18.367 16.197 18.367 14.523 0 3.336-3.777 9.467-24.78 39.214-11.337 16.057-18.478 27.536-23.954 39.712-4.449 9.883-7.832 21.184-10.358 33.68-4.405 21.788-5.76 43.71-5.56 60.821 0.009 0.678 0.009 0.678 0.009 0.341-0.016 3.998 0.005 7.152 0.077 14.054 0.037 3.501 0.037 3.501 0.064 6.94 0.168 25.406-1.738 44.521-8.366 64.101-11.393-27.487-25.784-54.823-43.539-80.598z" />
<glyph unicode="&#xe946;" glyph-name="wallet" d="M170.667 661.333h618.668c35.346 0 64-28.654 64-64v-63.407c0-35.346-28.654-64-64-64h-110.917c-5.658 0-11.084-2.248-15.085-6.248l-53.335-53.335c-8.331-8.331-8.331-21.839 0-30.17l53.924-53.924c4.001-4.001 9.427-6.248 15.085-6.248h174.327v106.667c0 11.782 9.551 21.333 21.333 21.333s21.333-9.551 21.333-21.333v-128c0-11.782-9.551-21.333-21.333-21.333h-21.333v-106.667c0-35.346-28.654-64-64-64h-597.333c-35.346 0-64 28.654-64 64v554.667c0 35.346 28.654 64 64 64h469.333c35.346 0 64-28.654 64-64 0-11.782-9.551-21.333-21.333-21.333s-21.333 9.551-21.333 21.333c0 11.782-9.551 21.333-21.333 21.333h-469.333c-11.782 0-21.333-9.551-21.333-21.333v-64zM170.667 618.667v-448c0-11.782 9.551-21.333 21.333-21.333h597.333c11.782 0 21.333 9.551 21.333 21.333v106.667h-131.66c-16.974 0-33.253 6.743-45.255 18.745l-53.924 53.924c-24.994 24.994-24.994 65.516 0 90.51l53.335 53.335c12.002 12.002 28.281 18.745 45.255 18.745h110.917c11.782 0 21.333 9.551 21.333 21.333v63.407c0 11.782-9.551 21.333-21.333 21.333h-618.668z" />
<glyph unicode="&#xe947;" glyph-name="warning-alt" d="M512 903.111c250.937 0 455.111-204.231 455.111-455.111 0-250.994-204.174-455.111-455.111-455.111s-455.111 204.117-455.111 455.111c0 250.88 204.174 455.111 455.111 455.111zM512 732.444c-31.419 0-56.889-25.47-56.889-56.889v-227.556c0-31.419 25.47-56.889 56.889-56.889s56.889 25.47 56.889 56.889v227.556c0 31.419-25.47 56.889-56.889 56.889zM512 163.556c31.419 0 56.889 25.47 56.889 56.889s-25.47 56.889-56.889 56.889c-31.419 0-56.889-25.47-56.889-56.889s25.47-56.889 56.889-56.889z" />
<glyph unicode="&#xe948;" glyph-name="donate" d="M618.864 173.862c-3.927-2.948-8.629-4.36-13.296-4.249-8.368-0.273-16.47 4.426-20.138 12.527-4.828 10.662-0.162 23.207 10.422 28.137 10.358 8.756 34.371 28.447 44.108 36.772 29.722 25.411 57.107 51.19 82.962 79.127 67 72.395 111.459 146.349 124.645 219.939 19.762 114.536-71.116 207.484-161.278 207.484-51.987 0-105.36-28.54-122.946-65.346-3.543-7.415-11.031-12.136-19.249-12.136h-3.646c-7.737 0-14.867 4.189-18.634 10.946-21.211 38.051-75.431 66.536-127.207 66.536-93.507 0-176.773-70.856-168.373-173.696 3.943-38.083 21.339-77.903 46.422-114.939 6.607-9.755 4.055-23.020-5.701-29.626s-23.020-4.055-29.626 5.701c-28.684 42.353-48.754 88.293-53.577 134.93-10.691 130.809 94.47 220.297 210.855 220.297 55.523 0 112.602-25.156 146.92-63.865 32.21 38.649 88.974 63.865 144.762 63.865 115.23 0 227.86-115.196 203.3-257.541-14.899-83.155-63.316-163.694-135.353-241.53-8.533-9.22-17.21-18.202-26.059-27.006l23.525 10.651c62.267 25.785 109.078 27.577 141.611 13.605 8.374-3.596 14.244-7.6 15.495-9.103 27.098-19.638 29.334-45.559 9.768-61.764-3.8-3.147-7.46-5.168-8.496-5.468l-254.624-138.608c-9.983-5.627-20.864-9.757-32.464-12.559-23.457-5.666-47.817-5.666-70.703-2.349-5.797 0.84-10.185 1.707-13.981 2.658l-220.117 66.282c-16.948 6.141-30.415 9.267-40.665 10.020-6.243 0.459-10.108 0.007-12.057-0.685l-21.802-14.151c-9.905-6.38-23.107-3.523-29.487 6.382s-3.523 23.107 6.382 29.487l18.27 11.283c2.677 2.587 6.506 5.015 11.507 6.894 17.665 6.638 44.317 4.679 81.268-8.745l217.859-65.602c1.427-0.345 4.528-0.958 8.943-1.598 17.962-2.603 37.173-2.603 54.564 1.598 7.93 1.916 15.144 4.654 21.807 8.407l248.015 134.881c-0.415 0.32-0.858 0.661-1.33 1.021 0.050-0.048-1.53 1.029-4.989 2.515-21.266 9.133-56.253 7.794-107.812-13.545l-149.799-67.834zM512.13 273.677c-21.638 11.95-55.054 25.371-99.497 39.88-49.564 14.966-94.449 20.171-123.276 16.706-19.944-3.212-38.774-9.54-54.334-18.548l-96.934-52.035c-10.381-5.573-23.314-1.675-28.886 8.706s-1.675 23.314 8.706 28.886l96.324 51.695c19.713 11.429 43.479 19.416 69.174 23.537 35.987 4.347 86.684-1.532 142.011-18.244 103.658-33.828 152.906-61.025 152.667-99.78-1.024-6.793-4.354-15.074-11.558-23.036-10.911-12.061-27.474-18.926-49.028-18.926h-91.519c-11.782 0-21.333 9.551-21.333 21.333s9.551 21.333 21.333 21.333h91.519c8.767 0 13.675 1.632 16.449 3.976-2.948 2.502-9.854 7.908-21.818 14.515zM551.109 527.572c40.932 3.074 51.065 52.008-6.828 130.046-53.573-83.877-36.1-133.27 6.828-130.046zM554.304 485.025c-96.712-7.263-110.5 94.545-45.981 195.56l33.332 52.186 36.893-49.731c69.786-94.071 67.995-191.087-24.244-198.014z" />
<glyph unicode="&#xe949;" glyph-name="goals" d="M682.569 648.739v76.594c0 5.662 2.251 11.092 6.257 15.094l85.431 85.333c13.443 13.427 36.41 3.907 36.41-15.094v-85.333c0-11.782-9.551-21.333-21.333-21.333s-21.333 9.551-21.333 21.333v33.872l-42.764-42.715v-55.663h62.458l73.134 68.582c8.594 8.059 22.095 7.626 30.154-0.969s7.626-22.095-0.969-30.154l-79.289-74.354c-3.954-3.708-9.172-5.772-14.593-5.772h-83.802l-185.245-185.245c-8.331-8.331-21.839-8.331-30.17 0s-8.331 21.839 0 30.17l185.654 185.654zM490.671 554.1c11.552 2.319 22.796-5.165 25.115-16.717s-5.165-22.796-16.717-25.115c-30.882-6.2-53.478-33.481-53.478-65.394 0-36.828 29.856-66.67 66.701-66.67 31.906 0 59.173 22.559 65.387 53.41 2.326 11.55 13.575 19.027 25.126 16.701s19.027-13.575 16.701-25.126c-10.207-50.677-54.898-87.652-107.214-87.652-60.404 0-109.368 48.939-109.368 109.336 0 52.337 37.029 97.044 87.746 107.226zM592.808 680.676c11.13-3.864 17.021-16.019 13.157-27.15s-16.019-17.021-27.15-13.157c-21.209 7.363-43.572 11.166-66.49 11.166-112.788 0-204.241-91.453-204.241-204.241 0-112.815 91.449-204.272 204.241-204.272 112.819 0 204.272 91.453 204.272 204.272 0 23.044-3.857 45.552-11.316 66.902-3.886 11.123 1.98 23.29 13.103 27.176s23.29-1.98 27.176-13.103c9.032-25.851 13.704-53.116 13.704-80.975 0-136.383-110.555-246.939-246.939-246.939-136.357 0-246.907 110.561-246.907 246.939 0 136.352 110.555 246.907 246.907 246.907 27.701 0 54.793-4.607 80.483-13.526zM646.959 806.724c11.026-4.152 16.599-16.456 12.447-27.483s-16.456-16.599-27.483-12.447c-38.045 14.326-78.518 21.744-120.141 21.744-188.591 0-341.482-152.891-341.482-341.482 0-188.647 152.881-341.547 341.482-341.547 188.656 0 341.547 152.891 341.547 341.547 0 40.661-7.167 80.388-20.972 117.778-4.081 11.053 1.571 23.321 12.624 27.402s23.321-1.571 27.402-12.624c15.544-42.099 23.613-86.828 23.613-132.556 0-212.22-171.993-384.214-384.214-384.214-212.166 0-384.148 172.004-384.148 384.214 0 212.155 171.993 384.148 384.148 384.148 46.776 0 92.342-8.351 135.177-24.481z" />
<glyph unicode="&#xe94a;" glyph-name="offers-rewards" d="M682.667 704v-149.333c0-11.782-9.551-21.333-21.333-21.333s-21.333 9.551-21.333 21.333v248.894c0 40.597 39.23 71.106 85.333 71.106 46.132 0 85.333-30.5 85.333-71.106v-57.467c24.15-3.67 42.667-24.533 42.667-49.705v-286.259c0-17.196-6.835-33.689-18.983-45.795l-328.276-328.287c-19.616-19.617-51.43-19.617-71.097 0.001l-292.222 292.26c-19.67 19.621-19.67 51.464-0.019 71.116l328.276 328.287c12.131 12.131 28.613 18.955 45.765 18.955h49.741c11.782 0 21.333-9.551 21.333-21.333s-9.551-21.333-21.333-21.333h-49.741c-5.839 0-11.467-2.33-15.595-6.458l-328.276-328.287c-2.983-2.983-2.983-7.783 0.001-10.759l292.222-292.26c2.987-2.979 7.815-2.979 10.775-0.019l328.303 328.313c4.134 4.119 6.46 9.733 6.46 15.598v286.259c0 4.195-3.416 7.611-7.61 7.611h-120.39zM682.667 746.667h85.333v56.894c0 14.366-18.087 28.439-42.667 28.439-24.553 0-42.667-14.087-42.667-28.439v-56.894z" />
<glyph unicode="&#xe94b;" glyph-name="order-ahead" d="M439.119 815.243c-4.8 2.314-10.573 2.064-15.104-0.719-5.269-3.221-8.626-8.567-9.029-14.446l-14.298-203.178c-0.403-6.035-5.84-10.662-12.318-10.537s-11.714 4.94-11.915 10.975l-6.377 209.057c0 4.753-3.054 17.072-18.796 17.072-17.319 0-18.863-12.32-18.863-17.072l-6.377-209.088c-0.201-6.003-5.404-10.819-11.848-10.944-6.511-0.125-11.982 4.534-12.385 10.569l-14.265 203.147c-0.403 5.878-3.759 11.225-9.062 14.446-4.531 2.783-10.304 3.033-15.104 0.719s-7.887-6.879-8.055-11.913l-12.049-299.765c-1.007-27.985 8.089-55.469 25.81-78.076l72.296-61.879v-299.611h43.465v299.611l48.567 61.879c17.755 22.607 26.817 50.091 25.81 78.076l-12.049 299.765c-0.168 5.034-3.256 9.599-8.055 11.913zM427.513 64c0-23.564-19.103-42.667-42.667-42.667h-43.465c-23.564 0-42.667 19.103-42.667 42.667v279.969l-57.373 49.107-5.835 6.092c-23.896 30.483-36.242 67.819-34.864 106.112l12.039 299.472c0.706 21.185 13.32 39.838 32.17 48.925 17.838 8.6 39.008 7.617 55.779-2.685 1.559-0.947 3.068-1.956 4.525-3.024 10.208 10.992 25.537 18.165 46.127 18.165 19.784 0 35.18-7.44 45.612-18.495 1.539 1.15 3.137 2.232 4.791 3.243 16.954 10.412 38.123 11.395 55.961 2.796 18.85-9.087 31.464-27.74 32.159-48.633l12.056-299.944c1.373-38.15-10.965-75.495-34.886-105.953l-39.463-50.281v-284.867zM747.148 829.412c-85.814-128.030-107.148-423.321-107.148-423.321l85.333-64.043v-278.731l42.667 0.683v758.673c0 5.553-3.565 6.988-8.403 8.548s-8.058 4.741-12.449-1.809zM810.667 822.673v-758.673c0-23.298-18.689-42.288-41.984-42.661l-42.667-0.683c-23.828-0.381-43.349 18.83-43.349 42.661v257.407l-68.278 51.242c-11.607 8.711-17.991 22.725-16.945 37.2 0.295 4.084 0.91 11.467 1.89 21.683 1.619 16.879 3.692 35.651 6.266 55.852 7.366 57.808 17.291 115.66 30.2 169.951 19.58 82.346 44.255 149.295 75.906 196.516 8.212 12.252 20.171 21.068 36.414 22.654 7.154 0.698 13.387-0.205 19.35-2.051 2.381-0.737 4.623-1.613 5.961-2.183 21.654-7.164 37.235-20.481 37.235-48.914z" />
<glyph unicode="&#xe94c;" glyph-name="ppc-rocket" d="M335.44 284.306l-31.108 31.281c-5.854 5.886-7.761 14.634-4.889 22.423 56.898 154.317 135.168 270.433 229.564 352.875 71.042 62.047 147.294 101.777 223.993 123.506 48.058 13.615 87.299 18.014 113.203 17.571 0.685-0.014 0.685-0.014 0.962-0.023 3.867-0.13 7.625-1.309 10.873-3.41l8.308-5.375c5.948-3.849 9.598-10.399 9.74-17.483 0.003-0.143 0.003-0.143 0.006-0.44 0.249-24.538-4.335-63.152-18.243-111.117-22.497-77.589-63.329-154.854-126.926-226.826-82.964-93.889-198.912-171.857-352.231-228.734-7.835-2.906-16.645-0.971-22.54 4.951l-31.068 31.212-9.645 9.588zM344.245 335.959l21.361-21.48 9.598-9.54 21.448-21.548c140.462 53.987 246.371 126.224 322.298 212.15 59.249 67.052 97.116 138.705 117.92 210.456 9.858 33.997 14.526 62.44 16.014 83.090-21.808-1.030-52.081-5.498-88.255-15.746-70.843-20.070-141.462-56.865-207.556-114.591-86.333-75.401-158.823-181.419-212.828-322.79zM528.014 186.921c48.791 54.645 72.268 114.522 58.332 177.493-2.546 11.504 4.716 22.893 16.22 25.439s22.893-4.716 25.439-16.22c17.384-78.555-11.109-151.228-68.165-215.129-15.642-17.519-32.354-33.064-49.084-46.509-10.127-8.139-18.125-13.843-22.946-16.955-16.978-10.959-38.261 5.634-31.773 24.772 17.148 50.587 12.945 91.785-4.032 124.359-5.363 10.291-10.49 16.95-13.313 19.741-8.378 8.284-8.455 21.791-0.171 30.169s21.791 8.455 30.169 0.171c5.793-5.728 13.591-15.855 21.151-30.362 14.493-27.81 21.836-60.153 19.33-96.517 6.422 6.181 12.732 12.704 18.843 19.548zM320.105 434.174c14.467-7.592 24.563-15.42 30.274-21.236 8.255-8.407 8.132-21.914-0.275-30.169s-21.914-8.132-30.169 0.275c-2.78 2.831-9.412 7.973-19.658 13.35-32.436 17.022-73.445 21.23-123.821 4.017-19.117-6.532-35.761 14.697-24.856 31.703 3.101 4.836 8.786 12.86 16.898 23.021 13.402 16.787 28.898 33.556 46.363 49.253 63.717 57.265 136.204 85.877 214.582 68.433 11.501-2.56 18.749-13.958 16.189-25.458s-13.958-18.749-25.458-16.189c-62.705 13.956-122.345-9.585-176.792-58.518-6.879-6.182-13.432-12.569-19.64-19.068 36.306 2.533 68.6-4.843 96.362-19.413zM290.912 202.76l-126.044-126.427c-20.083-20.144-50.298 9.98-30.216 30.124l126.044 126.427c20.083 20.144 50.298-9.98 30.216-30.124zM262.288 292.784l-87.541-87.772c-20.087-20.14-50.296 9.99-30.21 30.13l87.541 87.772c20.087 20.14 50.296-9.99 30.21-30.13zM380.65 174.051l-87.512-87.772c-20.083-20.143-50.298 9.982-30.215 30.125l87.512 87.772c20.083 20.143 50.298-9.982 30.215-30.125zM677.601 530.505c-48.99 0-88.695 39.705-88.695 88.695s39.705 88.695 88.695 88.695c48.99 0 88.695-39.705 88.695-88.695s-39.705-88.695-88.695-88.695zM677.601 573.171c25.426 0 46.028 20.602 46.028 46.028s-20.602 46.028-46.028 46.028c-25.426 0-46.028-20.602-46.028-46.028s20.602-46.028 46.028-46.028z" />
<glyph unicode="&#xe94d;" glyph-name="request" d="M893.68 765.827c-84.159 7.92-158.023 1.534-311.020-20.429l-0.305-0.044c-153.097-21.978-229.311-28.769-315.255-21.279 0.148-2.523 0.28-4.286 0.398-5.297 1.366-11.703-7.014-22.297-18.717-23.662s-22.297 7.014-23.662 18.717c-0.552 4.727-1.027 14.443-1.759 33.303-0.457 11.773 8.717 21.688 20.49 22.144 2.045 0.079 4.033-0.132 5.926-0.597 90.916-10.198 164.032-4.421 326.516 18.904l0.305 0.044c167.402 24.031 243.013 29.885 339.999 18.688 9.967-1.151 17.533-8.996 18.725-18.528 0.153-0.897 0.249-1.813 0.287-2.747 1.92-47.714 3.321-82.563 6.262-155.775 2.765-68.815 4.286-106.654 6.262-155.739 0.416-10.337-6.644-19.482-16.749-21.697-6.19-1.356-12.639-2.59-19.548-3.754-11.619-1.956-22.623 5.877-24.579 17.495s5.877 22.623 17.495 24.579c-1.635 40.914-3.1 77.363-5.509 137.318-2.574 64.073-3.968 98.765-5.561 138.354zM469.333 343.467v-213.603l72.027 57.477c9.209 7.349 22.632 5.841 29.981-3.368s5.841-22.632-3.368-29.981l-106.935-85.333c-7.799-6.224-18.87-6.21-26.654 0.033l-106.399 85.333c-9.191 7.371-10.666 20.798-3.295 29.989s20.798 10.666 29.989 3.295l71.986-57.734v213.893c-48.688 9.883-85.333 52.929-85.333 104.533 0 58.91 47.756 106.667 106.667 106.667s106.667-47.756 106.667-106.667c0-51.604-36.646-94.65-85.333-104.533zM318.392 312.429c11.781 0.165 21.465-9.252 21.63-21.033s-9.252-21.465-21.033-21.63c-80.328-1.123-154.563 3.81-200.578 15.53-9.452 2.407-16.068 10.919-16.068 20.673v342.53c0 13.732 12.784 23.887 26.16 20.78 7.985-1.855 18.654-3.794 31.532-5.794 14.475-2.247 50.73-7.075 49.27-6.861 105.272-13.009 187.643-9.617 324.425 6.713 148.386 17.714 192.28 20.103 259.745 6.752 9.992-1.977 17.192-10.742 17.192-20.927v-353.009c0-13.665-12.669-23.807-26.003-20.816-66.877 15.001-95.582 16.085-187.261 10.046-2.608-0.172-4.613-0.158-9.866-0.035l-0.385 0.009c-3.458 0.080-5.155 0.088-6.034 0.028-11.755-0.793-21.928 8.093-22.721 19.849s8.093 21.928 19.849 22.721c2.674 0.18 5.016 0.171 9.9 0.057l0.391-0.009c3.706-0.087 5.273-0.098 6.062-0.046 83.066 5.472 118.422 5.25 173.401-5.493v308.86c-53.022 8.464-99.568 5.124-229.212-10.353-139.925-16.704-225.251-20.218-335.321-6.608 1.413-0.216-34.91 4.621-49.978 6.96-2.927 0.454-5.754 0.907-8.48 1.359v-299.571c42.454-8.076 105.704-11.63 173.383-10.683zM448 512c-35.346 0-64-28.654-64-64s28.654-64 64-64c35.346 0 64 28.654 64 64s-28.654 64-64 64z" />
<glyph unicode="&#xe94e;" glyph-name="send" d="M130.403 130.168c84.125-7.908 157.99-1.519 310.937 20.437l0.305 0.044c153.096 21.977 229.31 28.769 315.253 21.279-0.148 2.522-0.28 4.285-0.398 5.296-1.366 11.703 7.014 22.297 18.717 23.662s22.297-7.014 23.662-18.717c0.552-4.727 1.027-14.443 1.759-33.303 0.457-11.773-8.717-21.688-20.49-22.144-2.046-0.079-4.037 0.132-5.931 0.598-90.913 10.197-164.029 4.42-326.509-18.905l-0.305-0.044c-167.402-24.031-243.013-29.885-339.999-18.688-9.759 1.127-17.216 8.672-18.642 17.933-0.135 0.837-0.221 1.691-0.256 2.56-1.92 47.714-3.321 82.563-6.262 155.775-2.765 68.815-4.286 106.654-6.262 155.739-0.416 10.337 6.644 19.482 16.749 21.697 6.19 1.356 12.639 2.59 19.548 3.754 11.619 1.956 22.623-5.877 24.579-17.495s-5.877-22.623-17.495-24.579c1.635-40.914 3.1-77.363 5.509-137.318 2.557-63.655 3.95-98.311 5.53-137.58zM554.667 552.533v213.603l-72.027-57.477c-9.209-7.349-22.632-5.841-29.981 3.368s-5.841 22.632 3.368 29.981l104.688 83.54c3.875 3.98 9.292 6.452 15.286 6.452 0.045 0 0.090 0 0.135 0 4.769 0.030 9.545-1.534 13.481-4.691l106.399-85.333c9.191-7.371 10.666-20.798 3.295-29.989s-20.798-10.666-29.989-3.295l-71.986 57.734v-213.892c48.688-9.883 85.333-52.929 85.333-104.533 0-58.91-47.756-106.667-106.667-106.667s-106.667 47.756-106.667 106.667c0 51.604 36.646 94.65 85.333 104.533zM878.991 572.304c-42.454 8.076-105.704 11.63-173.383 10.683-11.781-0.165-21.465 9.252-21.63 21.033s9.252 21.465 21.033 21.63c80.328 1.123 154.563-3.81 200.578-15.53 9.452-2.407 16.068-10.919 16.068-20.673v-342.53c0-13.732-12.784-23.887-26.16-20.78-7.985 1.855-18.654 3.794-31.532 5.794-14.475 2.247-50.73 7.075-49.27 6.861-105.272 13.009-187.643 9.617-324.425-6.713-148.386-17.714-192.28-20.103-259.745-6.752-9.992 1.977-17.192 10.742-17.192 20.927v353.009c0 13.665 12.669 23.807 26.003 20.816 66.877-15.001 95.582-16.085 187.261-10.046 2.608 0.172 4.613 0.158 9.866 0.035l0.385-0.009c3.458-0.080 5.155-0.088 6.034-0.028 11.755 0.793 21.928-8.093 22.721-19.849s-8.093-21.928-19.849-22.721c-2.674-0.18-5.016-0.171-9.9-0.057l-0.391 0.009c-3.706 0.087-5.273 0.098-6.062 0.046-83.066-5.472-118.422-5.25-173.401 5.493v-308.86c53.022-8.464 99.568-5.124 229.212 10.353 139.925 16.704 225.251 20.218 335.321 6.608-1.413 0.216 34.91-4.621 49.978-6.96 2.927-0.454 5.754-0.907 8.48-1.359v299.571zM576 384c35.346 0 64 28.654 64 64s-28.654 64-64 64c-35.346 0-64-28.654-64-64s28.654-64 64-64z" />
<glyph unicode="&#xe94f;" glyph-name="transfer-money" d="M938.667 510.723c-0.001-5.545-2.118-10.595-5.587-14.388l-62.711-83.181c-7.093-9.408-20.469-11.285-29.877-4.192s-11.285 20.469-4.192 29.877l38.115 50.556h-170.414c-11.782 0-21.333 9.551-21.333 21.333s9.551 21.333 21.333 21.333h170.494l-38.156 50.299c-7.121 9.387-5.284 22.769 4.103 29.89s22.769 5.284 29.89-4.103l64-84.366c2.926-3.857 4.372-8.462 4.336-13.058zM640 276.718c-0.048 11.782 9.464 21.372 21.246 21.42s21.372-9.464 21.42-21.246l0.154-37.835c0.049-12.033-9.857-21.725-21.886-21.413-66.075 1.714-118.847-4.922-237.81-25.995l-0.279-0.049c-153.611-27.211-223.14-33.853-312.576-21.112-9.372 1.335-16.743 8.687-18.103 18.055l-0.236 2.549-11.45 351.452c-0.346 10.632 7.193 19.894 17.673 21.714l47.976 8.328c11.608 2.015 22.653-5.762 24.668-17.37s-5.762-22.653-17.37-24.668l-29.705-5.157 10.14-314.921c75.764-8.631 142.939-1.41 281.541 23.143l0.279 0.049c108.775 19.269 164.014 26.812 224.383 26.911l-0.066 16.146zM736.642 417.348c0 11.782 9.551 21.333 21.333 21.333s21.333-9.551 21.333-21.333v-75.994c0-14.218-13.646-24.457-27.297-20.483-6.095 1.775-14.377 3.662-24.411 5.614-11.377 2.214-40.18 7.021-38.876 6.785-82.752 12.818-146.676 9.717-252.699-5.842-116.547-17.103-151.535-19.358-206.496-5.724-9.515 2.36-16.197 10.902-16.197 20.706v351.728c0 14.136 13.499 24.363 27.108 20.537 57.809-16.254 80.099-17.666 153.295-11.474l145.87 12.162c72.85 7.384 173.22 4.085 224.858-12.4 8.843-2.823 14.845-11.040 14.845-20.323v-68.935c0-11.782-9.551-21.333-21.333-21.333s-21.333 9.551-21.333 21.333v52.563c-48.712 10.885-131.987 12.804-193.113 6.611l-146.223-12.195c-65.843-5.569-95.519-5.198-141.307 5.784v-306.918c39.819-7.512 76.306-4.219 173.832 10.093 109.895 16.127 177.518 19.407 266.172 5.661-1.245 0.238 27.642-4.583 39.748-6.939 0.298-0.058 0.595-0.116 0.891-0.174v49.155zM490.667 448c-47.128 0-85.333 38.205-85.333 85.333s38.205 85.333 85.333 85.333c47.128 0 85.333-38.205 85.333-85.333s-38.205-85.333-85.333-85.333zM490.667 490.667c23.564 0 42.667 19.103 42.667 42.667s-19.103 42.667-42.667 42.667c-23.564 0-42.667-19.103-42.667-42.667s19.103-42.667 42.667-42.667z" />
<glyph unicode="&#xe950;" glyph-name="gift" d="M342.645 704h148.399v1.278c-0.614 2.513-1.529 5.815-2.789 9.709-3.481 10.753-8.253 21.498-14.43 31.387-16.876 27.019-40.52 42.502-73.982 42.502-33.586 0-51.726-10.758-60.945-28.763-5.192-10.141-6.848-21.081-6.53-29.052 0.011-0.23 0.011-0.23-0.006-3.227 0.014 0.208 0.019 0.278 0.022 0.329-0.193-5.080 1.642-13.006 7.518-20.864 0.841-1.125 1.754-2.225 2.743-3.299zM293.76 704c-3.138 8.997-4.265 17.659-4.026 25.374-0.582 14.654 2.116 32.47 11.185 50.184 16.62 32.462 49.541 51.985 98.923 51.985 49.506 0 86.029-23.917 110.17-62.566 0.72-1.153 1.422-2.305 2.107-3.456 1.176 1.947 2.406 3.901 3.69 5.857 24.622 37.492 61.314 60.622 110.587 60.622 49.279 0 81.975-18.846 98.223-50.424 8.767-17.037 11.283-34.243 10.543-48.684l-0.012-0.194c0.248-8.672-1.229-18.526-5.342-28.698h145.454c35.274 0 63.849-28.576 63.849-63.849v-83.399c0-35.411-28.622-66.309-63.84-66.309l-341.937-0.143v-341.595h319.489v277.318c0 11.782 9.551 21.333 21.333 21.333s21.333-9.551 21.333-21.333v-298.652c0-11.782-9.551-21.333-21.333-21.333h-723.74c-11.752 0-21.29 9.504-21.333 21.255l-1.343 367.33c-23.343 9.18-42.193 32.262-42.193 56.964v85.947c0 35.989 27.726 66.465 63.464 66.465h144.75zM533.848 709.074l0.050-0.288-0.176-0.031c-0.242-0.577-0.374-0.659-0.389-0.087v-4.669h145.275c2.49 2.16 4.609 4.445 6.401 6.842 5.868 7.85 7.69 15.771 7.483 20.886 0.004-0.095 0.004-0.095 0.060 3.266 0.388 7.662-1.090 17.769-5.872 27.061-8.741 16.987-26.596 27.279-60.285 27.279-33.695 0-57.68-15.12-74.924-41.376-6.283-9.567-11.173-19.953-14.776-30.342-1.337-3.854-2.303-7.102-2.848-8.541zM327.465 661.333l-0.043-0.063-0.094 0.063h-178.318c-11.226 0-20.798-10.521-20.798-23.799v-85.947c0-7.619 11.701-18.478 20.798-18.478 11.752 0 21.29-9.504 21.333-21.255l1.328-363.149h319.007l0.224 341.577-233.209-0.098c-11.782-0.005-21.337 9.542-21.342 21.324s9.542 21.337 21.324 21.342l233.255 0.098 0.084 128.385h-163.551zM533.333 532.966l341.928 0.143c10.903 0 21.183 11.098 21.183 23.642v83.399c0 11.71-9.473 21.183-21.183 21.183h-186.807c-1.957-0.272-3.933-0.268-5.87 0h-149.251v-128.367z" />
<glyph unicode="&#xe951;" glyph-name="lock" d="M298.667 618.667v42.667c0 117.821 95.513 213.333 213.333 213.333s213.333-95.513 213.333-213.333v-42.667h64c35.346 0 64-28.654 64-64v-255.768c0-11.782-9.551-21.333-21.333-21.333s-21.333 9.551-21.333 21.333v255.768c0 11.782-9.551 21.333-21.333 21.333h-554.667c-11.782 0-21.333-9.551-21.333-21.333v-426.667c0-11.782 9.551-21.333 21.333-21.333h554.667c11.782 0 21.333 9.551 21.333 21.333v42.28c0 11.782 9.551 21.333 21.333 21.333s21.333-9.551 21.333-21.333v-42.28c0-35.346-28.654-64-64-64h-554.667c-35.346 0-64 28.654-64 64v426.667c0 35.346 28.654 64 64 64h64zM341.333 618.667h341.333v42.667c0 94.257-76.41 170.667-170.667 170.667s-170.667-76.41-170.667-170.667v-42.667zM490.667 426.667c0 11.782 9.551 21.333 21.333 21.333s21.333-9.551 21.333-21.333v-170.667c0-11.782-9.551-21.333-21.333-21.333s-21.333 9.551-21.333 21.333v170.667z" />
<glyph unicode="&#xe952;" glyph-name="add-cash" d="M789.333 618.667v-42.667c0-11.782-9.551-21.333-21.333-21.333s-21.333 9.551-21.333 21.333v42.667h-42.667c-11.782 0-21.333 9.551-21.333 21.333s9.551 21.333 21.333 21.333h42.667v42.667c0 11.782 9.551 21.333 21.333 21.333s21.333-9.551 21.333-21.333v-42.667h42.667c11.782 0 21.333-9.551 21.333-21.333s-9.551-21.333-21.333-21.333h-42.667zM810.667 452.759v-132.738c0-14.083-13.404-24.302-26.984-20.571-6.538 1.796-15.379 3.697-26.077 5.661-12.099 2.222-42.633 7.030-41.296 6.8-88.007 12.861-155.977 9.751-268.575-5.839-123.188-17.056-160.101-19.3-217.93-5.766-9.649 2.258-16.472 10.863-16.472 20.772v351.728c0 19.398 23.791 28.729 36.979 14.503 0.611-0.659 3.947-3.073 10.707-6.022 26.677-11.639 69.231-13.879 131.318 0.783 51.733 12.217 119.837 18.287 193.433 18.551 25.384 76.327 97.386 131.378 182.231 131.378 106.028 0 192-85.972 192-192 0-91.364-63.836-167.836-149.333-187.241zM576.823 657.89c-67.094-0.703-128.636-6.471-174.68-17.345-63.026-14.884-111.146-14.302-146.142-2.923v-299.218c42.863-7.771 81.533-4.517 185.884 9.931 116.258 16.096 187.718 19.367 281.304 5.678-1.281 0.232 29.332-4.589 42.123-6.938 0.908-0.167 1.804-0.333 2.689-0.499v101.423c-106.028 0-192 85.972-192 192 0 6.032 0.278 12 0.823 17.89zM640 255.384c-0.048 11.782 9.464 21.372 21.246 21.42s21.372-9.464 21.42-21.246l0.154-37.835c0.049-12.033-9.857-21.725-21.886-21.413-66.075 1.714-118.847-4.922-237.81-25.995l-0.279-0.049c-153.611-27.211-223.14-33.853-312.576-21.112-9.372 1.335-16.743 8.687-18.103 18.055l-0.236 2.549-11.45 351.452c-0.346 10.632 7.193 19.894 17.673 21.714l47.976 8.328c11.608 2.015 22.653-5.762 24.668-17.37s-5.762-22.653-17.37-24.668l-29.705-5.157 10.14-314.921c75.764-8.631 142.939-1.41 281.541 23.143l0.279 0.049c108.775 19.269 164.014 26.812 224.383 26.911l-0.066 16.146zM490.667 405.333c-47.128 0-85.333 38.205-85.333 85.333s38.205 85.333 85.333 85.333c47.128 0 85.333-38.205 85.333-85.333s-38.205-85.333-85.333-85.333zM490.667 448c23.564 0 42.667 19.103 42.667 42.667s-19.103 42.667-42.667 42.667c-23.564 0-42.667-19.103-42.667-42.667s19.103-42.667 42.667-42.667zM917.333 640c0 82.464-66.869 149.333-149.333 149.333s-149.333-66.869-149.333-149.333c0-82.464 66.869-149.333 149.333-149.333s149.333 66.869 149.333 149.333z" />
<glyph unicode="&#xe953;" glyph-name="pp-cash-card" d="M298.667 533.333h-42.667v-42.667h42.667v42.667zM307.543 448h-60.419c-19.518 0-33.791 16.813-33.791 36.009v55.982c0 19.195 14.272 36.009 33.791 36.009h60.419c19.518 0 33.791-16.813 33.791-36.009v-55.982c0-19.195-14.272-36.009-33.791-36.009zM511.64 542.505c-4.522-2.146-7.685-6.353-8.464-11.251l-25.95-161.751h-43.716c-4.203 0-7.414 3.716-6.758 7.827l33.191 208.35c0.875 5.487 5.653 9.529 11.264 9.529h74.219c27.46 0 48.726-5.916 60.805-19.141 8.239-9.025 13.009-20.814 11.745-37.717-0.81 0.3-1.588 0.628-2.424 0.902s-1.685 0.535-2.536 0.781c-1.711 0.496-3.482 0.946-5.298 1.342-1.805 0.398-3.662 0.747-5.567 1.050-6.457 1.032-13.675 1.554-21.452 1.554h-62.482c-2.296 0-4.511-0.496-6.578-1.477zM612.248 529.387c1.473-0.486 2.889-1.019 4.248-1.595-0.951-4.848-2.307-10.041-4.153-15.655-8.346-25.352-24.994-41.314-49.758-48.348-9.785-2.78-20.869-4.161-33.275-4.161 0 0-9.357 0-23.387 0-1.285 0-2.466-0.127-3.579-0.326l10.478 65.947c0.525 3.3 2.664 6.004 5.548 7.37 1.309 0.621 2.772 0.967 4.305 0.967h58.026c7.218 0 13.874-0.476 19.783-1.422 1.698-0.269 3.349-0.579 4.961-0.936 1.588-0.347 3.129-0.734 4.629-1.171 0.739-0.212 1.465-0.437 2.176-0.67zM633.734 517.389c8.532-9.625 11.089-22.787 9.187-38.449-0.217-1.404-0.455-2.803-0.729-4.192-9.192-46.734-40.657-62.896-80.841-62.896h-6.204c-4.908 0-9.088-3.537-9.853-8.337l-8.725-53.845c-0.765-4.799-4.945-8.337-9.856-8.337h-35.984c-3.315 0-6.476 2.935-5.932 6.545 0.687 4.559 14.613 91.408 14.613 91.408 0.875 5.487 5.614 9.529 11.225 9.529 0 0 17.776-0.059 17.928-0.059 72.317 0 91.614 43.59 98.082 74.563 2.636-1.758 5.083-3.667 7.090-5.929zM896 618.667v85.333h-768v-469.333h768v277.333c0 11.782 9.551 21.333 21.333 21.333s21.333-9.551 21.333-21.333v-277.333c0-23.564-19.103-42.667-42.667-42.667h-768c-23.564 0-42.667 19.103-42.667 42.667v469.333c0 23.564 19.103 42.667 42.667 42.667h768c23.564 0 42.667-19.103 42.667-42.667v-106.667c0-11.782-9.551-21.333-21.333-21.333h-168.742c-11.782 0-21.333 9.551-21.333 21.333s9.551 21.333 21.333 21.333h147.409z" />
</font>
</defs>
</svg>
