<?xml version="1.0" standalone="no"?>
<!DOCTYPE svg PUBLIC "-//W3C//DTD SVG 1.1//EN" "http://www.w3.org/Graphics/SVG/1.1/DTD/svg11.dtd" >
<svg xmlns="http://www.w3.org/2000/svg" xmlns:xlink="http://www.w3.org/1999/xlink" version="1.1">
<metadata>
Created by FontForge 20190801 at Fri Apr 10 10:46:26 2020
 By Unknown
\(c\) 2015 Klim Type Foundry. All Rights Reserved.
</metadata>
<defs>
<font id="PayPalSansBig-Regular" horiz-adv-x="261" >
  <font-face 
    font-family="PayPal Sans Big"
    font-weight="400"
    font-stretch="normal"
    units-per-em="1024"
    panose-1="2 11 5 3 4 5 4 4 2 4"
    ascent="819"
    descent="-205"
    x-height="513"
    cap-height="700"
    bbox="-87 -239 1251 990"
    underline-thickness="83"
    underline-position="-172"
    stemh="89"
    stemv="102"
    unicode-range="U+0020-FB02"
  />
<missing-glyph horiz-adv-x="256" 
 />
    <glyph glyph-name="f_b" unicode="fb" horiz-adv-x="944" 
d="M909 272c0 -170 -119 -283 -278 -283c-72 0 -141 13 -203 44v672c-23 8 -42 10 -64 10c-99 0 -166 -61 -166 -175v-27h150l-16 -80h-134v-433h-103v433h-73v80h73v27c0 156 117 262 275 262c55 0 115 -12 162 -29v-309c31 28 88 60 155 60c132 0 222 -95 222 -252z
M532 93c28 -12 62 -18 98 -18c107 0 174 77 174 193c0 105 -55 168 -143 168c-50 0 -101 -21 -129 -45v-298z" />
    <glyph glyph-name="f_f_b" unicode="ffb" horiz-adv-x="1277" 
d="M1243 272c0 -170 -119 -283 -278 -283c-72 0 -141 13 -203 44v672c-23 8 -42 10 -64 10c-99 0 -166 -61 -166 -175v-27h150l-16 -80h-134v-433h-103v433h-231v-433h-103v433h-73v80h73v24c0 154 87 247 222 247c26 0 46 -2 74 -11v-82c-23 7 -39 7 -59 7
c-86 0 -134 -55 -134 -159v-26h231v27c0 156 117 262 275 262c55 0 115 -12 162 -29v-309c31 28 88 60 155 60c132 0 222 -95 222 -252zM866 93c28 -12 62 -18 98 -18c107 0 174 77 174 193c0 105 -55 168 -143 168c-50 0 -101 -21 -129 -45v-298z" />
    <glyph glyph-name="f_f_h" unicode="ffh" horiz-adv-x="1284" 
d="M95 0v433h-73v80h73v24c0 154 87 247 222 247c26 0 46 -2 74 -11v-82c-23 7 -39 7 -59 7c-86 0 -134 -55 -134 -159v-26h231v27c0 156 117 262 275 262c55 0 115 -12 162 -29v-310c34 27 98 61 174 61c113 0 172 -69 172 -174v-350h-104v324c0 69 -26 110 -104 110
c-56 0 -98 -17 -138 -43v-391h-104v705c-23 8 -42 10 -64 10c-99 0 -166 -61 -166 -175v-27h150l-16 -80h-134v-433h-103v433h-231v-433h-103z" />
    <glyph glyph-name="f_f_idieresis" unicode="ff&#xef;" horiz-adv-x="944" 
d="M95 0v433h-73v80h73v24c0 154 87 247 222 247c26 0 46 -2 74 -11v-82c-23 7 -39 7 -59 7c-86 0 -134 -55 -134 -159v-26h231v41c0 155 92 248 234 248c28 0 51 -3 80 -12v-83c-28 8 -45 9 -70 9c-91 0 -141 -56 -141 -160v-43h230l104 11v-524h-104v433h-230v-433h-103
v433h-231v-433h-103zM848 704c0 33 26 60 61 60c36 0 62 -27 62 -60c0 -34 -26 -61 -62 -61c-35 0 -61 27 -61 61z" />
    <glyph glyph-name="f_f_j" unicode="ffj" horiz-adv-x="944" 
d="M866 16c-2 -123 -34 -186 -78 -244h-108c49 65 80 135 82 253v408h-230v-433h-103v433h-231v-433h-103v433h-73v80h73v24c0 154 87 247 222 247c26 0 46 -2 74 -11v-82c-23 7 -39 7 -59 7c-86 0 -134 -55 -134 -159v-26h231v19c0 169 104 270 260 270c30 0 68 -4 97 -17
v-84c-31 12 -60 15 -91 15c-105 0 -163 -62 -163 -179v-24h230l104 11v-508z" />
    <glyph glyph-name="f_f_k" unicode="ffk" horiz-adv-x="1253" 
d="M95 0v433h-73v80h73v24c0 154 87 247 222 247c26 0 46 -2 74 -11v-82c-23 7 -39 7 -59 7c-86 0 -134 -55 -134 -159v-26h231v27c0 156 117 262 275 262c55 0 115 -12 162 -29v-490l230 230h124l-240 -235l271 -278h-131l-254 259v-259h-104v705c-23 8 -42 10 -64 10
c-99 0 -166 -61 -166 -175v-27h150l-16 -80h-134v-433h-103v433h-231v-433h-103z" />
    <glyph glyph-name="f_h" unicode="fh" horiz-adv-x="950" 
d="M198 0h-103v433h-73v80h73v27c0 156 117 262 275 262c55 0 115 -12 162 -29v-310c34 27 98 61 174 61c113 0 172 -69 172 -174v-350h-104v324c0 69 -26 110 -104 110c-56 0 -98 -17 -138 -43v-391h-104v705c-23 8 -42 10 -64 10c-99 0 -166 -61 -166 -175v-27h150
l-16 -80h-134v-433z" />
    <glyph glyph-name="f_idieresis" unicode="f&#xef;" horiz-adv-x="611" 
d="M95 0v433h-73v80h73v41c0 155 92 248 234 248c28 0 51 -3 80 -12v-83c-28 8 -45 9 -70 9c-91 0 -141 -56 -141 -160v-43h230l104 11v-524h-104v433h-230v-433h-103zM514 704c0 33 26 60 61 60c36 0 62 -27 62 -60c0 -34 -26 -61 -62 -61c-35 0 -61 27 -61 61z" />
    <glyph glyph-name="f_j" unicode="fj" horiz-adv-x="611" 
d="M532 16c-2 -123 -34 -186 -78 -244h-108c49 65 80 135 82 253v408h-230v-433h-103v433h-73v80h73v19c0 169 104 270 260 270c30 0 68 -4 97 -17v-84c-31 12 -60 15 -91 15c-105 0 -163 -62 -163 -179v-24h230l104 11v-508z" />
    <glyph glyph-name="f_k" unicode="fk" horiz-adv-x="920" 
d="M198 0h-103v433h-73v80h73v27c0 156 117 262 275 262c55 0 115 -12 162 -29v-490l230 230h124l-240 -235l271 -278h-131l-254 259v-259h-104v705c-23 8 -42 10 -64 10c-99 0 -166 -61 -166 -175v-27h150l-16 -80h-134v-433z" />
    <glyph glyph-name="f_f" unicode="ff" horiz-adv-x="683" 
d="M95 0v433h-73v80h73v24c0 154 87 247 222 247c26 0 46 -2 74 -11v-82c-23 7 -39 7 -59 7c-86 0 -134 -55 -134 -159v-26h231v41c0 155 92 248 234 248c28 0 51 -3 80 -12v-83c-28 8 -45 9 -70 9c-91 0 -141 -56 -141 -160v-43h163l-15 -80h-148v-433h-103v433h-231v-433
h-103z" />
    <glyph glyph-name="f_f_i" unicode="ffi" horiz-adv-x="944" 
d="M95 0v433h-73v80h73v24c0 154 87 247 222 247c26 0 46 -2 74 -11v-82c-23 7 -39 7 -59 7c-86 0 -134 -55 -134 -159v-26h231v19c0 169 104 270 260 270c30 0 68 -4 97 -17v-84c-31 12 -60 15 -91 15c-105 0 -163 -62 -163 -179v-24h230l104 11v-524h-104v433h-230v-433
h-103v433h-231v-433h-103z" />
    <glyph glyph-name="f_f_l" unicode="ffl" horiz-adv-x="944" 
d="M95 0v433h-73v80h73v24c0 154 87 247 222 247c26 0 46 -2 74 -11v-82c-23 7 -39 7 -59 7c-86 0 -134 -55 -134 -159v-26h231v27c0 156 117 262 275 262c55 0 115 -12 162 -29v-773h-104v705c-23 8 -42 10 -64 10c-99 0 -166 -61 -166 -175v-27h150l-16 -80h-134v-433
h-103v433h-231v-433h-103z" />
    <glyph glyph-name="fi" unicode="fi" horiz-adv-x="611" 
d="M95 0v433h-73v80h73v19c0 169 104 270 260 270c30 0 68 -4 97 -17v-84c-31 12 -60 15 -91 15c-105 0 -163 -62 -163 -179v-24h230l104 11v-524h-104v433h-230v-433h-103z" />
    <glyph glyph-name="fl" unicode="fl" horiz-adv-x="606" 
d="M428 705c-23 8 -42 10 -64 10c-99 0 -166 -61 -166 -175v-27h150l-16 -80h-134v-433h-103v433h-73v80h73v27c0 156 117 262 275 262c55 0 115 -12 162 -29v-773h-104v705z" />
    <glyph glyph-name=".notdef" horiz-adv-x="256" 
 />
    <glyph glyph-name="space" unicode=" " horiz-adv-x="256" 
 />
    <glyph glyph-name="A" unicode="A" horiz-adv-x="714" 
d="M501 213h-292l-87 -213h-105l293 700h96l290 -700h-109zM245 300h220l-109 270z" />
    <glyph glyph-name="Agrave" unicode="&#xc0;" horiz-adv-x="714" 
d="M322 771l-190 156h155l122 -156h-87zM501 213h-292l-87 -213h-105l293 700h96l290 -700h-109zM245 300h220l-109 270z" />
    <glyph glyph-name="Aacute" unicode="&#xc1;" horiz-adv-x="714" 
d="M308 771l122 156h155l-190 -156h-87zM501 213h-292l-87 -213h-105l293 700h96l290 -700h-109zM245 300h220l-109 270z" />
    <glyph glyph-name="Acircumflex" unicode="&#xc2;" horiz-adv-x="714" 
d="M406 927l131 -156h-76l-105 86l-104 -86h-76l132 156h98zM501 213h-292l-87 -213h-105l293 700h96l290 -700h-109zM245 300h220l-109 270z" />
    <glyph glyph-name="Atilde" unicode="&#xc3;" horiz-adv-x="714" 
d="M428 768c-57 0 -103 91 -147 91c-32 0 -41 -39 -47 -88h-64c2 94 43 172 115 172c57 0 104 -90 147 -90c32 0 41 38 47 88h64c-2 -94 -43 -173 -115 -173zM501 213h-292l-87 -213h-105l293 700h96l290 -700h-109zM245 300h220l-109 270z" />
    <glyph glyph-name="Adieresis" unicode="&#xc4;" horiz-adv-x="714" 
d="M199 849c0 33 26 61 63 61c35 0 61 -28 61 -61c0 -34 -26 -61 -61 -61c-37 0 -63 27 -63 61zM390 849c0 33 26 61 62 61c35 0 62 -28 62 -61c0 -34 -27 -61 -62 -61c-36 0 -62 27 -62 61zM501 213h-292l-87 -213h-105l293 700h96l290 -700h-109zM245 300h220l-109 270z
" />
    <glyph glyph-name="Aring" unicode="&#xc5;" horiz-adv-x="714" 
d="M122 0h-105l279 668c-36 21 -62 62 -62 108c0 68 57 122 122 122c67 0 124 -54 124 -122c0 -46 -25 -85 -61 -107l277 -669h-109l-86 213h-292zM356 710c37 0 65 29 65 66c0 35 -29 64 -65 64c-34 0 -62 -29 -62 -64c0 -37 27 -66 62 -66zM245 300h220l-109 270z" />
    <glyph glyph-name="Amacron" unicode="&#x100;" horiz-adv-x="714" 
d="M192 794v79h330v-79h-330zM501 213h-292l-87 -213h-105l293 700h96l290 -700h-109zM245 300h220l-109 270z" />
    <glyph glyph-name="Abreve" unicode="&#x102;" horiz-adv-x="714" 
d="M356 767c-92 0 -166 55 -166 160h69c3 -58 47 -84 97 -84c52 0 96 26 98 84h69c0 -105 -73 -160 -167 -160zM501 213h-292l-87 -213h-105l293 700h96l290 -700h-109zM245 300h220l-109 270z" />
    <glyph glyph-name="Aogonek" unicode="&#x104;" horiz-adv-x="714" 
d="M658 -231c-14 -5 -27 -8 -46 -8c-49 0 -101 28 -101 94c0 56 28 100 77 145h-1l-86 213h-292l-87 -213h-105l293 700h96l290 -700h-41c-47 -46 -71 -84 -71 -124c0 -31 21 -47 44 -47c12 0 19 1 30 6v-66zM245 300h220l-109 270z" />
    <glyph glyph-name="B" unicode="B" horiz-adv-x="641" 
d="M447 367c88 -17 151 -79 151 -170c0 -123 -93 -197 -237 -197h-270v700h233c145 0 231 -66 231 -186c0 -75 -53 -129 -108 -147zM198 400h111c89 0 141 35 141 108c0 74 -52 104 -141 104h-111v-212zM491 203c0 70 -51 111 -141 111h-152v-226h152c90 0 141 44 141 115z
" />
    <glyph glyph-name="C" unicode="C" horiz-adv-x="624" 
d="M148 350c0 -172 128 -263 276 -263c53 0 100 8 151 31v-99c-54 -22 -100 -30 -154 -30c-209 0 -384 135 -384 361s175 361 384 361c54 0 100 -8 154 -29v-100c-51 23 -98 32 -150 32c-149 0 -277 -92 -277 -264z" />
    <glyph glyph-name="Ccedilla" unicode="&#xc7;" horiz-adv-x="624" 
d="M340 -239c-41 0 -78 9 -102 25v61c37 -22 72 -26 98 -26c37 0 65 14 65 40c0 32 -38 44 -95 44l33 91c-171 31 -302 158 -302 354c0 226 175 361 384 361c54 0 100 -8 154 -29v-100c-51 23 -98 32 -150 32c-149 0 -277 -92 -277 -264s128 -263 276 -263
c53 0 100 8 151 31v-99c-54 -22 -100 -30 -154 -30c-13 0 -25 0 -37 1l-15 -42c58 -8 101 -36 101 -88c0 -62 -64 -99 -130 -99z" />
    <glyph glyph-name="Cacute" unicode="&#x106;" horiz-adv-x="624" 
d="M355 771l122 156h155l-190 -156h-87zM148 350c0 -172 128 -263 276 -263c53 0 100 8 151 31v-99c-54 -22 -100 -30 -154 -30c-209 0 -384 135 -384 361s175 361 384 361c54 0 100 -8 154 -29v-100c-51 23 -98 32 -150 32c-149 0 -277 -92 -277 -264z" />
    <glyph glyph-name="Ccircumflex" unicode="&#x108;" horiz-adv-x="624" 
d="M453 927l131 -156h-76l-105 86l-104 -86h-76l132 156h98zM148 350c0 -172 128 -263 276 -263c53 0 100 8 151 31v-99c-54 -22 -100 -30 -154 -30c-209 0 -384 135 -384 361s175 361 384 361c54 0 100 -8 154 -29v-100c-51 23 -98 32 -150 32c-149 0 -277 -92 -277 -264z
" />
    <glyph glyph-name="Cdotaccent" unicode="&#x10a;" horiz-adv-x="624" 
d="M338 853c0 36 27 64 65 64c39 0 66 -28 66 -64s-27 -65 -66 -65c-38 0 -65 29 -65 65zM148 350c0 -172 128 -263 276 -263c53 0 100 8 151 31v-99c-54 -22 -100 -30 -154 -30c-209 0 -384 135 -384 361s175 361 384 361c54 0 100 -8 154 -29v-100c-51 23 -98 32 -150 32
c-149 0 -277 -92 -277 -264z" />
    <glyph glyph-name="Ccaron" unicode="&#x10c;" horiz-adv-x="624" 
d="M355 775l-132 157h76l104 -86l105 86h76l-131 -157h-98zM148 350c0 -172 128 -263 276 -263c53 0 100 8 151 31v-99c-54 -22 -100 -30 -154 -30c-209 0 -384 135 -384 361s175 361 384 361c54 0 100 -8 154 -29v-100c-51 23 -98 32 -150 32c-149 0 -277 -92 -277 -264z
" />
    <glyph glyph-name="D" unicode="D" horiz-adv-x="740" 
d="M91 701h237c208 0 374 -131 374 -350s-166 -351 -374 -351h-237v701zM326 91c152 0 267 97 267 260s-115 259 -267 259h-128v-519h128z" />
    <glyph glyph-name="Dcaron" unicode="&#x10e;" horiz-adv-x="740" 
d="M294 775l-132 157h76l104 -86l105 86h76l-131 -157h-98zM91 701h237c208 0 374 -131 374 -350s-166 -351 -374 -351h-237v701zM326 91c152 0 267 97 267 260s-115 259 -267 259h-128v-519h128z" />
    <glyph glyph-name="E" unicode="E" horiz-adv-x="615" 
d="M91 700h446v-90h-339v-209h308v-89h-308v-222h351v-90h-458v700z" />
    <glyph glyph-name="Egrave" unicode="&#xc8;" horiz-adv-x="615" 
d="M303 771l-190 156h155l122 -156h-87zM91 700h446v-90h-339v-209h308v-89h-308v-222h351v-90h-458v700z" />
    <glyph glyph-name="Eacute" unicode="&#xc9;" horiz-adv-x="615" 
d="M255 771l122 156h155l-190 -156h-87zM91 700h446v-90h-339v-209h308v-89h-308v-222h351v-90h-458v700z" />
    <glyph glyph-name="Ecircumflex" unicode="&#xca;" horiz-adv-x="615" 
d="M370 927l131 -156h-76l-105 86l-104 -86h-76l132 156h98zM91 700h446v-90h-339v-209h308v-89h-308v-222h351v-90h-458v700z" />
    <glyph glyph-name="Edieresis" unicode="&#xcb;" horiz-adv-x="615" 
d="M163 849c0 33 26 61 63 61c35 0 61 -28 61 -61c0 -34 -26 -61 -61 -61c-37 0 -63 27 -63 61zM354 849c0 33 26 61 62 61c35 0 62 -28 62 -61c0 -34 -27 -61 -62 -61c-36 0 -62 27 -62 61zM91 700h446v-90h-339v-209h308v-89h-308v-222h351v-90h-458v700z" />
    <glyph glyph-name="Emacron" unicode="&#x112;" horiz-adv-x="615" 
d="M156 794v79h330v-79h-330zM91 700h446v-90h-339v-209h308v-89h-308v-222h351v-90h-458v700z" />
    <glyph glyph-name="Ebreve" unicode="&#x114;" horiz-adv-x="615" 
d="M320 767c-92 0 -166 55 -166 160h69c3 -58 47 -84 97 -84c52 0 96 26 98 84h69c0 -105 -73 -160 -167 -160zM91 700h446v-90h-339v-209h308v-89h-308v-222h351v-90h-458v700z" />
    <glyph glyph-name="Edotaccent" unicode="&#x116;" horiz-adv-x="615" 
d="M255 853c0 36 27 64 65 64c39 0 66 -28 66 -64s-27 -65 -66 -65c-38 0 -65 29 -65 65zM91 700h446v-90h-339v-209h308v-89h-308v-222h351v-90h-458v700z" />
    <glyph glyph-name="Eogonek" unicode="&#x118;" horiz-adv-x="615" 
d="M492 -231c-14 -5 -27 -8 -46 -8c-49 0 -101 28 -101 94c0 56 28 100 77 145h-331v700h446v-90h-339v-209h308v-89h-308v-222h351v-90h-60c-47 -46 -71 -84 -71 -124c0 -31 21 -47 44 -47c12 0 19 1 30 6v-66z" />
    <glyph glyph-name="Ecaron" unicode="&#x11a;" horiz-adv-x="615" 
d="M272 775l-132 157h76l104 -86l105 86h76l-131 -157h-98zM91 700h446v-90h-339v-209h308v-89h-308v-222h351v-90h-458v700z" />
    <glyph glyph-name="F" unicode="F" horiz-adv-x="587" 
d="M91 0v700h439v-90h-332v-216h301v-90h-301v-304h-107z" />
    <glyph glyph-name="G" unicode="G" horiz-adv-x="679" 
d="M431 614c-157 0 -284 -104 -284 -268c0 -180 128 -263 275 -263c27 0 62 2 92 9v217h104v-295c-56 -15 -132 -25 -197 -25c-211 0 -384 129 -384 357c0 218 178 365 394 365c68 0 129 -11 183 -33v-101c-51 24 -120 37 -183 37z" />
    <glyph glyph-name="Gcircumflex" unicode="&#x11c;" horiz-adv-x="679" 
d="M467 927l131 -156h-76l-105 86l-104 -86h-76l132 156h98zM431 614c-157 0 -284 -104 -284 -268c0 -180 128 -263 275 -263c27 0 62 2 92 9v217h104v-295c-56 -15 -132 -25 -197 -25c-211 0 -384 129 -384 357c0 218 178 365 394 365c68 0 129 -11 183 -33v-101
c-51 24 -120 37 -183 37z" />
    <glyph glyph-name="Gbreve" unicode="&#x11e;" horiz-adv-x="679" 
d="M416 767c-92 0 -166 55 -166 160h69c3 -58 47 -84 97 -84c52 0 96 26 98 84h69c0 -105 -73 -160 -167 -160zM431 614c-157 0 -284 -104 -284 -268c0 -180 128 -263 275 -263c27 0 62 2 92 9v217h104v-295c-56 -15 -132 -25 -197 -25c-211 0 -384 129 -384 357
c0 218 178 365 394 365c68 0 129 -11 183 -33v-101c-51 24 -120 37 -183 37z" />
    <glyph glyph-name="Gdotaccent" unicode="&#x120;" horiz-adv-x="679" 
d="M351 853c0 36 27 64 65 64c39 0 66 -28 66 -64s-27 -65 -66 -65c-38 0 -65 29 -65 65zM431 614c-157 0 -284 -104 -284 -268c0 -180 128 -263 275 -263c27 0 62 2 92 9v217h104v-295c-56 -15 -132 -25 -197 -25c-211 0 -384 129 -384 357c0 218 178 365 394 365
c68 0 129 -11 183 -33v-101c-51 24 -120 37 -183 37z" />
    <glyph glyph-name="uni0122" unicode="&#x122;" horiz-adv-x="679" 
d="M431 614c-157 0 -284 -104 -284 -268c0 -180 128 -263 275 -263c27 0 62 2 92 9v217h104v-295c-56 -15 -132 -25 -197 -25c-211 0 -384 129 -384 357c0 218 178 365 394 365c68 0 129 -11 183 -33v-101c-51 24 -120 37 -183 37zM471 -48c0 -78 -56 -157 -104 -186h-68
c34 37 70 109 70 186h102z" />
    <glyph glyph-name="H" unicode="H" horiz-adv-x="782" 
d="M583 312h-385v-312h-107v701h107v-300h385v300h108v-701h-108v312z" />
    <glyph glyph-name="Hcircumflex" unicode="&#x124;" horiz-adv-x="782" 
d="M440 927l131 -156h-76l-105 86l-104 -86h-76l132 156h98zM583 312h-385v-312h-107v701h107v-300h385v300h108v-701h-108v312z" />
    <glyph glyph-name="I" unicode="I" horiz-adv-x="289" 
d="M91 700h107v-700h-107v700z" />
    <glyph glyph-name="Igrave" unicode="&#xcc;" horiz-adv-x="289" 
d="M103 771l-190 156h155l122 -156h-87zM91 700h107v-700h-107v700z" />
    <glyph glyph-name="Iacute" unicode="&#xcd;" horiz-adv-x="289" 
d="M102 771l122 156h155l-190 -156h-87zM91 700h107v-700h-107v700z" />
    <glyph glyph-name="Icircumflex" unicode="&#xce;" horiz-adv-x="289" 
d="M194 927l131 -156h-76l-105 86l-104 -86h-76l132 156h98zM91 700h107v-700h-107v700z" />
    <glyph glyph-name="Idieresis" unicode="&#xcf;" horiz-adv-x="289" 
d="M-13 849c0 33 26 61 63 61c35 0 61 -28 61 -61c0 -34 -26 -61 -61 -61c-37 0 -63 27 -63 61zM178 849c0 33 26 61 62 61c35 0 62 -28 62 -61c0 -34 -27 -61 -62 -61c-36 0 -62 27 -62 61zM91 700h107v-700h-107v700z" />
    <glyph glyph-name="Itilde" unicode="&#x128;" horiz-adv-x="289" 
d="M216 768c-57 0 -103 91 -147 91c-32 0 -41 -39 -47 -88h-64c2 94 43 172 115 172c57 0 104 -90 147 -90c32 0 41 38 47 88h64c-2 -94 -43 -173 -115 -173zM91 700h107v-700h-107v700z" />
    <glyph glyph-name="Imacron" unicode="&#x12a;" horiz-adv-x="289" 
d="M-20 794v79h330v-79h-330zM91 700h107v-700h-107v700z" />
    <glyph glyph-name="Ibreve" unicode="&#x12c;" horiz-adv-x="289" 
d="M144 767c-92 0 -166 55 -166 160h69c3 -58 47 -84 97 -84c52 0 96 26 98 84h69c0 -105 -73 -160 -167 -160zM91 700h107v-700h-107v700z" />
    <glyph glyph-name="Iogonek" unicode="&#x12e;" horiz-adv-x="289" 
d="M191 -231c-14 -5 -27 -8 -46 -8c-49 0 -101 28 -101 94c0 56 28 100 77 145h-30v700h107v-700c-54 -37 -81 -82 -81 -124c0 -31 21 -47 44 -47c12 0 19 1 30 6v-66z" />
    <glyph glyph-name="Idotaccent" unicode="&#x130;" horiz-adv-x="289" 
d="M79 853c0 36 27 64 65 64c39 0 66 -28 66 -64s-27 -65 -66 -65c-38 0 -65 29 -65 65zM91 700h107v-700h-107v700z" />
    <glyph glyph-name="J" unicode="J" horiz-adv-x="289" 
d="M198 59c0 -145 -38 -223 -95 -287h-119c65 74 107 156 107 290v638h107v-641z" />
    <glyph glyph-name="Jcircumflex" unicode="&#x134;" horiz-adv-x="289" 
d="M195 927l131 -156h-76l-105 86l-104 -86h-76l132 156h98zM198 59c0 -145 -38 -223 -95 -287h-119c65 74 107 156 107 290v638h107v-641z" />
    <glyph glyph-name="K" unicode="K" horiz-adv-x="698" 
d="M198 344v-344h-107v700h107v-326l319 326h134l-337 -333l381 -367h-141z" />
    <glyph glyph-name="uni0136" unicode="&#x136;" horiz-adv-x="698" 
d="M198 344v-344h-107v700h107v-326l319 326h134l-337 -333l381 -367h-141zM394 -48c0 -78 -56 -157 -104 -186h-68c34 37 70 109 70 186h102z" />
    <glyph glyph-name="L" unicode="L" horiz-adv-x="579" 
d="M198 700v-610h339v-90h-446v700h107z" />
    <glyph glyph-name="Lacute" unicode="&#x139;" horiz-adv-x="579" 
d="M108 771l122 156h155l-190 -156h-87zM198 700v-610h339v-90h-446v700h107z" />
    <glyph glyph-name="uni013B" unicode="&#x13b;" horiz-adv-x="579" 
d="M198 700v-610h339v-90h-446v700h107zM366 -48c0 -78 -56 -157 -104 -186h-68c34 37 70 109 70 186h102z" />
    <glyph glyph-name="Lcaron" unicode="&#x13d;" horiz-adv-x="579" 
d="M376 702h112l-76 -248h-63zM198 700v-610h339v-90h-446v700h107z" />
    <glyph glyph-name="M" unicode="M" horiz-adv-x="894" 
d="M405 92l-174 448l-75 -540h-101l100 700h107l186 -483l184 483h107l100 -700h-103l-75 540l-174 -448h-82z" />
    <glyph glyph-name="N" unicode="N" horiz-adv-x="760" 
d="M194 545v-545h-103v700h108l367 -534v534h103v-700h-93z" />
    <glyph glyph-name="Ntilde" unicode="&#xd1;" horiz-adv-x="760" 
d="M452 768c-57 0 -103 91 -147 91c-32 0 -41 -39 -47 -88h-64c2 94 43 172 115 172c57 0 104 -90 147 -90c32 0 41 38 47 88h64c-2 -94 -43 -173 -115 -173zM194 545v-545h-103v700h108l367 -534v534h103v-700h-93z" />
    <glyph glyph-name="Nacute" unicode="&#x143;" horiz-adv-x="760" 
d="M332 771l122 156h155l-190 -156h-87zM194 545v-545h-103v700h108l367 -534v534h103v-700h-93z" />
    <glyph glyph-name="uni0145" unicode="&#x145;" horiz-adv-x="760" 
d="M194 545v-545h-103v700h108l367 -534v534h103v-700h-93zM432 -48c0 -78 -56 -157 -104 -186h-68c34 37 70 109 70 186h102z" />
    <glyph glyph-name="Ncaron" unicode="&#x147;" horiz-adv-x="760" 
d="M331 775l-132 157h76l104 -86l105 86h76l-131 -157h-98zM194 545v-545h-103v700h108l367 -534v534h103v-700h-93z" />
    <glyph glyph-name="O" unicode="O" horiz-adv-x="766" 
d="M37 350c0 215 158 361 346 361s346 -146 346 -361s-158 -361 -346 -361s-346 146 -346 361zM619 350c0 158 -99 264 -236 264s-236 -106 -236 -264s99 -264 236 -264s236 106 236 264z" />
    <glyph glyph-name="Ograve" unicode="&#xd2;" horiz-adv-x="766" 
d="M348 771l-190 156h155l122 -156h-87zM37 350c0 215 158 361 346 361s346 -146 346 -361s-158 -361 -346 -361s-346 146 -346 361zM619 350c0 158 -99 264 -236 264s-236 -106 -236 -264s99 -264 236 -264s236 106 236 264z" />
    <glyph glyph-name="Oacute" unicode="&#xd3;" horiz-adv-x="766" 
d="M335 771l122 156h155l-190 -156h-87zM37 350c0 215 158 361 346 361s346 -146 346 -361s-158 -361 -346 -361s-346 146 -346 361zM619 350c0 158 -99 264 -236 264s-236 -106 -236 -264s99 -264 236 -264s236 106 236 264z" />
    <glyph glyph-name="Ocircumflex" unicode="&#xd4;" horiz-adv-x="766" 
d="M433 927l131 -156h-76l-105 86l-104 -86h-76l132 156h98zM37 350c0 215 158 361 346 361s346 -146 346 -361s-158 -361 -346 -361s-346 146 -346 361zM619 350c0 158 -99 264 -236 264s-236 -106 -236 -264s99 -264 236 -264s236 106 236 264z" />
    <glyph glyph-name="Otilde" unicode="&#xd5;" horiz-adv-x="766" 
d="M455 768c-57 0 -103 91 -147 91c-32 0 -41 -39 -47 -88h-64c2 94 43 172 115 172c57 0 104 -90 147 -90c32 0 41 38 47 88h64c-2 -94 -43 -173 -115 -173zM37 350c0 215 158 361 346 361s346 -146 346 -361s-158 -361 -346 -361s-346 146 -346 361zM619 350
c0 158 -99 264 -236 264s-236 -106 -236 -264s99 -264 236 -264s236 106 236 264z" />
    <glyph glyph-name="Odieresis" unicode="&#xd6;" horiz-adv-x="766" 
d="M226 849c0 33 26 61 63 61c35 0 61 -28 61 -61c0 -34 -26 -61 -61 -61c-37 0 -63 27 -63 61zM417 849c0 33 26 61 62 61c35 0 62 -28 62 -61c0 -34 -27 -61 -62 -61c-36 0 -62 27 -62 61zM37 350c0 215 158 361 346 361s346 -146 346 -361s-158 -361 -346 -361
s-346 146 -346 361zM619 350c0 158 -99 264 -236 264s-236 -106 -236 -264s99 -264 236 -264s236 106 236 264z" />
    <glyph glyph-name="Omacron" unicode="&#x14c;" horiz-adv-x="766" 
d="M219 794v79h330v-79h-330zM37 350c0 215 158 361 346 361s346 -146 346 -361s-158 -361 -346 -361s-346 146 -346 361zM619 350c0 158 -99 264 -236 264s-236 -106 -236 -264s99 -264 236 -264s236 106 236 264z" />
    <glyph glyph-name="Obreve" unicode="&#x14e;" horiz-adv-x="766" 
d="M383 767c-92 0 -166 55 -166 160h69c3 -58 47 -84 97 -84c52 0 96 26 98 84h69c0 -105 -73 -160 -167 -160zM37 350c0 215 158 361 346 361s346 -146 346 -361s-158 -361 -346 -361s-346 146 -346 361zM619 350c0 158 -99 264 -236 264s-236 -106 -236 -264
s99 -264 236 -264s236 106 236 264z" />
    <glyph glyph-name="Ohungarumlaut" unicode="&#x150;" horiz-adv-x="766" 
d="M351 927h122l-157 -156h-71zM538 927h121l-156 -156h-72zM37 350c0 215 158 361 346 361s346 -146 346 -361s-158 -361 -346 -361s-346 146 -346 361zM619 350c0 158 -99 264 -236 264s-236 -106 -236 -264s99 -264 236 -264s236 106 236 264z" />
    <glyph glyph-name="P" unicode="P" horiz-adv-x="631" 
d="M198 270v-270h-107v700h253c147 0 252 -82 252 -215s-105 -215 -252 -215h-146zM485 485c0 80 -61 125 -147 125h-140v-250h140c86 0 147 45 147 125z" />
    <glyph glyph-name="Q" unicode="Q" horiz-adv-x="766" 
d="M597 -212c-115 0 -227 61 -265 205c-165 23 -295 162 -295 357c0 215 158 361 346 361s346 -146 346 -361c0 -192 -126 -329 -286 -356c27 -85 95 -116 171 -116c26 0 44 4 65 11v-86c-20 -9 -44 -15 -82 -15zM619 350c0 158 -99 264 -236 264s-236 -106 -236 -264
s99 -264 236 -264s236 106 236 264z" />
    <glyph glyph-name="R" unicode="R" horiz-adv-x="676" 
d="M541 0c-74 75 -154 189 -208 278h-135v-278h-107v700h225c165 0 259 -74 259 -206c0 -96 -64 -163 -139 -192c55 -92 157 -221 238 -302h-133zM198 364h166c52 14 100 54 100 129c0 74 -54 117 -151 117h-115v-246z" />
    <glyph glyph-name="Racute" unicode="&#x154;" horiz-adv-x="676" 
d="M269 771l122 156h155l-190 -156h-87zM541 0c-74 75 -154 189 -208 278h-135v-278h-107v700h225c165 0 259 -74 259 -206c0 -96 -64 -163 -139 -192c55 -92 157 -221 238 -302h-133zM198 364h166c52 14 100 54 100 129c0 74 -54 117 -151 117h-115v-246z" />
    <glyph glyph-name="uni0156" unicode="&#x156;" horiz-adv-x="676" 
d="M541 0c-74 75 -154 189 -208 278h-135v-278h-107v700h225c165 0 259 -74 259 -206c0 -96 -64 -163 -139 -192c55 -92 157 -221 238 -302h-133zM198 364h166c52 14 100 54 100 129c0 74 -54 117 -151 117h-115v-246zM379 -48c0 -78 -56 -157 -104 -186h-68
c34 37 70 109 70 186h102z" />
    <glyph glyph-name="Rcaron" unicode="&#x158;" horiz-adv-x="676" 
d="M268 775l-132 157h76l104 -86l105 86h76l-131 -157h-98zM541 0c-74 75 -154 189 -208 278h-135v-278h-107v700h225c165 0 259 -74 259 -206c0 -96 -64 -163 -139 -192c55 -92 157 -221 238 -302h-133zM198 364h166c52 14 100 54 100 129c0 74 -54 117 -151 117h-115v-246
z" />
    <glyph glyph-name="S" unicode="S" horiz-adv-x="568" 
d="M31 152c77 -52 160 -70 225 -70c93 0 157 38 157 108c0 144 -351 100 -351 321c0 116 106 200 242 200c63 0 123 -11 184 -43v-102c-62 38 -118 53 -180 53c-82 0 -139 -39 -139 -103c0 -140 354 -99 354 -321c0 -122 -116 -206 -266 -206c-81 0 -171 22 -226 58v105z
" />
    <glyph glyph-name="Sacute" unicode="&#x15a;" horiz-adv-x="568" 
d="M265 771l122 156h155l-190 -156h-87zM31 152c77 -52 160 -70 225 -70c93 0 157 38 157 108c0 144 -351 100 -351 321c0 116 106 200 242 200c63 0 123 -11 184 -43v-102c-62 38 -118 53 -180 53c-82 0 -139 -39 -139 -103c0 -140 354 -99 354 -321
c0 -122 -116 -206 -266 -206c-81 0 -171 22 -226 58v105z" />
    <glyph glyph-name="Scircumflex" unicode="&#x15c;" horiz-adv-x="568" 
d="M357 927l131 -156h-76l-105 86l-104 -86h-76l132 156h98zM31 152c77 -52 160 -70 225 -70c93 0 157 38 157 108c0 144 -351 100 -351 321c0 116 106 200 242 200c63 0 123 -11 184 -43v-102c-62 38 -118 53 -180 53c-82 0 -139 -39 -139 -103c0 -140 354 -99 354 -321
c0 -122 -116 -206 -266 -206c-81 0 -171 22 -226 58v105z" />
    <glyph glyph-name="uni015E" unicode="&#x15e;" horiz-adv-x="568" 
d="M230 -239c-41 0 -78 9 -102 25v61c37 -22 72 -26 98 -26c37 0 65 14 65 40c0 32 -38 44 -95 44l31 85c-73 5 -148 25 -196 57v105c77 -52 160 -70 225 -70c93 0 157 38 157 108c0 144 -351 100 -351 321c0 116 106 200 242 200c63 0 123 -11 184 -43v-102
c-62 38 -118 53 -180 53c-82 0 -139 -39 -139 -103c0 -140 354 -99 354 -321c0 -117 -108 -200 -250 -206l-14 -41c58 -8 101 -36 101 -88c0 -62 -64 -99 -130 -99z" />
    <glyph glyph-name="Scaron" unicode="&#x160;" horiz-adv-x="568" 
d="M259 775l-132 157h76l104 -86l105 86h76l-131 -157h-98zM31 152c77 -52 160 -70 225 -70c93 0 157 38 157 108c0 144 -351 100 -351 321c0 116 106 200 242 200c63 0 123 -11 184 -43v-102c-62 38 -118 53 -180 53c-82 0 -139 -39 -139 -103c0 -140 354 -99 354 -321
c0 -122 -116 -206 -266 -206c-81 0 -171 22 -226 58v105z" />
    <glyph glyph-name="uni0218" unicode="&#x218;" horiz-adv-x="568" 
d="M31 152c77 -52 160 -70 225 -70c93 0 157 38 157 108c0 144 -351 100 -351 321c0 116 106 200 242 200c63 0 123 -11 184 -43v-102c-62 38 -118 53 -180 53c-82 0 -139 -39 -139 -103c0 -140 354 -99 354 -321c0 -122 -116 -206 -266 -206c-81 0 -171 22 -226 58v105z
M317 -48c0 -78 -56 -157 -104 -186h-68c34 37 70 109 70 186h102z" />
    <glyph glyph-name="T" unicode="T" horiz-adv-x="680" 
d="M27 700h626v-90h-259v-610h-107v610h-260v90z" />
    <glyph glyph-name="uni0162" unicode="&#x162;" horiz-adv-x="680" 
d="M319 -239c-41 0 -78 9 -102 25v61c37 -22 72 -26 98 -26c37 0 65 14 65 40c0 32 -38 44 -95 44l34 95h-32v610h-260v90h626v-90h-259v-610h-28l-18 -52c58 -8 101 -36 101 -88c0 -62 -64 -99 -130 -99z" />
    <glyph glyph-name="Tcaron" unicode="&#x164;" horiz-adv-x="680" 
d="M291 775l-132 157h76l104 -86l105 86h76l-131 -157h-98zM27 700h626v-90h-259v-610h-107v610h-260v90z" />
    <glyph glyph-name="uni021A" unicode="&#x21a;" horiz-adv-x="680" 
d="M27 700h626v-90h-259v-610h-107v610h-260v90zM393 -48c0 -78 -56 -157 -104 -186h-68c34 37 70 109 70 186h102z" />
    <glyph glyph-name="U" unicode="U" horiz-adv-x="731" 
d="M365 -11c-174 0 -297 106 -297 307v404h108v-395c0 -148 73 -218 189 -218s190 70 190 218v395h107v-404c0 -201 -123 -307 -297 -307z" />
    <glyph glyph-name="Ugrave" unicode="&#xd9;" horiz-adv-x="731" 
d="M331 771l-190 156h155l122 -156h-87zM365 -11c-174 0 -297 106 -297 307v404h108v-395c0 -148 73 -218 189 -218s190 70 190 218v395h107v-404c0 -201 -123 -307 -297 -307z" />
    <glyph glyph-name="Uacute" unicode="&#xda;" horiz-adv-x="731" 
d="M317 771l122 156h155l-190 -156h-87zM365 -11c-174 0 -297 106 -297 307v404h108v-395c0 -148 73 -218 189 -218s190 70 190 218v395h107v-404c0 -201 -123 -307 -297 -307z" />
    <glyph glyph-name="Ucircumflex" unicode="&#xdb;" horiz-adv-x="731" 
d="M415 927l131 -156h-76l-105 86l-104 -86h-76l132 156h98zM365 -11c-174 0 -297 106 -297 307v404h108v-395c0 -148 73 -218 189 -218s190 70 190 218v395h107v-404c0 -201 -123 -307 -297 -307z" />
    <glyph glyph-name="Udieresis" unicode="&#xdc;" horiz-adv-x="731" 
d="M208 849c0 33 26 61 63 61c35 0 61 -28 61 -61c0 -34 -26 -61 -61 -61c-37 0 -63 27 -63 61zM399 849c0 33 26 61 62 61c35 0 62 -28 62 -61c0 -34 -27 -61 -62 -61c-36 0 -62 27 -62 61zM365 -11c-174 0 -297 106 -297 307v404h108v-395c0 -148 73 -218 189 -218
s190 70 190 218v395h107v-404c0 -201 -123 -307 -297 -307z" />
    <glyph glyph-name="Utilde" unicode="&#x168;" horiz-adv-x="731" 
d="M437 768c-57 0 -103 91 -147 91c-32 0 -41 -39 -47 -88h-64c2 94 43 172 115 172c57 0 104 -90 147 -90c32 0 41 38 47 88h64c-2 -94 -43 -173 -115 -173zM365 -11c-174 0 -297 106 -297 307v404h108v-395c0 -148 73 -218 189 -218s190 70 190 218v395h107v-404
c0 -201 -123 -307 -297 -307z" />
    <glyph glyph-name="Umacron" unicode="&#x16a;" horiz-adv-x="731" 
d="M201 794v79h330v-79h-330zM365 -11c-174 0 -297 106 -297 307v404h108v-395c0 -148 73 -218 189 -218s190 70 190 218v395h107v-404c0 -201 -123 -307 -297 -307z" />
    <glyph glyph-name="Ubreve" unicode="&#x16c;" horiz-adv-x="731" 
d="M365 767c-92 0 -166 55 -166 160h69c3 -58 47 -84 97 -84c52 0 96 26 98 84h69c0 -105 -73 -160 -167 -160zM365 -11c-174 0 -297 106 -297 307v404h108v-395c0 -148 73 -218 189 -218s190 70 190 218v395h107v-404c0 -201 -123 -307 -297 -307z" />
    <glyph glyph-name="Uring" unicode="&#x16e;" horiz-adv-x="731" 
d="M365 743c-65 0 -122 56 -122 125c0 68 57 122 122 122c67 0 124 -54 124 -122c0 -69 -57 -125 -124 -125zM365 802c37 0 65 29 65 66c0 35 -29 64 -65 64c-34 0 -62 -29 -62 -64c0 -37 27 -66 62 -66zM365 -11c-174 0 -297 106 -297 307v404h108v-395
c0 -148 73 -218 189 -218s190 70 190 218v395h107v-404c0 -201 -123 -307 -297 -307z" />
    <glyph glyph-name="Uhungarumlaut" unicode="&#x170;" horiz-adv-x="731" 
d="M334 927h122l-157 -156h-71zM521 927h121l-156 -156h-72zM365 -11c-174 0 -297 106 -297 307v404h108v-395c0 -148 73 -218 189 -218s190 70 190 218v395h107v-404c0 -201 -123 -307 -297 -307z" />
    <glyph glyph-name="Uogonek" unicode="&#x172;" horiz-adv-x="731" 
d="M464 -239c-49 0 -101 28 -101 94c0 53 25 96 71 140c-22 -4 -45 -6 -69 -6c-174 0 -297 106 -297 307v404h108v-395c0 -148 73 -218 189 -218s190 70 190 218v395h107v-404c0 -110 -40 -197 -111 -254c-79 -64 -114 -115 -114 -165c0 -31 20 -48 42 -48c13 0 20 1 31 6
v-66c-13 -5 -27 -8 -46 -8z" />
    <glyph glyph-name="V" unicode="V" horiz-adv-x="711" 
d="M308 0l-291 700h115l226 -561l226 561h109l-290 -700h-95z" />
    <glyph glyph-name="W" unicode="W" horiz-adv-x="957" 
d="M525 700l154 -539l160 539h100l-212 -700h-87l-161 547l-161 -547h-88l-213 700h109l159 -539l155 539h85z" />
    <glyph glyph-name="Wcircumflex" unicode="&#x174;" horiz-adv-x="957" 
d="M527 927l131 -156h-76l-105 86l-104 -86h-76l132 156h98zM525 700l154 -539l160 539h100l-212 -700h-87l-161 547l-161 -547h-88l-213 700h109l159 -539l155 539h85z" />
    <glyph glyph-name="Wgrave" unicode="&#x1e80;" horiz-adv-x="957" 
d="M443 771l-190 156h155l122 -156h-87zM525 700l154 -539l160 539h100l-212 -700h-87l-161 547l-161 -547h-88l-213 700h109l159 -539l155 539h85z" />
    <glyph glyph-name="Wacute" unicode="&#x1e82;" horiz-adv-x="957" 
d="M430 771l122 156h155l-190 -156h-87zM525 700l154 -539l160 539h100l-212 -700h-87l-161 547l-161 -547h-88l-213 700h109l159 -539l155 539h85z" />
    <glyph glyph-name="Wdieresis" unicode="&#x1e84;" horiz-adv-x="957" 
d="M320 849c0 33 26 61 63 61c35 0 61 -28 61 -61c0 -34 -26 -61 -61 -61c-37 0 -63 27 -63 61zM511 849c0 33 26 61 62 61c35 0 62 -28 62 -61c0 -34 -27 -61 -62 -61c-36 0 -62 27 -62 61zM525 700l154 -539l160 539h100l-212 -700h-87l-161 547l-161 -547h-88l-213 700
h109l159 -539l155 539h85z" />
    <glyph glyph-name="X" unicode="X" horiz-adv-x="720" 
d="M357 286l-217 -286h-123l281 360l-262 340h131l196 -260l199 260h123l-263 -335l281 -365h-130z" />
    <glyph glyph-name="Y" unicode="Y" horiz-adv-x="702" 
d="M406 0h-108v304l-281 396h126l213 -304l210 304h119l-279 -396v-304z" />
    <glyph glyph-name="Yacute" unicode="&#xdd;" horiz-adv-x="702" 
d="M303 771l122 156h155l-190 -156h-87zM406 0h-108v304l-281 396h126l213 -304l210 304h119l-279 -396v-304z" />
    <glyph glyph-name="Ycircumflex" unicode="&#x176;" horiz-adv-x="702" 
d="M401 927l131 -156h-76l-105 86l-104 -86h-76l132 156h98zM406 0h-108v304l-281 396h126l213 -304l210 304h119l-279 -396v-304z" />
    <glyph glyph-name="Ydieresis" unicode="&#x178;" horiz-adv-x="702" 
d="M193 849c0 33 26 61 63 61c35 0 61 -28 61 -61c0 -34 -26 -61 -61 -61c-37 0 -63 27 -63 61zM384 849c0 33 26 61 62 61c35 0 62 -28 62 -61c0 -34 -27 -61 -62 -61c-36 0 -62 27 -62 61zM406 0h-108v304l-281 396h126l213 -304l210 304h119l-279 -396v-304z" />
    <glyph glyph-name="Ygrave" unicode="&#x1ef2;" horiz-adv-x="702" 
d="M316 771l-190 156h155l122 -156h-87zM406 0h-108v304l-281 396h126l213 -304l210 304h119l-279 -396v-304z" />
    <glyph glyph-name="Z" unicode="Z" horiz-adv-x="667" 
d="M622 0h-575v69l421 541h-409v90h547v-73l-419 -537h435v-90z" />
    <glyph glyph-name="Zacute" unicode="&#x179;" horiz-adv-x="667" 
d="M300 771l122 156h155l-190 -156h-87zM622 0h-575v69l421 541h-409v90h547v-73l-419 -537h435v-90z" />
    <glyph glyph-name="Zdotaccent" unicode="&#x17b;" horiz-adv-x="667" 
d="M282 853c0 36 27 64 65 64c39 0 66 -28 66 -64s-27 -65 -66 -65c-38 0 -65 29 -65 65zM622 0h-575v69l421 541h-409v90h547v-73l-419 -537h435v-90z" />
    <glyph glyph-name="Zcaron" unicode="&#x17d;" horiz-adv-x="667" 
d="M299 775l-132 157h76l104 -86l105 86h76l-131 -157h-98zM622 0h-575v69l421 541h-409v90h547v-73l-419 -537h435v-90z" />
    <glyph glyph-name="AE" unicode="&#xc6;" horiz-adv-x="1067" 
d="M548 223h-271l-148 -223h-112l466 700h505v-89h-333v-210h302v-89h-302v-222h346v-90h-453v223zM548 631l-213 -321h213v321z" />
    <glyph glyph-name="AEacute" unicode="&#x1fc;" horiz-adv-x="1067" 
d="M684 771l122 156h155l-190 -156h-87zM548 223h-271l-148 -223h-112l466 700h505v-89h-333v-210h302v-89h-302v-222h346v-90h-453v223zM548 631l-213 -321h213v321z" />
    <glyph glyph-name="Eth" unicode="&#xd0;" horiz-adv-x="749" 
d="M100 0v310h-79v90h79v301h237c208 0 374 -131 374 -350s-166 -351 -374 -351h-237zM335 91c152 0 267 97 267 260s-115 259 -267 259h-128v-210h147v-90h-147v-219h128z" />
    <glyph glyph-name="Oslash" unicode="&#xd8;" horiz-adv-x="766" 
d="M383 -11c-67 0 -129 18 -183 51l-56 -76h-91l90 122c-65 63 -106 155 -106 264c0 215 158 361 346 361c66 0 129 -18 182 -51l57 78h93l-91 -124c64 -63 105 -155 105 -264c0 -215 -158 -361 -346 -361zM144 350c0 -74 22 -137 59 -182l305 415c-36 22 -78 34 -125 34
c-139 0 -239 -108 -239 -267zM383 84c139 0 239 107 239 266c0 74 -22 137 -58 183l-306 -415c36 -22 78 -34 125 -34z" />
    <glyph glyph-name="Oslashacute" unicode="&#x1fe;" horiz-adv-x="766" 
d="M335 771l122 156h155l-190 -156h-87zM383 -11c-67 0 -129 18 -183 51l-56 -76h-91l90 122c-65 63 -106 155 -106 264c0 215 158 361 346 361c66 0 129 -18 182 -51l57 78h93l-91 -124c64 -63 105 -155 105 -264c0 -215 -158 -361 -346 -361zM144 350
c0 -74 22 -137 59 -182l305 415c-36 22 -78 34 -125 34c-139 0 -239 -108 -239 -267zM383 84c139 0 239 107 239 266c0 74 -22 137 -58 183l-306 -415c36 -22 78 -34 125 -34z" />
    <glyph glyph-name="Thorn" unicode="&#xde;" horiz-adv-x="631" 
d="M91 0v700h107v-126h146c147 0 252 -82 252 -215s-105 -215 -252 -215h-146v-144h-107zM485 359c0 80 -61 126 -147 126h-140v-252h140c86 0 147 46 147 126z" />
    <glyph glyph-name="Dcroat" unicode="&#x110;" horiz-adv-x="749" 
d="M100 0v310h-79v90h79v301h237c208 0 374 -131 374 -350s-166 -351 -374 -351h-237zM335 91c152 0 267 97 267 260s-115 259 -267 259h-128v-210h147v-90h-147v-219h128z" />
    <glyph glyph-name="Hbar" unicode="&#x126;" horiz-adv-x="800" 
d="M207 0h-107v462h-79v86h79v152h107v-152h385v152h108v-152h79v-86h-79v-462h-108v247h-385v-247zM592 334v128h-385v-128h385z" />
    <glyph glyph-name="Ldot" unicode="&#x13f;" horiz-adv-x="579" 
d="M198 700v-610h339v-90h-446v700h107zM365 400c0 36 27 65 65 65c39 0 66 -29 66 -65s-27 -65 -66 -65c-38 0 -65 29 -65 65z" />
    <glyph glyph-name="Lslash" unicode="&#x141;" horiz-adv-x="588" 
d="M100 0v274l-79 -42v93l79 43v332h107v-283l174 94v-93l-174 -94v-234h339v-90h-446z" />
    <glyph glyph-name="Eng" unicode="&#x14a;" horiz-adv-x="760" 
d="M483 -228c48 62 78 131 83 242l-372 530v-544h-103v700h108l367 -533v533h103v-684c-2 -123 -34 -186 -78 -244h-108z" />
    <glyph glyph-name="OE" unicode="&#x152;" horiz-adv-x="1059" 
d="M412 0c-208 0 -375 131 -375 350s167 350 375 350h569v-89h-333v-210h302v-89h-302v-222h345v-90h-581zM414 611c-152 0 -267 -99 -267 -261c0 -163 115 -260 267 -260h128v521h-128z" />
    <glyph glyph-name="Tbar" unicode="&#x166;" horiz-adv-x="680" 
d="M394 310v-310h-107v310h-130v90h130v210h-260v90h626v-90h-259v-210h130v-90h-130z" />
    <glyph glyph-name="a" unicode="a" horiz-adv-x="520" 
d="M356 0l-10 54c-39 -35 -92 -65 -157 -65c-83 0 -148 52 -148 137c0 105 96 174 305 180v30c0 61 -33 99 -107 99c-57 0 -114 -18 -169 -50v88c47 31 120 51 179 51c140 0 200 -78 200 -183v-239c0 -49 3 -70 10 -102h-103zM219 66c48 0 86 17 127 45v129
c-138 -5 -206 -40 -206 -107c0 -41 31 -67 79 -67z" />
    <glyph glyph-name="agrave" unicode="&#xe0;" horiz-adv-x="520" 
d="M246 604l-129 187h128l67 -187h-66zM356 0l-10 54c-39 -35 -92 -65 -157 -65c-83 0 -148 52 -148 137c0 105 96 174 305 180v30c0 61 -33 99 -107 99c-57 0 -114 -18 -169 -50v88c47 31 120 51 179 51c140 0 200 -78 200 -183v-239c0 -49 3 -70 10 -102h-103zM219 66
c48 0 86 17 127 45v129c-138 -5 -206 -40 -206 -107c0 -41 31 -67 79 -67z" />
    <glyph glyph-name="aacute" unicode="&#xe1;" horiz-adv-x="520" 
d="M210 604l68 187h128l-131 -187h-65zM356 0l-10 54c-39 -35 -92 -65 -157 -65c-83 0 -148 52 -148 137c0 105 96 174 305 180v30c0 61 -33 99 -107 99c-57 0 -114 -18 -169 -50v88c47 31 120 51 179 51c140 0 200 -78 200 -183v-239c0 -49 3 -70 10 -102h-103zM219 66
c48 0 86 17 127 45v129c-138 -5 -206 -40 -206 -107c0 -41 31 -67 79 -67z" />
    <glyph glyph-name="acircumflex" unicode="&#xe2;" horiz-adv-x="520" 
d="M311 791l106 -187h-69l-87 112l-86 -112h-68l106 187h98zM356 0l-10 54c-39 -35 -92 -65 -157 -65c-83 0 -148 52 -148 137c0 105 96 174 305 180v30c0 61 -33 99 -107 99c-57 0 -114 -18 -169 -50v88c47 31 120 51 179 51c140 0 200 -78 200 -183v-239
c0 -49 3 -70 10 -102h-103zM219 66c48 0 86 17 127 45v129c-138 -5 -206 -40 -206 -107c0 -41 31 -67 79 -67z" />
    <glyph glyph-name="atilde" unicode="&#xe3;" horiz-adv-x="520" 
d="M325 617c-57 0 -94 91 -137 91c-32 0 -40 -39 -46 -88h-63c2 93 43 172 114 172c56 0 93 -90 136 -90c32 0 40 38 46 88h63c-2 -94 -42 -173 -113 -173zM356 0l-10 54c-39 -35 -92 -65 -157 -65c-83 0 -148 52 -148 137c0 105 96 174 305 180v30c0 61 -33 99 -107 99
c-57 0 -114 -18 -169 -50v88c47 31 120 51 179 51c140 0 200 -78 200 -183v-239c0 -49 3 -70 10 -102h-103zM219 66c48 0 86 17 127 45v129c-138 -5 -206 -40 -206 -107c0 -41 31 -67 79 -67z" />
    <glyph glyph-name="adieresis" unicode="&#xe4;" horiz-adv-x="520" 
d="M104 704c0 33 26 60 63 60c35 0 61 -27 61 -60c0 -34 -26 -61 -61 -61c-37 0 -63 27 -63 61zM295 704c0 33 26 60 62 60c35 0 62 -27 62 -60c0 -34 -27 -61 -62 -61c-36 0 -62 27 -62 61zM356 0l-10 54c-39 -35 -92 -65 -157 -65c-83 0 -148 52 -148 137
c0 105 96 174 305 180v30c0 61 -33 99 -107 99c-57 0 -114 -18 -169 -50v88c47 31 120 51 179 51c140 0 200 -78 200 -183v-239c0 -49 3 -70 10 -102h-103zM219 66c48 0 86 17 127 45v129c-138 -5 -206 -40 -206 -107c0 -41 31 -67 79 -67z" />
    <glyph glyph-name="aring" unicode="&#xe5;" horiz-adv-x="520" 
d="M372 700c0 -61 -51 -111 -112 -111c-58 0 -110 50 -110 111s52 110 110 110c61 0 112 -49 112 -110zM203 700c0 -31 26 -59 57 -59c33 0 59 27 59 59s-26 59 -59 59c-30 0 -57 -27 -57 -59zM356 0l-10 54c-39 -35 -92 -65 -157 -65c-83 0 -148 52 -148 137
c0 105 96 174 305 180v30c0 61 -33 99 -107 99c-57 0 -114 -18 -169 -50v88c47 31 120 51 179 51c140 0 200 -78 200 -183v-239c0 -49 3 -70 10 -102h-103zM219 66c48 0 86 17 127 45v129c-138 -5 -206 -40 -206 -107c0 -41 31 -67 79 -67z" />
    <glyph glyph-name="amacron" unicode="&#x101;" horiz-adv-x="520" 
d="M112 648v78h299v-78h-299zM356 0l-10 54c-39 -35 -92 -65 -157 -65c-83 0 -148 52 -148 137c0 105 96 174 305 180v30c0 61 -33 99 -107 99c-57 0 -114 -18 -169 -50v88c47 31 120 51 179 51c140 0 200 -78 200 -183v-239c0 -49 3 -70 10 -102h-103zM219 66
c48 0 86 17 127 45v129c-138 -5 -206 -40 -206 -107c0 -41 31 -67 79 -67z" />
    <glyph glyph-name="abreve" unicode="&#x103;" horiz-adv-x="520" 
d="M261 604c-92 0 -150 76 -150 187h68c3 -68 32 -111 82 -111c52 0 80 43 83 111h69c0 -111 -58 -187 -152 -187zM356 0l-10 54c-39 -35 -92 -65 -157 -65c-83 0 -148 52 -148 137c0 105 96 174 305 180v30c0 61 -33 99 -107 99c-57 0 -114 -18 -169 -50v88
c47 31 120 51 179 51c140 0 200 -78 200 -183v-239c0 -49 3 -70 10 -102h-103zM219 66c48 0 86 17 127 45v129c-138 -5 -206 -40 -206 -107c0 -41 31 -67 79 -67z" />
    <glyph glyph-name="aogonek" unicode="&#x105;" horiz-adv-x="520" 
d="M425 -231c-14 -5 -27 -8 -46 -8c-49 0 -101 28 -101 94c0 56 28 101 78 146l-10 53c-39 -35 -92 -65 -157 -65c-83 0 -148 52 -148 137c0 105 96 174 305 180v30c0 61 -33 99 -107 99c-57 0 -114 -18 -169 -50v88c47 31 120 51 179 51c140 0 200 -78 200 -183v-239
c0 -49 3 -70 10 -102h-37c-47 -46 -71 -84 -71 -124c0 -31 21 -47 44 -47c12 0 19 1 30 6v-66zM219 66c48 0 86 17 127 45v129c-138 -5 -206 -40 -206 -107c0 -41 31 -67 79 -67z" />
    <glyph glyph-name="b" unicode="b" horiz-adv-x="594" 
d="M79 787l103 16v-339c31 28 89 60 155 60c133 0 223 -95 223 -253c0 -169 -119 -282 -278 -282c-71 0 -142 13 -203 44v754zM182 93c29 -12 62 -18 99 -18c106 0 173 76 173 192c0 106 -55 169 -141 169c-52 0 -102 -21 -131 -45v-298z" />
    <glyph glyph-name="c" unicode="c" horiz-adv-x="464" 
d="M37 255c0 160 117 269 269 269c34 0 75 -7 108 -22v-91c-34 17 -68 23 -104 23c-94 0 -172 -68 -172 -179c0 -108 78 -176 172 -176c36 0 73 8 107 24v-92c-32 -14 -77 -22 -111 -22c-152 0 -269 109 -269 266z" />
    <glyph glyph-name="ccedilla" unicode="&#xe7;" horiz-adv-x="464" 
d="M240 -239c-41 0 -78 9 -102 25v61c37 -22 72 -26 98 -26c37 0 65 14 65 40c0 32 -38 44 -95 44l33 91c-118 28 -202 126 -202 259c0 160 117 269 269 269c34 0 75 -7 108 -22v-91c-34 17 -68 23 -104 23c-94 0 -172 -68 -172 -179c0 -108 78 -176 172 -176
c36 0 73 8 107 24v-92c-32 -14 -77 -22 -111 -22c-8 0 -15 0 -22 1l-15 -42c58 -8 101 -36 101 -88c0 -62 -64 -99 -130 -99z" />
    <glyph glyph-name="cacute" unicode="&#x107;" horiz-adv-x="464" 
d="M248 604l68 187h128l-131 -187h-65zM37 255c0 160 117 269 269 269c34 0 75 -7 108 -22v-91c-34 17 -68 23 -104 23c-94 0 -172 -68 -172 -179c0 -108 78 -176 172 -176c36 0 73 8 107 24v-92c-32 -14 -77 -22 -111 -22c-152 0 -269 109 -269 266z" />
    <glyph glyph-name="ccircumflex" unicode="&#x109;" horiz-adv-x="464" 
d="M338 791l106 -187h-69l-87 112l-86 -112h-68l106 187h98zM37 255c0 160 117 269 269 269c34 0 75 -7 108 -22v-91c-34 17 -68 23 -104 23c-94 0 -172 -68 -172 -179c0 -108 78 -176 172 -176c36 0 73 8 107 24v-92c-32 -14 -77 -22 -111 -22c-152 0 -269 109 -269 266z
" />
    <glyph glyph-name="cdotaccent" unicode="&#x10b;" horiz-adv-x="464" 
d="M222 703c0 36 27 65 65 65c39 0 66 -29 66 -65s-27 -65 -66 -65c-38 0 -65 29 -65 65zM37 255c0 160 117 269 269 269c34 0 75 -7 108 -22v-91c-34 17 -68 23 -104 23c-94 0 -172 -68 -172 -179c0 -108 78 -176 172 -176c36 0 73 8 107 24v-92c-32 -14 -77 -22 -111 -22
c-152 0 -269 109 -269 266z" />
    <glyph glyph-name="ccaron" unicode="&#x10d;" horiz-adv-x="464" 
d="M240 604l-106 187h68l86 -113l87 113h69l-106 -187h-98zM37 255c0 160 117 269 269 269c34 0 75 -7 108 -22v-91c-34 17 -68 23 -104 23c-94 0 -172 -68 -172 -179c0 -108 78 -176 172 -176c36 0 73 8 107 24v-92c-32 -14 -77 -22 -111 -22c-152 0 -269 109 -269 266z
" />
    <glyph glyph-name="d" unicode="d" horiz-adv-x="595" 
d="M413 52c-31 -29 -82 -63 -151 -63c-132 0 -225 96 -225 254c0 170 116 281 266 281c39 0 82 -10 110 -27v290l103 16v-793l-103 -16v58zM413 412c-26 21 -69 29 -102 29c-104 0 -169 -78 -169 -194c0 -106 58 -169 143 -169c56 0 100 24 128 49v285z" />
    <glyph glyph-name="dcaron" unicode="&#x10f;" horiz-adv-x="710" 
d="M413 52c-31 -29 -82 -63 -151 -63c-132 0 -225 96 -225 254c0 170 116 281 266 281c39 0 82 -10 110 -27v290l103 16v-793l-103 -16v58zM615 791h112l-76 -248h-63zM413 412c-26 21 -69 29 -102 29c-104 0 -169 -78 -169 -194c0 -106 58 -169 143 -169
c56 0 100 24 128 49v285z" />
    <glyph glyph-name="e" unicode="e" horiz-adv-x="532" 
d="M474 23c-49 -23 -101 -34 -160 -34c-164 0 -277 114 -277 269c0 150 100 266 243 266c150 0 215 -110 215 -244c0 -12 0 -24 -1 -37h-360c9 -106 89 -167 191 -167c49 0 90 4 149 34v-87zM278 442c-71 0 -127 -49 -141 -134h258v5c0 69 -35 129 -117 129z" />
    <glyph glyph-name="egrave" unicode="&#xe8;" horiz-adv-x="532" 
d="M269 604l-129 187h128l67 -187h-66zM474 23c-49 -23 -101 -34 -160 -34c-164 0 -277 114 -277 269c0 150 100 266 243 266c150 0 215 -110 215 -244c0 -12 0 -24 -1 -37h-360c9 -106 89 -167 191 -167c49 0 90 4 149 34v-87zM278 442c-71 0 -127 -49 -141 -134h258v5
c0 69 -35 129 -117 129z" />
    <glyph glyph-name="eacute" unicode="&#xe9;" horiz-adv-x="532" 
d="M233 604l68 187h128l-131 -187h-65zM474 23c-49 -23 -101 -34 -160 -34c-164 0 -277 114 -277 269c0 150 100 266 243 266c150 0 215 -110 215 -244c0 -12 0 -24 -1 -37h-360c9 -106 89 -167 191 -167c49 0 90 4 149 34v-87zM278 442c-71 0 -127 -49 -141 -134h258v5
c0 69 -35 129 -117 129z" />
    <glyph glyph-name="ecircumflex" unicode="&#xea;" horiz-adv-x="532" 
d="M334 791l106 -187h-69l-87 112l-86 -112h-68l106 187h98zM474 23c-49 -23 -101 -34 -160 -34c-164 0 -277 114 -277 269c0 150 100 266 243 266c150 0 215 -110 215 -244c0 -12 0 -24 -1 -37h-360c9 -106 89 -167 191 -167c49 0 90 4 149 34v-87zM278 442
c-71 0 -127 -49 -141 -134h258v5c0 69 -35 129 -117 129z" />
    <glyph glyph-name="edieresis" unicode="&#xeb;" horiz-adv-x="532" 
d="M127 704c0 33 26 60 63 60c35 0 61 -27 61 -60c0 -34 -26 -61 -61 -61c-37 0 -63 27 -63 61zM318 704c0 33 26 60 62 60c35 0 62 -27 62 -60c0 -34 -27 -61 -62 -61c-36 0 -62 27 -62 61zM474 23c-49 -23 -101 -34 -160 -34c-164 0 -277 114 -277 269
c0 150 100 266 243 266c150 0 215 -110 215 -244c0 -12 0 -24 -1 -37h-360c9 -106 89 -167 191 -167c49 0 90 4 149 34v-87zM278 442c-71 0 -127 -49 -141 -134h258v5c0 69 -35 129 -117 129z" />
    <glyph glyph-name="emacron" unicode="&#x113;" horiz-adv-x="532" 
d="M135 648v78h299v-78h-299zM474 23c-49 -23 -101 -34 -160 -34c-164 0 -277 114 -277 269c0 150 100 266 243 266c150 0 215 -110 215 -244c0 -12 0 -24 -1 -37h-360c9 -106 89 -167 191 -167c49 0 90 4 149 34v-87zM278 442c-71 0 -127 -49 -141 -134h258v5
c0 69 -35 129 -117 129z" />
    <glyph glyph-name="ebreve" unicode="&#x115;" horiz-adv-x="532" 
d="M284 604c-92 0 -150 76 -150 187h68c3 -68 32 -111 82 -111c52 0 80 43 83 111h69c0 -111 -58 -187 -152 -187zM474 23c-49 -23 -101 -34 -160 -34c-164 0 -277 114 -277 269c0 150 100 266 243 266c150 0 215 -110 215 -244c0 -12 0 -24 -1 -37h-360
c9 -106 89 -167 191 -167c49 0 90 4 149 34v-87zM278 442c-71 0 -127 -49 -141 -134h258v5c0 69 -35 129 -117 129z" />
    <glyph glyph-name="edotaccent" unicode="&#x117;" horiz-adv-x="532" 
d="M219 703c0 36 27 65 65 65c39 0 66 -29 66 -65s-27 -65 -66 -65c-38 0 -65 29 -65 65zM474 23c-49 -23 -101 -34 -160 -34c-164 0 -277 114 -277 269c0 150 100 266 243 266c150 0 215 -110 215 -244c0 -12 0 -24 -1 -37h-360c9 -106 89 -167 191 -167c49 0 90 4 149 34
v-87zM278 442c-71 0 -127 -49 -141 -134h258v5c0 69 -35 129 -117 129z" />
    <glyph glyph-name="eogonek" unicode="&#x119;" horiz-adv-x="532" 
d="M434 -231c-13 -5 -27 -8 -46 -8c-49 0 -101 28 -101 94c0 51 24 94 67 137c-13 -2 -27 -3 -40 -3c-164 0 -277 114 -277 269c0 150 100 266 243 266c150 0 215 -110 215 -244c0 -12 0 -24 -1 -37h-360c9 -106 89 -167 191 -167c49 0 90 4 149 34v-87
c-81 -47 -113 -105 -113 -147c0 -31 20 -47 42 -47c13 0 20 1 31 6v-66zM278 442c-71 0 -127 -49 -141 -134h258v5c0 69 -35 129 -117 129z" />
    <glyph glyph-name="ecaron" unicode="&#x11b;" horiz-adv-x="532" 
d="M236 604l-106 187h68l86 -113l87 113h69l-106 -187h-98zM474 23c-49 -23 -101 -34 -160 -34c-164 0 -277 114 -277 269c0 150 100 266 243 266c150 0 215 -110 215 -244c0 -12 0 -24 -1 -37h-360c9 -106 89 -167 191 -167c49 0 90 4 149 34v-87zM278 442
c-71 0 -127 -49 -141 -134h258v5c0 69 -35 129 -117 129z" />
    <glyph glyph-name="f" unicode="f" horiz-adv-x="349" 
d="M198 0h-103v433h-73v80h73v41c0 155 92 248 234 248c28 0 51 -3 80 -12v-83c-28 8 -45 9 -70 9c-91 0 -141 -56 -141 -160v-43h163l-15 -80h-148v-433z" />
    <glyph glyph-name="g" unicode="g" horiz-adv-x="536" 
d="M520 -56c0 -121 -138 -183 -283 -183c-132 0 -241 56 -241 148c0 70 67 114 130 130c-15 17 -24 39 -24 59c0 34 24 65 64 87c-75 25 -129 84 -129 163c0 107 95 176 211 176c26 0 51 -4 73 -11h210l-12 -71h-96c20 -27 31 -59 31 -94c0 -105 -87 -175 -206 -175
c-6 0 -12 0 -18 1c-29 -15 -43 -29 -43 -46c0 -22 22 -31 47 -34l113 -15c101 -15 173 -48 173 -135zM359 348c0 69 -51 105 -111 105c-59 0 -111 -36 -111 -105c0 -66 52 -104 111 -104c60 0 111 38 111 104zM248 -164c84 0 171 30 171 92c0 44 -43 54 -88 60l-144 23
c-54 -15 -93 -46 -93 -89c0 -58 67 -86 154 -86z" />
    <glyph glyph-name="gcircumflex" unicode="&#x11d;" horiz-adv-x="536" 
d="M313 791l106 -187h-69l-87 112l-86 -112h-68l106 187h98zM520 -56c0 -121 -138 -183 -283 -183c-132 0 -241 56 -241 148c0 70 67 114 130 130c-15 17 -24 39 -24 59c0 34 24 65 64 87c-75 25 -129 84 -129 163c0 107 95 176 211 176c26 0 51 -4 73 -11h210l-12 -71h-96
c20 -27 31 -59 31 -94c0 -105 -87 -175 -206 -175c-6 0 -12 0 -18 1c-29 -15 -43 -29 -43 -46c0 -22 22 -31 47 -34l113 -15c101 -15 173 -48 173 -135zM359 348c0 69 -51 105 -111 105c-59 0 -111 -36 -111 -105c0 -66 52 -104 111 -104c60 0 111 38 111 104zM248 -164
c84 0 171 30 171 92c0 44 -43 54 -88 60l-144 23c-54 -15 -93 -46 -93 -89c0 -58 67 -86 154 -86z" />
    <glyph glyph-name="gbreve" unicode="&#x11f;" horiz-adv-x="536" 
d="M263 604c-92 0 -150 76 -150 187h68c3 -68 32 -111 82 -111c52 0 80 43 83 111h69c0 -111 -58 -187 -152 -187zM520 -56c0 -121 -138 -183 -283 -183c-132 0 -241 56 -241 148c0 70 67 114 130 130c-15 17 -24 39 -24 59c0 34 24 65 64 87c-75 25 -129 84 -129 163
c0 107 95 176 211 176c26 0 51 -4 73 -11h210l-12 -71h-96c20 -27 31 -59 31 -94c0 -105 -87 -175 -206 -175c-6 0 -12 0 -18 1c-29 -15 -43 -29 -43 -46c0 -22 22 -31 47 -34l113 -15c101 -15 173 -48 173 -135zM359 348c0 69 -51 105 -111 105c-59 0 -111 -36 -111 -105
c0 -66 52 -104 111 -104c60 0 111 38 111 104zM248 -164c84 0 171 30 171 92c0 44 -43 54 -88 60l-144 23c-54 -15 -93 -46 -93 -89c0 -58 67 -86 154 -86z" />
    <glyph glyph-name="gdotaccent" unicode="&#x121;" horiz-adv-x="536" 
d="M198 703c0 36 27 65 65 65c39 0 66 -29 66 -65s-27 -65 -66 -65c-38 0 -65 29 -65 65zM520 -56c0 -121 -138 -183 -283 -183c-132 0 -241 56 -241 148c0 70 67 114 130 130c-15 17 -24 39 -24 59c0 34 24 65 64 87c-75 25 -129 84 -129 163c0 107 95 176 211 176
c26 0 51 -4 73 -11h210l-12 -71h-96c20 -27 31 -59 31 -94c0 -105 -87 -175 -206 -175c-6 0 -12 0 -18 1c-29 -15 -43 -29 -43 -46c0 -22 22 -31 47 -34l113 -15c101 -15 173 -48 173 -135zM359 348c0 69 -51 105 -111 105c-59 0 -111 -36 -111 -105c0 -66 52 -104 111 -104
c60 0 111 38 111 104zM248 -164c84 0 171 30 171 92c0 44 -43 54 -88 60l-144 23c-54 -15 -93 -46 -93 -89c0 -58 67 -86 154 -86z" />
    <glyph glyph-name="uni0123" unicode="&#x123;" horiz-adv-x="536" 
d="M212 605c0 78 55 157 103 186h68c-34 -37 -70 -109 -70 -186h-101zM520 -56c0 -121 -138 -183 -283 -183c-132 0 -241 56 -241 148c0 70 67 114 130 130c-15 17 -24 39 -24 59c0 34 24 65 64 87c-75 25 -129 84 -129 163c0 107 95 176 211 176c26 0 51 -4 73 -11h210
l-12 -71h-96c20 -27 31 -59 31 -94c0 -105 -87 -175 -206 -175c-6 0 -12 0 -18 1c-29 -15 -43 -29 -43 -46c0 -22 22 -31 47 -34l113 -15c101 -15 173 -48 173 -135zM359 348c0 69 -51 105 -111 105c-59 0 -111 -36 -111 -105c0 -66 52 -104 111 -104c60 0 111 38 111 104z
M248 -164c84 0 171 30 171 92c0 44 -43 54 -88 60l-144 23c-54 -15 -93 -46 -93 -89c0 -58 67 -86 154 -86z" />
    <glyph glyph-name="h" unicode="h" horiz-adv-x="602" 
d="M182 802v-339c35 27 99 61 174 61c114 0 173 -69 173 -174v-350h-104v324c0 69 -27 110 -104 110c-56 0 -98 -17 -139 -43v-391h-103v787z" />
    <glyph glyph-name="hcircumflex" unicode="&#x125;" horiz-adv-x="602" 
d="M370 989l131 -156h-76l-105 86l-104 -86h-76l132 156h98zM182 802v-339c35 27 99 61 174 61c114 0 173 -69 173 -174v-350h-104v324c0 69 -27 110 -104 110c-56 0 -98 -17 -139 -43v-391h-103v787z" />
    <glyph glyph-name="i" unicode="i" 
d="M65 703c0 36 28 65 66 65s66 -29 66 -65s-28 -65 -66 -65s-66 29 -66 65zM79 503l103 17v-520h-103v503z" />
    <glyph glyph-name="igrave" unicode="&#xec;" 
d="M104 604l-129 187h128l67 -187h-66zM79 503l103 17v-520h-103v503z" />
    <glyph glyph-name="iacute" unicode="&#xed;" 
d="M91 604l68 187h128l-131 -187h-65zM79 503l103 17v-520h-103v503z" />
    <glyph glyph-name="icircumflex" unicode="&#xee;" 
d="M180 791l106 -187h-69l-87 112l-86 -112h-68l106 187h98zM79 503l103 17v-520h-103v503z" />
    <glyph glyph-name="idieresis" unicode="&#xef;" 
d="M-27 704c0 33 26 60 63 60c35 0 61 -27 61 -60c0 -34 -26 -61 -61 -61c-37 0 -63 27 -63 61zM164 704c0 33 26 60 62 60c35 0 62 -27 62 -60c0 -34 -27 -61 -62 -61c-36 0 -62 27 -62 61zM79 503l103 17v-520h-103v503z" />
    <glyph glyph-name="itilde" unicode="&#x129;" 
d="M197 617c-57 0 -94 91 -137 91c-32 0 -40 -39 -46 -88h-63c2 93 43 172 114 172c56 0 93 -90 136 -90c32 0 40 38 46 88h63c-2 -94 -42 -173 -113 -173zM79 503l103 17v-520h-103v503z" />
    <glyph glyph-name="imacron" unicode="&#x12b;" 
d="M-19 648v78h299v-78h-299zM79 503l103 17v-520h-103v503z" />
    <glyph glyph-name="ibreve" unicode="&#x12d;" 
d="M130 604c-92 0 -150 76 -150 187h68c3 -68 32 -111 82 -111c52 0 80 43 83 111h69c0 -111 -58 -187 -152 -187zM79 503l103 17v-520h-103v503z" />
    <glyph glyph-name="iogonek" unicode="&#x12f;" 
d="M65 703c0 36 28 65 66 65s66 -29 66 -65s-28 -65 -66 -65s-66 29 -66 65zM79 503l103 17v-520c-54 -37 -81 -82 -81 -124c0 -31 21 -47 44 -47c12 0 19 1 30 6v-66c-14 -5 -27 -8 -46 -8c-49 0 -101 28 -101 94c0 56 28 100 77 145h-26v503z" />
    <glyph glyph-name="j" unicode="j" 
d="M65 703c0 36 28 65 66 65s66 -29 66 -65s-28 -65 -66 -65s-66 29 -66 65zM182 16c-2 -123 -33 -186 -77 -244h-109c50 65 80 135 83 253v478l103 17v-504z" />
    <glyph glyph-name="jcircumflex" unicode="&#x135;" 
d="M180 791l106 -187h-69l-87 112l-86 -112h-68l106 187h98zM182 16c-2 -123 -33 -186 -77 -244h-109c50 65 80 135 83 253v478l103 17v-504z" />
    <glyph glyph-name="k" unicode="k" horiz-adv-x="570" 
d="M182 259v-259h-103v787l103 15v-519l231 230h123l-240 -235l271 -278h-129z" />
    <glyph glyph-name="uni0137" unicode="&#x137;" horiz-adv-x="570" 
d="M182 259v-259h-103v787l103 15v-519l231 230h123l-240 -235l271 -278h-129zM346 -48c0 -78 -56 -157 -104 -186h-68c34 37 70 109 70 186h102z" />
    <glyph glyph-name="l" unicode="l" 
d="M79 787l103 15v-802h-103v787z" />
    <glyph glyph-name="lacute" unicode="&#x13a;" 
d="M85 833l122 156h155l-190 -156h-87zM79 787l103 15v-802h-103v787z" />
    <glyph glyph-name="uni013C" unicode="&#x13c;" 
d="M79 787l103 15v-802h-103v787zM183 -48c0 -78 -56 -157 -104 -186h-68c34 37 70 109 70 186h102z" />
    <glyph glyph-name="lcaron" unicode="&#x13e;" horiz-adv-x="375" 
d="M79 787l103 15v-802h-103v787zM282 791h112l-76 -248h-63z" />
    <glyph glyph-name="m" unicode="m" horiz-adv-x="917" 
d="M79 0v503l103 17v-56c32 27 96 60 166 60c67 0 114 -27 141 -72c36 31 106 72 189 72c107 0 166 -69 166 -174v-350h-103v324c0 69 -25 110 -98 110c-53 0 -94 -18 -133 -46c2 -12 3 -25 3 -38v-350h-103v324c0 69 -25 110 -98 110c-52 0 -92 -17 -130 -43v-391h-103z
" />
    <glyph glyph-name="n" unicode="n" horiz-adv-x="602" 
d="M182 520v-57c35 27 99 61 174 61c114 0 173 -69 173 -174v-350h-104v324c0 69 -27 110 -104 110c-56 0 -98 -17 -139 -43v-391h-103v503z" />
    <glyph glyph-name="ntilde" unicode="&#xf1;" horiz-adv-x="602" 
d="M374 617c-57 0 -94 91 -137 91c-32 0 -40 -39 -46 -88h-63c2 93 43 172 114 172c56 0 93 -90 136 -90c32 0 40 38 46 88h63c-2 -94 -42 -173 -113 -173zM182 520v-57c35 27 99 61 174 61c114 0 173 -69 173 -174v-350h-104v324c0 69 -27 110 -104 110
c-56 0 -98 -17 -139 -43v-391h-103v503z" />
    <glyph glyph-name="nacute" unicode="&#x144;" horiz-adv-x="602" 
d="M271 604l68 187h128l-131 -187h-65zM182 520v-57c35 27 99 61 174 61c114 0 173 -69 173 -174v-350h-104v324c0 69 -27 110 -104 110c-56 0 -98 -17 -139 -43v-391h-103v503z" />
    <glyph glyph-name="uni0146" unicode="&#x146;" horiz-adv-x="602" 
d="M182 520v-57c35 27 99 61 174 61c114 0 173 -69 173 -174v-350h-104v324c0 69 -27 110 -104 110c-56 0 -98 -17 -139 -43v-391h-103v503zM364 -48c0 -78 -56 -157 -104 -186h-68c34 37 70 109 70 186h102z" />
    <glyph glyph-name="ncaron" unicode="&#x148;" horiz-adv-x="602" 
d="M262 604l-106 187h68l86 -113l87 113h69l-106 -187h-98zM182 520v-57c35 27 99 61 174 61c114 0 173 -69 173 -174v-350h-104v324c0 69 -27 110 -104 110c-56 0 -98 -17 -139 -43v-391h-103v503z" />
    <glyph glyph-name="o" unicode="o" horiz-adv-x="571" 
d="M36 256c0 160 114 268 249 268c136 0 250 -108 250 -268c0 -159 -114 -267 -250 -267c-135 0 -249 108 -249 267zM433 256c0 104 -58 179 -148 179s-147 -75 -147 -179c0 -103 57 -178 147 -178s148 75 148 178z" />
    <glyph glyph-name="ograve" unicode="&#xf2;" horiz-adv-x="571" 
d="M259 604l-129 187h128l67 -187h-66zM36 256c0 160 114 268 249 268c136 0 250 -108 250 -268c0 -159 -114 -267 -250 -267c-135 0 -249 108 -249 267zM433 256c0 104 -58 179 -148 179s-147 -75 -147 -179c0 -103 57 -178 147 -178s148 75 148 178z" />
    <glyph glyph-name="oacute" unicode="&#xf3;" horiz-adv-x="571" 
d="M245 604l68 187h128l-131 -187h-65zM36 256c0 160 114 268 249 268c136 0 250 -108 250 -268c0 -159 -114 -267 -250 -267c-135 0 -249 108 -249 267zM433 256c0 104 -58 179 -148 179s-147 -75 -147 -179c0 -103 57 -178 147 -178s148 75 148 178z" />
    <glyph glyph-name="ocircumflex" unicode="&#xf4;" horiz-adv-x="571" 
d="M335 791l106 -187h-69l-87 112l-86 -112h-68l106 187h98zM36 256c0 160 114 268 249 268c136 0 250 -108 250 -268c0 -159 -114 -267 -250 -267c-135 0 -249 108 -249 267zM433 256c0 104 -58 179 -148 179s-147 -75 -147 -179c0 -103 57 -178 147 -178s148 75 148 178z
" />
    <glyph glyph-name="otilde" unicode="&#xf5;" horiz-adv-x="571" 
d="M355 617c-57 0 -94 91 -137 91c-32 0 -40 -39 -46 -88h-63c2 93 43 172 114 172c56 0 93 -90 136 -90c32 0 40 38 46 88h63c-2 -94 -42 -173 -113 -173zM36 256c0 160 114 268 249 268c136 0 250 -108 250 -268c0 -159 -114 -267 -250 -267c-135 0 -249 108 -249 267z
M433 256c0 104 -58 179 -148 179s-147 -75 -147 -179c0 -103 57 -178 147 -178s148 75 148 178z" />
    <glyph glyph-name="odieresis" unicode="&#xf6;" horiz-adv-x="571" 
d="M128 704c0 33 26 60 63 60c35 0 61 -27 61 -60c0 -34 -26 -61 -61 -61c-37 0 -63 27 -63 61zM319 704c0 33 26 60 62 60c35 0 62 -27 62 -60c0 -34 -27 -61 -62 -61c-36 0 -62 27 -62 61zM36 256c0 160 114 268 249 268c136 0 250 -108 250 -268
c0 -159 -114 -267 -250 -267c-135 0 -249 108 -249 267zM433 256c0 104 -58 179 -148 179s-147 -75 -147 -179c0 -103 57 -178 147 -178s148 75 148 178z" />
    <glyph glyph-name="omacron" unicode="&#x14d;" horiz-adv-x="571" 
d="M136 648v78h299v-78h-299zM36 256c0 160 114 268 249 268c136 0 250 -108 250 -268c0 -159 -114 -267 -250 -267c-135 0 -249 108 -249 267zM433 256c0 104 -58 179 -148 179s-147 -75 -147 -179c0 -103 57 -178 147 -178s148 75 148 178z" />
    <glyph glyph-name="obreve" unicode="&#x14f;" horiz-adv-x="571" 
d="M285 604c-92 0 -150 76 -150 187h68c3 -68 32 -111 82 -111c52 0 80 43 83 111h69c0 -111 -58 -187 -152 -187zM36 256c0 160 114 268 249 268c136 0 250 -108 250 -268c0 -159 -114 -267 -250 -267c-135 0 -249 108 -249 267zM433 256c0 104 -58 179 -148 179
s-147 -75 -147 -179c0 -103 57 -178 147 -178s148 75 148 178z" />
    <glyph glyph-name="ohungarumlaut" unicode="&#x151;" horiz-adv-x="571" 
d="M224 791h114l-118 -187h-63zM405 791h114l-118 -187h-63zM36 256c0 160 114 268 249 268c136 0 250 -108 250 -268c0 -159 -114 -267 -250 -267c-135 0 -249 108 -249 267zM433 256c0 104 -58 179 -148 179s-147 -75 -147 -179c0 -103 57 -178 147 -178s148 75 148 178z
" />
    <glyph glyph-name="p" unicode="p" horiz-adv-x="595" 
d="M79 -228v731l103 17v-56c31 28 89 60 155 60c133 0 223 -95 223 -252c0 -170 -118 -283 -265 -283c-40 0 -85 9 -113 25v-242h-103zM182 99c27 -20 70 -28 103 -28c104 0 169 80 169 197c0 104 -55 167 -141 167c-52 0 -102 -20 -131 -44v-292z" />
    <glyph glyph-name="q" unicode="q" horiz-adv-x="595" 
d="M516 -228h-103v280c-31 -29 -82 -63 -151 -63c-132 0 -225 96 -225 253c0 170 116 282 266 282c42 0 92 -11 122 -32l91 27v-747zM413 413c-26 21 -69 28 -102 28c-104 0 -169 -78 -169 -195c0 -105 58 -169 143 -169c56 0 100 25 128 49v287z" />
    <glyph glyph-name="r" unicode="r" horiz-adv-x="403" 
d="M79 0v503l103 17v-90c46 55 112 103 203 89v-104c-83 18 -154 -13 -203 -66v-349h-103z" />
    <glyph glyph-name="racute" unicode="&#x155;" horiz-adv-x="403" 
d="M205 604l68 187h128l-131 -187h-65zM79 0v503l103 17v-90c46 55 112 103 203 89v-104c-83 18 -154 -13 -203 -66v-349h-103z" />
    <glyph glyph-name="uni0157" unicode="&#x157;" horiz-adv-x="403" 
d="M79 0v503l103 17v-90c46 55 112 103 203 89v-104c-83 18 -154 -13 -203 -66v-349h-103zM182 -48c0 -78 -56 -157 -104 -186h-68c34 37 70 109 70 186h102z" />
    <glyph glyph-name="rcaron" unicode="&#x159;" horiz-adv-x="403" 
d="M196 604l-106 187h68l86 -113l87 113h69l-106 -187h-98zM79 0v503l103 17v-90c46 55 112 103 203 89v-104c-83 18 -154 -13 -203 -66v-349h-103z" />
    <glyph glyph-name="s" unicode="s" horiz-adv-x="460" 
d="M40 121c55 -37 115 -50 168 -50c58 0 100 26 100 68c0 97 -250 64 -250 233c0 87 77 152 185 152c53 0 95 -11 137 -30v-91c-44 26 -88 39 -130 39c-56 0 -91 -27 -91 -66c0 -96 251 -65 251 -230c0 -99 -92 -157 -201 -157c-68 0 -129 16 -169 39v93z" />
    <glyph glyph-name="sacute" unicode="&#x15b;" horiz-adv-x="460" 
d="M203 604l68 187h128l-131 -187h-65zM40 121c55 -37 115 -50 168 -50c58 0 100 26 100 68c0 97 -250 64 -250 233c0 87 77 152 185 152c53 0 95 -11 137 -30v-91c-44 26 -88 39 -130 39c-56 0 -91 -27 -91 -66c0 -96 251 -65 251 -230c0 -99 -92 -157 -201 -157
c-68 0 -129 16 -169 39v93z" />
    <glyph glyph-name="scircumflex" unicode="&#x15d;" horiz-adv-x="460" 
d="M292 791l106 -187h-69l-87 112l-86 -112h-68l106 187h98zM40 121c55 -37 115 -50 168 -50c58 0 100 26 100 68c0 97 -250 64 -250 233c0 87 77 152 185 152c53 0 95 -11 137 -30v-91c-44 26 -88 39 -130 39c-56 0 -91 -27 -91 -66c0 -96 251 -65 251 -230
c0 -99 -92 -157 -201 -157c-68 0 -129 16 -169 39v93z" />
    <glyph glyph-name="uni015F" unicode="&#x15f;" horiz-adv-x="460" 
d="M186 -239c-41 0 -78 9 -102 25v61c37 -22 72 -26 98 -26c37 0 65 14 65 40c0 32 -38 44 -95 44l30 85c-57 3 -107 18 -142 38v93c55 -37 115 -50 168 -50c58 0 100 26 100 68c0 97 -250 64 -250 233c0 87 77 152 185 152c53 0 95 -11 137 -30v-91c-44 26 -88 39 -130 39
c-56 0 -91 -27 -91 -66c0 -96 251 -65 251 -230c0 -93 -81 -149 -180 -156l-15 -42c58 -8 101 -36 101 -88c0 -62 -64 -99 -130 -99z" />
    <glyph glyph-name="scaron" unicode="&#x161;" horiz-adv-x="460" 
d="M194 604l-106 187h68l86 -113l87 113h69l-106 -187h-98zM40 121c55 -37 115 -50 168 -50c58 0 100 26 100 68c0 97 -250 64 -250 233c0 87 77 152 185 152c53 0 95 -11 137 -30v-91c-44 26 -88 39 -130 39c-56 0 -91 -27 -91 -66c0 -96 251 -65 251 -230
c0 -99 -92 -157 -201 -157c-68 0 -129 16 -169 39v93z" />
    <glyph glyph-name="uni0219" unicode="&#x219;" horiz-adv-x="460" 
d="M40 121c55 -37 115 -50 168 -50c58 0 100 26 100 68c0 97 -250 64 -250 233c0 87 77 152 185 152c53 0 95 -11 137 -30v-91c-44 26 -88 39 -130 39c-56 0 -91 -27 -91 -66c0 -96 251 -65 251 -230c0 -99 -92 -157 -201 -157c-68 0 -129 16 -169 39v93zM265 -48
c0 -78 -56 -157 -104 -186h-68c34 37 70 109 70 186h102z" />
    <glyph glyph-name="t" unicode="t" horiz-adv-x="425" 
d="M94 513v111l104 16v-127h178l-14 -80h-164v-274c0 -55 34 -80 81 -80c41 0 73 4 119 23v-85c-40 -19 -85 -27 -133 -27c-90 0 -171 44 -171 157v286h-75v80h75z" />
    <glyph glyph-name="uni0163" unicode="&#x163;" horiz-adv-x="425" 
d="M219 -239c-41 0 -78 9 -102 25v61c37 -22 72 -26 98 -26c37 0 65 14 65 40c0 32 -38 44 -95 44l32 90c-69 13 -123 60 -123 152v286h-75v80h75v111l104 16v-127h178l-14 -80h-164v-274c0 -55 34 -80 81 -80c41 0 73 4 119 23v-85c-40 -19 -85 -27 -133 -27h-2l-15 -42
c58 -8 101 -36 101 -88c0 -62 -64 -99 -130 -99z" />
    <glyph glyph-name="tcaron" unicode="&#x165;" horiz-adv-x="425" 
d="M278 819h112l-76 -248h-63zM94 513v111l104 16v-127h178l-14 -80h-164v-274c0 -55 34 -80 81 -80c41 0 73 4 119 23v-85c-40 -19 -85 -27 -133 -27c-90 0 -171 44 -171 157v286h-75v80h75z" />
    <glyph glyph-name="uni021B" unicode="&#x21b;" horiz-adv-x="425" 
d="M94 513v111l104 16v-127h178l-14 -80h-164v-274c0 -55 34 -80 81 -80c41 0 73 4 119 23v-85c-40 -19 -85 -27 -133 -27c-90 0 -171 44 -171 157v286h-75v80h75zM302 -48c0 -78 -56 -157 -104 -186h-68c34 37 70 109 70 186h102z" />
    <glyph glyph-name="u" unicode="u" horiz-adv-x="593" 
d="M513 10l-104 -16v56c-32 -27 -94 -61 -167 -61c-110 0 -169 70 -169 174v350h103v-324c0 -68 24 -111 100 -111c54 0 94 19 133 43v392h104v-503z" />
    <glyph glyph-name="ugrave" unicode="&#xf9;" horiz-adv-x="593" 
d="M266 604l-129 187h128l67 -187h-66zM513 10l-104 -16v56c-32 -27 -94 -61 -167 -61c-110 0 -169 70 -169 174v350h103v-324c0 -68 24 -111 100 -111c54 0 94 19 133 43v392h104v-503z" />
    <glyph glyph-name="uacute" unicode="&#xfa;" horiz-adv-x="593" 
d="M253 604l68 187h128l-131 -187h-65zM513 10l-104 -16v56c-32 -27 -94 -61 -167 -61c-110 0 -169 70 -169 174v350h103v-324c0 -68 24 -111 100 -111c54 0 94 19 133 43v392h104v-503z" />
    <glyph glyph-name="ucircumflex" unicode="&#xfb;" horiz-adv-x="593" 
d="M342 791l106 -187h-69l-87 112l-86 -112h-68l106 187h98zM513 10l-104 -16v56c-32 -27 -94 -61 -167 -61c-110 0 -169 70 -169 174v350h103v-324c0 -68 24 -111 100 -111c54 0 94 19 133 43v392h104v-503z" />
    <glyph glyph-name="udieresis" unicode="&#xfc;" horiz-adv-x="593" 
d="M135 704c0 33 26 60 63 60c35 0 61 -27 61 -60c0 -34 -26 -61 -61 -61c-37 0 -63 27 -63 61zM326 704c0 33 26 60 62 60c35 0 62 -27 62 -60c0 -34 -27 -61 -62 -61c-36 0 -62 27 -62 61zM513 10l-104 -16v56c-32 -27 -94 -61 -167 -61c-110 0 -169 70 -169 174v350h103
v-324c0 -68 24 -111 100 -111c54 0 94 19 133 43v392h104v-503z" />
    <glyph glyph-name="utilde" unicode="&#x169;" horiz-adv-x="593" 
d="M362 617c-57 0 -94 91 -137 91c-32 0 -40 -39 -46 -88h-63c2 93 43 172 114 172c56 0 93 -90 136 -90c32 0 40 38 46 88h63c-2 -94 -42 -173 -113 -173zM513 10l-104 -16v56c-32 -27 -94 -61 -167 -61c-110 0 -169 70 -169 174v350h103v-324c0 -68 24 -111 100 -111
c54 0 94 19 133 43v392h104v-503z" />
    <glyph glyph-name="umacron" unicode="&#x16b;" horiz-adv-x="593" 
d="M143 648v78h299v-78h-299zM513 10l-104 -16v56c-32 -27 -94 -61 -167 -61c-110 0 -169 70 -169 174v350h103v-324c0 -68 24 -111 100 -111c54 0 94 19 133 43v392h104v-503z" />
    <glyph glyph-name="ubreve" unicode="&#x16d;" horiz-adv-x="593" 
d="M292 604c-92 0 -150 76 -150 187h68c3 -68 32 -111 82 -111c52 0 80 43 83 111h69c0 -111 -58 -187 -152 -187zM513 10l-104 -16v56c-32 -27 -94 -61 -167 -61c-110 0 -169 70 -169 174v350h103v-324c0 -68 24 -111 100 -111c54 0 94 19 133 43v392h104v-503z" />
    <glyph glyph-name="uring" unicode="&#x16f;" horiz-adv-x="593" 
d="M404 700c0 -61 -51 -111 -112 -111c-58 0 -110 50 -110 111s52 110 110 110c61 0 112 -49 112 -110zM235 700c0 -31 26 -59 57 -59c33 0 59 27 59 59s-26 59 -59 59c-30 0 -57 -27 -57 -59zM513 10l-104 -16v56c-32 -27 -94 -61 -167 -61c-110 0 -169 70 -169 174v350
h103v-324c0 -68 24 -111 100 -111c54 0 94 19 133 43v392h104v-503z" />
    <glyph glyph-name="uhungarumlaut" unicode="&#x171;" horiz-adv-x="593" 
d="M231 791h114l-118 -187h-63zM412 791h114l-118 -187h-63zM513 10l-104 -16v56c-32 -27 -94 -61 -167 -61c-110 0 -169 70 -169 174v350h103v-324c0 -68 24 -111 100 -111c54 0 94 19 133 43v392h104v-503z" />
    <glyph glyph-name="uogonek" unicode="&#x173;" horiz-adv-x="593" 
d="M439 -239c-49 0 -101 28 -101 94c0 53 26 97 71 140v55c-32 -27 -94 -61 -167 -61c-110 0 -169 70 -169 174v350h103v-324c0 -68 24 -111 100 -111c54 0 94 19 133 43v392h104v-503c-80 -34 -102 -102 -102 -134c0 -31 21 -47 44 -47c12 0 19 1 30 6v-66
c-14 -5 -27 -8 -46 -8z" />
    <glyph glyph-name="v" unicode="v" horiz-adv-x="534" 
d="M224 -3l-216 516h111l154 -388l151 388h102l-216 -516h-86z" />
    <glyph glyph-name="w" unicode="w" horiz-adv-x="757" 
d="M418 513l119 -381l116 381h96l-175 -516h-79l-117 373l-116 -373h-79l-175 516h105l118 -380l116 380h71z" />
    <glyph glyph-name="wcircumflex" unicode="&#x175;" horiz-adv-x="757" 
d="M428 791l106 -187h-69l-87 112l-86 -112h-68l106 187h98zM418 513l119 -381l116 381h96l-175 -516h-79l-117 373l-116 -373h-79l-175 516h105l118 -380l116 380h71z" />
    <glyph glyph-name="wgrave" unicode="&#x1e81;" horiz-adv-x="757" 
d="M352 604l-129 187h128l67 -187h-66zM418 513l119 -381l116 381h96l-175 -516h-79l-117 373l-116 -373h-79l-175 516h105l118 -380l116 380h71z" />
    <glyph glyph-name="wacute" unicode="&#x1e83;" horiz-adv-x="757" 
d="M338 604l68 187h128l-131 -187h-65zM418 513l119 -381l116 381h96l-175 -516h-79l-117 373l-116 -373h-79l-175 516h105l118 -380l116 380h71z" />
    <glyph glyph-name="wdieresis" unicode="&#x1e85;" horiz-adv-x="757" 
d="M221 704c0 33 26 60 63 60c35 0 61 -27 61 -60c0 -34 -26 -61 -61 -61c-37 0 -63 27 -63 61zM412 704c0 33 26 60 62 60c35 0 62 -27 62 -60c0 -34 -27 -61 -62 -61c-36 0 -62 27 -62 61zM418 513l119 -381l116 381h96l-175 -516h-79l-117 373l-116 -373h-79l-175 516
h105l118 -380l116 380h71z" />
    <glyph glyph-name="x" unicode="x" horiz-adv-x="535" 
d="M264 194l-140 -194h-110l197 264l-183 249h118l124 -175l127 175h109l-183 -245l198 -268h-118z" />
    <glyph glyph-name="y" unicode="y" horiz-adv-x="534" 
d="M8 513h111l154 -368l152 368h101l-224 -508c-79 -178 -142 -244 -263 -244c-17 0 -38 3 -51 9v83c15 -5 33 -7 46 -7c80 0 121 40 185 192z" />
    <glyph glyph-name="yacute" unicode="&#xfd;" horiz-adv-x="534" 
d="M225 604l68 187h128l-131 -187h-65zM8 513h111l154 -368l152 368h101l-224 -508c-79 -178 -142 -244 -263 -244c-17 0 -38 3 -51 9v83c15 -5 33 -7 46 -7c80 0 121 40 185 192z" />
    <glyph glyph-name="ydieresis" unicode="&#xff;" horiz-adv-x="534" 
d="M108 704c0 33 26 60 63 60c35 0 61 -27 61 -60c0 -34 -26 -61 -61 -61c-37 0 -63 27 -63 61zM299 704c0 33 26 60 62 60c35 0 62 -27 62 -60c0 -34 -27 -61 -62 -61c-36 0 -62 27 -62 61zM8 513h111l154 -368l152 368h101l-224 -508c-79 -178 -142 -244 -263 -244
c-17 0 -38 3 -51 9v83c15 -5 33 -7 46 -7c80 0 121 40 185 192z" />
    <glyph glyph-name="ycircumflex" unicode="&#x177;" horiz-adv-x="534" 
d="M315 791l106 -187h-69l-87 112l-86 -112h-68l106 187h98zM8 513h111l154 -368l152 368h101l-224 -508c-79 -178 -142 -244 -263 -244c-17 0 -38 3 -51 9v83c15 -5 33 -7 46 -7c80 0 121 40 185 192z" />
    <glyph glyph-name="ygrave" unicode="&#x1ef3;" horiz-adv-x="534" 
d="M239 604l-129 187h128l67 -187h-66zM8 513h111l154 -368l152 368h101l-224 -508c-79 -178 -142 -244 -263 -244c-17 0 -38 3 -51 9v83c15 -5 33 -7 46 -7c80 0 121 40 185 192z" />
    <glyph glyph-name="z" unicode="z" horiz-adv-x="501" 
d="M463 0h-425v60l282 373h-273v80h410v-59l-285 -374h307z" />
    <glyph glyph-name="zacute" unicode="&#x17a;" horiz-adv-x="501" 
d="M218 604l68 187h128l-131 -187h-65zM463 0h-425v60l282 373h-273v80h410v-59l-285 -374h307z" />
    <glyph glyph-name="zdotaccent" unicode="&#x17c;" horiz-adv-x="501" 
d="M193 703c0 36 27 65 65 65c39 0 66 -29 66 -65s-27 -65 -66 -65c-38 0 -65 29 -65 65zM463 0h-425v60l282 373h-273v80h410v-59l-285 -374h307z" />
    <glyph glyph-name="zcaron" unicode="&#x17e;" horiz-adv-x="501" 
d="M210 604l-106 187h68l86 -113l87 113h69l-106 -187h-98zM463 0h-425v60l282 373h-273v80h410v-59l-285 -374h307z" />
    <glyph glyph-name="ordfeminine" unicode="&#xaa;" horiz-adv-x="375" 
d="M247 368l-6 35c-25 -24 -57 -43 -100 -43c-57 0 -100 36 -100 92c0 69 59 113 200 116v14c0 39 -15 62 -64 62c-42 0 -79 -12 -117 -33v66c32 20 80 35 125 35c94 0 134 -52 134 -122v-155c0 -32 3 -46 7 -67h-79zM167 418c31 0 49 9 74 28v72c-85 -4 -124 -18 -124 -60
c0 -24 19 -40 50 -40zM58 309h260v-60h-260v60z" />
    <glyph glyph-name="ordmasculine" unicode="&#xba;" horiz-adv-x="401" 
d="M201 712c89 0 165 -70 165 -175s-76 -175 -165 -175c-90 0 -165 70 -165 175s75 175 165 175zM114 537c0 -59 33 -105 87 -105c53 0 87 46 87 105c0 60 -34 105 -87 105c-54 0 -87 -45 -87 -105zM331 249h-260v60h260v-60z" />
    <glyph glyph-name="germandbls" unicode="&#xdf;" horiz-adv-x="653" 
d="M564 607c-111 -75 -160 -120 -160 -172c0 -94 213 -123 213 -282c0 -101 -96 -164 -201 -164c-57 0 -109 14 -147 33v92c49 -31 99 -43 146 -43c62 0 106 29 106 73c0 104 -212 135 -212 279c0 79 65 135 143 200c-2 51 -45 96 -116 96c-84 0 -148 -58 -148 -174v-545
h-103v546c0 168 112 257 253 257c152 0 222 -96 226 -196z" />
    <glyph glyph-name="ae" unicode="&#xe6;" horiz-adv-x="838" 
d="M620 -11c-98 0 -177 42 -224 109c-41 -58 -110 -109 -205 -109c-85 0 -150 54 -150 140c0 105 105 175 306 182v26c0 61 -34 98 -108 98c-57 0 -114 -18 -169 -50v88c47 31 120 51 179 51c90 0 142 -33 167 -85c41 51 100 85 171 85c162 0 225 -133 213 -281h-357
c9 -105 87 -167 188 -167c49 0 91 4 149 34v-87c-49 -23 -101 -34 -160 -34zM584 442c-70 0 -124 -47 -138 -131h253c1 71 -33 131 -115 131zM216 68c60 0 108 28 149 88c-10 27 -16 56 -18 87h-3c-131 -5 -204 -39 -204 -106c0 -41 29 -69 76 -69z" />
    <glyph glyph-name="aeacute" unicode="&#x1fd;" horiz-adv-x="838" 
d="M382 604l68 187h128l-131 -187h-65zM620 -11c-98 0 -177 42 -224 109c-41 -58 -110 -109 -205 -109c-85 0 -150 54 -150 140c0 105 105 175 306 182v26c0 61 -34 98 -108 98c-57 0 -114 -18 -169 -50v88c47 31 120 51 179 51c90 0 142 -33 167 -85c41 51 100 85 171 85
c162 0 225 -133 213 -281h-357c9 -105 87 -167 188 -167c49 0 91 4 149 34v-87c-49 -23 -101 -34 -160 -34zM584 442c-70 0 -124 -47 -138 -131h253c1 71 -33 131 -115 131zM216 68c60 0 108 28 149 88c-10 27 -16 56 -18 87h-3c-131 -5 -204 -39 -204 -106
c0 -41 29 -69 76 -69z" />
    <glyph glyph-name="eth" unicode="&#xf0;" horiz-adv-x="571" 
d="M284 -11c-137 0 -248 106 -248 266c0 163 117 261 253 261c42 0 77 -10 109 -28c-21 51 -52 94 -91 130l-171 -62v73l108 39c-50 32 -107 59 -172 81l88 52c67 -25 128 -57 181 -98l121 44v-72l-63 -23c84 -87 136 -204 136 -356c0 -185 -116 -307 -251 -307zM285 78
c88 0 148 84 148 219c0 38 -3 72 -9 105c-31 23 -72 34 -118 34c-92 0 -168 -65 -168 -182c0 -107 59 -176 147 -176z" />
    <glyph glyph-name="oslash" unicode="&#xf8;" horiz-adv-x="571" 
d="M285 -11c-44 0 -86 11 -122 32l-39 -57h-77l65 96c-46 47 -76 115 -76 196c0 160 114 268 249 268c44 0 85 -11 121 -31l39 57h78l-66 -96c48 -47 78 -116 78 -198c0 -159 -114 -267 -250 -267zM133 256c0 -46 11 -87 32 -118l193 283c-21 12 -46 19 -73 19
c-92 0 -152 -78 -152 -184zM285 73c93 0 153 78 153 183c0 47 -12 89 -33 120l-193 -283c21 -13 45 -20 73 -20z" />
    <glyph glyph-name="oslashacute" unicode="&#x1ff;" horiz-adv-x="571" 
d="M245 604l68 187h128l-131 -187h-65zM285 -11c-44 0 -86 11 -122 32l-39 -57h-77l65 96c-46 47 -76 115 -76 196c0 160 114 268 249 268c44 0 85 -11 121 -31l39 57h78l-66 -96c48 -47 78 -116 78 -198c0 -159 -114 -267 -250 -267zM133 256c0 -46 11 -87 32 -118l193 283
c-21 12 -46 19 -73 19c-92 0 -152 -78 -152 -184zM285 73c93 0 153 78 153 183c0 47 -12 89 -33 120l-193 -283c21 -13 45 -20 73 -20z" />
    <glyph glyph-name="thorn" unicode="&#xfe;" horiz-adv-x="595" 
d="M182 -228h-103v1015l103 15v-338c31 28 89 61 155 61c133 0 223 -96 223 -253c0 -170 -118 -283 -265 -283c-40 0 -85 9 -113 25v-242zM182 99c27 -20 70 -28 103 -28c104 0 169 80 169 197c0 104 -55 168 -141 168c-52 0 -102 -21 -131 -45v-292z" />
    <glyph glyph-name="dcroat" unicode="&#x111;" horiz-adv-x="599" 
d="M413 52c-31 -29 -82 -63 -151 -63c-132 0 -225 96 -225 254c0 170 116 281 266 281c39 0 82 -10 110 -27v117h-156v70h156v103l103 16v-119h79v-70h-79v-604l-103 -16v58zM413 412c-26 21 -69 29 -102 29c-104 0 -169 -78 -169 -194c0 -106 58 -169 143 -169
c56 0 100 24 128 49v285z" />
    <glyph glyph-name="hbar" unicode="&#x127;" horiz-adv-x="605" 
d="M185 0h-103v614h-78v70h78v103l103 15v-118h157v-70h-157v-151c35 27 99 61 174 61c114 0 173 -69 173 -174v-350h-104v324c0 69 -27 110 -104 110c-56 0 -98 -17 -139 -43v-391z" />
    <glyph glyph-name="dotlessi" unicode="&#x131;" 
d="M79 503l103 17v-520h-103v503z" />
    <glyph glyph-name="kgreenlandic" unicode="&#x138;" horiz-adv-x="570" 
d="M182 259v-259h-103v507l103 15v-239l232 230h122l-242 -236l273 -277h-129z" />
    <glyph glyph-name="ldot" unicode="&#x140;" horiz-adv-x="399" 
d="M79 787l103 15v-802h-103v787zM271 387c0 36 27 65 65 65c39 0 66 -29 66 -65s-27 -65 -66 -65c-38 0 -65 29 -65 65z" />
    <glyph glyph-name="lslash" unicode="&#x142;" horiz-adv-x="302" 
d="M97 0v320l-91 -57v89l91 57v378l103 15v-337l96 59v-88l-96 -60v-376h-103z" />
    <glyph glyph-name="eng" unicode="&#x14b;" horiz-adv-x="602" 
d="M342 -228c50 65 81 135 83 253v299c0 69 -27 110 -104 110c-56 0 -98 -17 -139 -43v-391h-103v503l103 17v-57c35 27 99 61 174 61c114 0 173 -69 173 -174v-334c-3 -123 -34 -186 -78 -244h-109z" />
    <glyph glyph-name="oe" unicode="&#x153;" horiz-adv-x="924" 
d="M867 23c-49 -23 -101 -34 -159 -34c-98 0 -176 46 -224 114c-44 -70 -118 -114 -199 -114c-135 0 -249 108 -249 268s114 267 249 267c80 0 152 -42 196 -109c42 65 109 109 191 109c165 0 226 -133 215 -281h-357c9 -105 87 -167 189 -167c48 0 90 4 148 34v-87z
M671 442c-70 0 -124 -47 -138 -131h254c0 71 -34 131 -116 131zM434 257c0 104 -58 178 -149 178c-90 0 -147 -74 -147 -178s57 -179 147 -179c91 0 149 75 149 179z" />
    <glyph glyph-name="tbar" unicode="&#x167;" horiz-adv-x="431" 
d="M401 17c-39 -19 -85 -27 -133 -27c-89 0 -171 44 -171 157v107h-73v74h73v109h-74v76h74v111l104 16v-127h178l-14 -76h-164v-109h173l-13 -74h-160v-95c0 -55 35 -80 82 -80c41 0 73 4 118 23v-85z" />
    <glyph glyph-name="zero" unicode="0" horiz-adv-x="639" 
d="M320 711c165 0 280 -148 280 -361s-115 -361 -280 -361c-166 0 -281 148 -281 361s115 361 281 361zM320 83c112 0 174 117 174 267s-62 267 -174 267s-175 -117 -175 -267s63 -267 175 -267z" />
    <glyph glyph-name="one" unicode="1" horiz-adv-x="413" 
d="M205 0v586l-178 -63v89l235 99h50v-711h-107z" />
    <glyph glyph-name="two" unicode="2" horiz-adv-x="546" 
d="M374 495c0 74 -46 119 -127 119c-74 0 -150 -38 -203 -84v103c52 42 132 78 220 78c142 0 223 -86 223 -200c0 -139 -152 -297 -314 -419h341v-92h-485v75c181 150 345 301 345 420z" />
    <glyph glyph-name="three" unicode="3" horiz-adv-x="548" 
d="M30 135c52 -36 115 -54 182 -54c108 0 186 56 186 143c0 86 -68 131 -227 132v34l181 216h-295v94h415v-84l-174 -200c107 -13 209 -74 209 -190c0 -144 -136 -237 -288 -237c-77 0 -140 19 -189 49v97z" />
    <glyph glyph-name="four" unicode="4" horiz-adv-x="619" 
d="M346 0v183h-319v70c43 130 155 335 258 447h123c-116 -122 -214 -298 -269 -434h207v174h96v-174h156v-83h-156v-183h-96z" />
    <glyph glyph-name="five" unicode="5" horiz-adv-x="534" 
d="M386 225c0 110 -106 152 -290 170l26 305h347v-94h-269l-9 -136c145 -17 302 -80 302 -238c0 -151 -135 -243 -286 -243c-78 0 -140 19 -190 50v97c52 -37 115 -54 182 -54c109 0 187 53 187 143z" />
    <glyph glyph-name="six" unicode="6" horiz-adv-x="587" 
d="M548 220c0 -141 -109 -231 -240 -231c-153 0 -269 133 -269 324c0 237 155 398 372 398c44 0 87 -7 117 -20v-87c-31 10 -69 17 -117 17c-149 0 -261 -103 -268 -291c42 61 117 98 185 98c117 0 220 -77 220 -208zM308 75c79 0 138 48 138 137c0 81 -57 134 -141 134
c-62 0 -121 -37 -159 -87c16 -122 84 -184 162 -184z" />
    <glyph glyph-name="seven" unicode="7" horiz-adv-x="537" 
d="M106 0c153 200 248 409 306 606h-383v94h494v-73c-33 -151 -170 -475 -298 -627h-119z" />
    <glyph glyph-name="eight" unicode="8" horiz-adv-x="587" 
d="M292 -11c-144 0 -257 84 -257 195c0 88 73 147 153 179c-66 36 -114 88 -114 158c0 112 98 190 222 190c127 0 224 -71 224 -175c0 -73 -52 -130 -129 -165c79 -39 161 -77 161 -184c0 -112 -111 -198 -260 -198zM332 398c53 31 93 76 93 128c0 63 -49 108 -128 108
c-71 0 -120 -45 -120 -100c0 -54 37 -80 94 -107zM292 72c87 0 151 45 151 114c0 48 -45 77 -117 111l-79 37c-65 -30 -109 -76 -109 -139c0 -69 65 -123 154 -123z" />
    <glyph glyph-name="nine" unicode="9" horiz-adv-x="587" 
d="M39 480c0 141 109 231 240 231c153 0 269 -133 269 -324c0 -237 -155 -398 -372 -398c-44 0 -87 7 -117 20v87c31 -10 69 -17 117 -17c149 0 261 103 268 291c-42 -61 -117 -98 -185 -98c-117 0 -220 77 -220 208zM279 625c-79 0 -138 -48 -138 -137
c0 -81 57 -134 141 -134c62 0 121 37 159 87c-16 122 -84 184 -162 184z" />
    <glyph glyph-name="underscore" unicode="_" horiz-adv-x="407" 
d="M70 -45h267v-88h-267v88z" />
    <glyph glyph-name="hyphen" unicode="-" horiz-adv-x="407" 
d="M70 324h267v-88h-267v88z" />
    <glyph glyph-name="endash" unicode="&#x2013;" horiz-adv-x="643" 
d="M70 324h503v-84h-503v84z" />
    <glyph glyph-name="emdash" unicode="&#x2014;" horiz-adv-x="1099" 
d="M70 324h959v-84h-959v84z" />
    <glyph glyph-name="parenleft" unicode="(" horiz-adv-x="417" 
d="M196 334c0 -187 106 -360 211 -456h-114c-82 78 -211 240 -211 456s129 379 211 457h114c-105 -96 -211 -269 -211 -457z" />
    <glyph glyph-name="parenright" unicode=")" horiz-adv-x="417" 
d="M10 -122c105 96 211 269 211 456c0 188 -106 361 -211 457h114c82 -78 211 -241 211 -457s-129 -378 -211 -456h-114z" />
    <glyph glyph-name="bracketleft" unicode="[" horiz-adv-x="361" 
d="M172 -42h161v-80h-260v913h260v-80h-161v-753z" />
    <glyph glyph-name="bracketright" unicode="]" horiz-adv-x="361" 
d="M189 711h-161v80h260v-913h-260v80h161v753z" />
    <glyph glyph-name="braceleft" unicode="{" horiz-adv-x="391" 
d="M18 377h55c41 0 67 16 67 74l-26 194c0 93 77 146 159 146c32 0 66 -7 90 -19v-73c-15 8 -39 12 -59 12c-47 0 -93 -27 -93 -81l24 -192c0 -66 -56 -96 -99 -104c43 -7 99 -37 99 -103l-24 -193c0 -54 46 -81 93 -81c20 0 44 5 59 13v-73c-24 -12 -58 -19 -90 -19
c-82 0 -159 53 -159 145l26 194c0 59 -26 75 -67 75h-55v85z" />
    <glyph glyph-name="braceright" unicode="}" horiz-adv-x="391" 
d="M373 292h-55c-41 0 -67 -16 -67 -75l26 -194c0 -92 -77 -145 -159 -145c-32 0 -66 7 -90 19v73c15 -8 39 -13 59 -13c47 0 93 27 93 81l-24 193c0 66 56 96 99 103c-43 8 -99 38 -99 104l24 192c0 54 -46 81 -93 81c-20 0 -44 -4 -59 -12v73c24 12 58 19 90 19
c82 0 159 -53 159 -146l-26 -194c0 -58 26 -74 67 -74h55v-85z" />
    <glyph glyph-name="numbersign" unicode="#" horiz-adv-x="738" 
d="M412 211h-135l-28 -156h-82l28 156h-143l12 75h144l25 138h-153l11 75h155l27 151h82l-27 -151h135l27 151h82l-27 -151h141l-11 -75h-144l-24 -138h153l-12 -75h-155l-28 -156h-81zM450 424h-135l-25 -138h135z" />
    <glyph glyph-name="percent" unicode="%" horiz-adv-x="791" 
d="M197 712c92 0 153 -72 153 -173s-61 -173 -153 -173s-153 72 -153 173s61 173 153 173zM214 -11h-83l447 723h84zM117 539c0 -58 28 -106 80 -106s81 48 81 106s-29 106 -81 106s-80 -48 -80 -106zM595 -11c-93 0 -153 72 -153 173s60 173 153 173c92 0 153 -72 153 -173
s-61 -173 -153 -173zM595 268c-53 0 -80 -48 -80 -106s27 -105 80 -105c52 0 79 47 79 105s-27 106 -79 106z" />
    <glyph glyph-name="quotesingle" unicode="'" horiz-adv-x="234" 
d="M64 701h117l-52 -283h-65v283z" />
    <glyph glyph-name="quotedbl" unicode="&#x22;" horiz-adv-x="419" 
d="M64 701h117l-52 -283h-65v283zM249 701h117l-52 -283h-65v283z" />
    <glyph glyph-name="quoteleft" unicode="&#x2018;" horiz-adv-x="255" 
d="M62 458c0 101 55 209 89 250h71c-29 -58 -53 -159 -53 -250h-107z" />
    <glyph glyph-name="quoteright" unicode="&#x2019;" horiz-adv-x="255" 
d="M192 708c0 -102 -54 -210 -89 -250h-70c28 57 53 159 53 250h106z" />
    <glyph glyph-name="quotedblleft" unicode="&#x201c;" horiz-adv-x="442" 
d="M62 458c0 101 55 209 89 250h71c-29 -58 -53 -159 -53 -250h-107zM249 458c0 101 55 209 89 250h71c-29 -58 -53 -159 -53 -250h-107z" />
    <glyph glyph-name="quotedblright" unicode="&#x201d;" horiz-adv-x="442" 
d="M192 708c0 -102 -54 -210 -89 -250h-70c28 57 53 159 53 250h106zM379 708c0 -102 -54 -210 -89 -250h-70c28 57 53 159 53 250h106z" />
    <glyph glyph-name="quotesinglbase" unicode="&#x201a;" horiz-adv-x="255" 
d="M192 112c0 -102 -54 -210 -89 -251h-70c28 58 53 160 53 251h106z" />
    <glyph glyph-name="quotedblbase" unicode="&#x201e;" horiz-adv-x="441" 
d="M192 112c0 -102 -54 -210 -89 -251h-70c28 58 53 160 53 251h106zM379 112c0 -102 -54 -210 -89 -251h-70c28 58 53 160 53 251h106z" />
    <glyph glyph-name="guilsinglleft" unicode="&#x2039;" horiz-adv-x="330" 
d="M287 45h-77l-167 208l167 210h77l-120 -210z" />
    <glyph glyph-name="guilsinglright" unicode="&#x203a;" horiz-adv-x="330" 
d="M163 253l-120 210h77l167 -210l-167 -208h-77z" />
    <glyph glyph-name="guillemotleft" unicode="&#xab;" horiz-adv-x="551" 
d="M287 45h-77l-167 208l167 210h77l-120 -210zM508 45h-77l-167 208l167 210h77l-120 -210z" />
    <glyph glyph-name="guillemotright" unicode="&#xbb;" horiz-adv-x="551" 
d="M163 253l-120 210h77l167 -210l-167 -208h-77zM384 253l-120 210h77l167 -210l-167 -208h-77z" />
    <glyph glyph-name="asterisk" unicode="*" horiz-adv-x="421" 
d="M260 476l-49 97l-50 -97l-20 -29l-70 50l22 29l75 74l-106 16l-35 11l27 82l35 -11l97 -52l-18 109v36h86v-36l-19 -109l96 52l36 11l26 -82l-34 -11l-108 -16l77 -74l22 -29l-70 -50z" />
    <glyph glyph-name="dagger" unicode="&#x2020;" horiz-adv-x="348" 
d="M214 423h-82v131l18 75l-80 -18h-39v81h38l82 -18l-19 75v42h82v-43l-19 -74l84 18h37v-81h-38l-82 18l18 -74v-132z" />
    <glyph glyph-name="daggerdbl" unicode="&#x2021;" horiz-adv-x="348" 
d="M214 423h-82v35l17 61l-80 -18h-38v75h39l74 -16v94l-74 -16h-39v74h38l80 -17l-17 61v35h82v-36l-17 -60l82 17h37v-74h-38l-76 16v-94l76 16h38v-75h-37l-82 18l17 -61v-35z" />
    <glyph glyph-name="period" unicode="." horiz-adv-x="250" 
d="M53 67c0 39 32 72 72 72s72 -33 72 -72c0 -41 -32 -74 -72 -74s-72 33 -72 74z" />
    <glyph glyph-name="comma" unicode="," horiz-adv-x="250" 
d="M184 124c0 -103 -56 -216 -90 -257h-71c28 57 53 166 53 257h108z" />
    <glyph glyph-name="colon" unicode=":" horiz-adv-x="250" 
d="M53 417c0 39 32 72 72 72s72 -33 72 -72c0 -41 -32 -74 -72 -74s-72 33 -72 74zM53 68c0 39 32 72 72 72s72 -33 72 -72c0 -41 -32 -74 -72 -74s-72 33 -72 74z" />
    <glyph glyph-name="semicolon" unicode=";" horiz-adv-x="250" 
d="M53 417c0 39 32 72 72 72s72 -33 72 -72c0 -41 -32 -74 -72 -74s-72 33 -72 74zM179 142c0 -103 -56 -216 -90 -257h-71c28 57 53 166 53 257h108z" />
    <glyph glyph-name="ellipsis" unicode="&#x2026;" horiz-adv-x="776" 
d="M53 67c0 39 32 72 72 72s72 -33 72 -72c0 -41 -32 -74 -72 -74s-72 33 -72 74zM316 67c0 39 32 72 72 72s72 -33 72 -72c0 -41 -32 -74 -72 -74s-72 33 -72 74zM580 67c0 39 32 72 72 72s72 -33 72 -72c0 -41 -32 -74 -72 -74s-72 33 -72 74z" />
    <glyph glyph-name="exclam" unicode="!" horiz-adv-x="258" 
d="M97 239l-34 461h131l-34 -461h-63zM56 67c0 39 32 72 72 72c41 0 73 -33 73 -72c0 -41 -32 -74 -73 -74c-40 0 -72 33 -72 74z" />
    <glyph glyph-name="exclamdown" unicode="&#xa1;" horiz-adv-x="258" 
d="M202 633c0 -39 -32 -72 -72 -72c-41 0 -73 33 -73 72c0 41 32 74 73 74c40 0 72 -33 72 -74zM161 461l34 -461h-131l34 461h63z" />
    <glyph glyph-name="question" unicode="?" horiz-adv-x="486" 
d="M345 505c0 65 -39 108 -121 108c-74 0 -144 -39 -197 -84v104c52 42 130 78 215 78c142 0 216 -87 216 -195c0 -131 -149 -175 -164 -279h-107c14 117 158 173 158 268zM167 67c0 39 32 72 72 72c41 0 72 -33 72 -72c0 -41 -31 -74 -72 -74c-40 0 -72 33 -72 74z" />
    <glyph glyph-name="questiondown" unicode="&#xbf;" horiz-adv-x="486" 
d="M319 634c0 -39 -32 -72 -72 -72c-41 0 -72 33 -72 72c0 41 31 74 72 74c40 0 72 -33 72 -74zM141 196c0 -65 39 -108 121 -108c74 0 144 39 197 84v-104c-52 -42 -130 -78 -215 -78c-142 0 -216 87 -216 195c0 131 149 175 164 279h107c-14 -117 -158 -173 -158 -268z
" />
    <glyph glyph-name="slash" unicode="/" horiz-adv-x="427" 
d="M313 791h104l-305 -913h-103z" />
    <glyph glyph-name="backslash" unicode="\" horiz-adv-x="427" 
d="M433 -122h-103l-305 913h104z" />
    <glyph glyph-name="bar" unicode="|" horiz-adv-x="321" 
d="M112 -122v913h98v-913h-98z" />
    <glyph glyph-name="at" unicode="@" horiz-adv-x="1007" 
d="M724 23c-59 0 -98 24 -126 58c-33 -31 -83 -57 -135 -57c-71 0 -132 45 -132 119c0 92 85 151 261 156v24c0 54 -29 87 -90 87c-48 0 -97 -16 -143 -44v79c39 27 102 44 152 44c117 0 172 -68 172 -159v-217c9 -11 30 -20 50 -20c71 0 133 80 133 215
c0 197 -152 329 -335 329c-219 0 -389 -168 -389 -406c0 -232 182 -382 394 -382c119 0 230 34 313 101v-84c-84 -61 -192 -92 -314 -92c-254 0 -477 177 -477 457c0 273 206 481 472 481c227 0 420 -163 420 -400c0 -184 -115 -289 -226 -289zM494 94c35 0 65 13 98 35v111
c-109 -4 -166 -34 -166 -90c0 -35 30 -56 68 -56z" />
    <glyph glyph-name="ampersand" unicode="&#x26;" horiz-adv-x="690" 
d="M487 71c-58 -50 -131 -82 -212 -82c-142 0 -246 88 -246 218c0 90 58 162 137 195c-32 39 -50 76 -50 126c0 109 87 183 207 183c59 0 116 -17 156 -47v-98c-42 33 -88 59 -151 59c-65 0 -109 -38 -109 -100c0 -46 33 -80 72 -121l196 -201c32 54 50 119 52 187h96
c-1 -88 -32 -178 -85 -251l136 -139h-130zM276 74c60 0 111 21 152 57l-207 212c-53 -20 -93 -73 -93 -135c0 -76 61 -134 148 -134z" />
    <glyph glyph-name="section" unicode="&#xa7;" horiz-adv-x="541" 
d="M200 548c0 -38 29 -64 69 -93l154 -112c44 -33 84 -70 84 -130c0 -44 -25 -79 -57 -98l-31 32c8 12 12 23 12 36c0 29 -22 56 -68 91l-184 140c-52 40 -73 78 -73 134c0 90 78 164 186 164c50 0 92 -12 133 -34v-91c-42 30 -88 43 -129 43c-55 0 -96 -34 -96 -82zM341 -9
c0 39 -29 63 -69 93l-153 113c-45 32 -85 70 -85 130c0 45 25 79 57 98l32 -33c-8 -11 -13 -23 -13 -35c0 -30 23 -57 68 -91l184 -141c52 -39 73 -77 73 -133c0 -88 -80 -166 -189 -166c-52 0 -96 14 -136 36v90c42 -29 90 -44 132 -44c57 0 99 35 99 83z" />
    <glyph glyph-name="paragraph" unicode="&#xb6;" horiz-adv-x="567" 
d="M274 701v-412h-31c-116 0 -216 79 -216 203c0 123 100 209 216 209h31zM445 86c0 -144 -34 -216 -90 -281h-111c68 73 104 148 104 282v614h196v-80h-99v-535z" />
    <glyph glyph-name="periodcentered" unicode="&#xb7;" horiz-adv-x="284" 
d="M70 279c0 39 32 72 72 72s72 -33 72 -72c0 -41 -32 -74 -72 -74s-72 33 -72 74z" />
    <glyph glyph-name="bullet" unicode="&#x2022;" horiz-adv-x="476" 
d="M238 107c-93 0 -168 77 -168 168c0 94 75 169 168 169c92 0 168 -75 168 -169c0 -91 -76 -168 -168 -168z" />
    <glyph glyph-name="plus" unicode="+" horiz-adv-x="601" 
d="M340 295v-214h-79v214h-215v80h215v215h79v-215h215v-80h-215z" />
    <glyph glyph-name="minus" unicode="&#x2212;" horiz-adv-x="601" 
d="M46 375h509v-80h-509v80z" />
    <glyph glyph-name="divide" unicode="&#xf7;" horiz-adv-x="601" 
d="M231 533c0 37 30 68 67 68s67 -31 67 -68s-30 -66 -67 -66s-67 29 -67 66zM46 375h509v-80h-509v80zM231 136c0 37 30 68 67 68s67 -31 67 -68c0 -36 -30 -66 -67 -66s-67 30 -67 66z" />
    <glyph glyph-name="multiply" unicode="&#xd7;" horiz-adv-x="601" 
d="M301 273l-178 -178l-56 56l178 178l-178 177l56 56l178 -177l177 177l56 -56l-177 -177l177 -178l-56 -56z" />
    <glyph glyph-name="equal" unicode="=" horiz-adv-x="601" 
d="M46 481h509v-79h-509v79zM46 266h509v-80h-509v80z" />
    <glyph glyph-name="less" unicode="&#x3c;" horiz-adv-x="601" 
d="M59 392l483 182v-95l-388 -136l388 -136v-96l-483 182v99z" />
    <glyph glyph-name="greater" unicode="&#x3e;" horiz-adv-x="601" 
d="M559 293l-483 -182v96l388 136l-388 136v95l483 -182v-99z" />
    <glyph glyph-name="dollar" unicode="$" horiz-adv-x="529" 
d="M218 -77v139c-72 3 -135 22 -179 44v98c66 -40 150 -57 211 -57c75 0 132 26 132 76c0 106 -322 66 -322 248c0 77 63 139 158 159v143h90v-137c54 -2 99 -15 144 -34v-95c-52 29 -118 44 -168 44c-73 0 -116 -29 -116 -74c0 -111 321 -66 321 -245
c0 -89 -78 -149 -181 -166v-143h-90z" />
    <glyph glyph-name="cent" unicode="&#xa2;" horiz-adv-x="488" 
d="M450 103c-34 -14 -84 -24 -120 -25v-155h-90v165c-121 30 -210 126 -210 257c0 133 89 229 210 260v168h90v-158c35 -1 82 -10 116 -23v-91c-38 18 -81 24 -121 24c-102 0 -192 -61 -192 -180c0 -116 90 -178 192 -178c40 0 86 9 125 26v-90z" />
    <glyph glyph-name="sterling" unicode="&#xa3;" horiz-adv-x="624" 
d="M77 382l27 70h105c60 157 137 259 271 259c37 0 65 -4 101 -21v-89c-39 17 -64 21 -98 21c-76 0 -126 -56 -172 -170h172l-23 -70h-383zM551 0h-500v60l75 181h-99l28 70h391l-24 -70h-194l-67 -162h390v-79z" />
    <glyph glyph-name="yen" unicode="&#xa5;" horiz-adv-x="678" 
d="M103 371v70h128l-201 259h122l190 -253l186 253h119l-201 -259h129v-70h-472zM391 229v-229h-104v229h-184v71h472v-71h-184z" />
    <glyph glyph-name="Euro" unicode="&#x20ac;" horiz-adv-x="598" 
d="M35 385v71h65c34 161 159 255 319 255c49 0 89 -7 136 -27v-93c-43 22 -85 31 -131 31c-106 0 -188 -58 -217 -166h248l-25 -71h-395zM555 17c-47 -21 -87 -28 -136 -28c-161 0 -285 93 -319 255h-65v70h377l-25 -70h-181c29 -108 111 -165 218 -165c46 0 88 8 131 31
v-93z" />
    <glyph glyph-name="uni0192" unicode="&#x192;" horiz-adv-x="582" 
d="M93 319l23 75h119l17 84c31 150 108 233 231 233c27 0 50 -3 71 -11v-84c-21 6 -38 8 -60 8c-70 0 -123 -43 -143 -148l-17 -82h161l-21 -75h-381zM312 254l-26 -134c-31 -148 -111 -233 -234 -233c-27 0 -52 5 -73 12v84c21 -6 40 -8 62 -8c70 0 125 43 145 147l26 132
h100z" />
    <glyph glyph-name="uni20B9" unicode="&#x20b9;" horiz-adv-x="660" 
d="M350 296c54 -89 154 -217 232 -296h-131c-74 75 -154 190 -207 276h-194l27 71h200c52 14 98 48 112 106h-340l27 70h315c-14 68 -77 107 -170 107h-171l27 70h541l-26 -70h-171c39 -25 63 -61 71 -107h126l-26 -70h-101c-15 -81 -75 -133 -141 -157z" />
    <glyph glyph-name="uni20AA" unicode="&#x20aa;" horiz-adv-x="783" 
d="M312 700c140 0 209 -68 209 -203v-324h-85v320c0 102 -43 129 -142 129h-120v-622h-85v700h223zM694 203c0 -135 -69 -203 -208 -203h-224v510h86v-432h119c100 0 142 27 142 129v493h85v-497z" />
    <glyph glyph-name="colonmonetary" unicode="&#x20a1;" horiz-adv-x="535" 
d="M296 79c-27 2 -53 7 -78 15l-44 -171h-69l51 199c-76 46 -126 125 -126 223c0 136 93 234 219 262l42 166h70l-40 -158h3c22 0 50 -3 76 -10l42 168h70l-69 -272c-37 18 -78 24 -118 24c-102 0 -192 -61 -192 -180c0 -116 90 -178 192 -178c40 0 86 9 125 26v-90
c-24 -10 -55 -18 -84 -22l-40 -158h-70z" />
    <glyph glyph-name="uni17DB" unicode="&#x17db;" horiz-adv-x="544" 
d="M305 -132c-157 0 -261 57 -261 146c0 66 55 111 131 111c18 0 34 -3 47 -8v-57c-8 2 -23 4 -33 4c-36 0 -63 -16 -63 -48c0 -52 79 -73 138 -75v357h-165l23 74h142v8c0 80 -57 112 -158 125c0 115 101 205 233 205c55 0 107 -11 152 -35v-85c-58 27 -106 34 -150 34
c-79 0 -128 -35 -139 -80c98 -12 159 -71 159 -159v-13h139l-20 -74h-119v-430h-56z" />
    <glyph glyph-name="uni20A9" unicode="&#x20a9;" horiz-adv-x="932" 
d="M338 0h-79l-65 260h-157v68h140l-20 83h-120v68h103l-55 221h103l119 -523l114 523h85l114 -523l119 523h98l-55 -221h112v-68h-129l-20 -83h149v-68h-166l-65 -260h-78l-124 541z" />
    <glyph glyph-name="uni20B8" unicode="&#x20b8;" horiz-adv-x="647" 
d="M37 700h572v-80h-572v80zM37 549h573v-80h-233v-469h-108v469h-232v80z" />
    <glyph glyph-name="uni20AD" unicode="&#x20ad;" horiz-adv-x="725" 
d="M138 0v322h-101v88h101v290h108v-700h-108zM423 322l286 -322h-124l-314 359l274 341h120l-241 -290h188v-88h-189z" />
    <glyph glyph-name="uni20AE" unicode="&#x20ae;" horiz-adv-x="647" 
d="M124 382l145 47v180h-232v91h573v-91h-233v-145l147 48v-72l-400 -130v72zM269 0v216l-145 -47v72l400 130v-72l-147 -48v-251h-108z" />
    <glyph glyph-name="uni20B1" unicode="&#x20b1;" horiz-adv-x="763" 
d="M267 0h-106v359h-124v71h124v84h-122v70h122v116h203c105 0 188 -40 227 -116h134v-70h-112c2 -12 3 -25 3 -39c0 -16 -1 -31 -4 -45h113v-71h-137c-41 -71 -123 -109 -224 -109h-97v-250zM512 475c0 93 -60 135 -147 135h-98v-270h98c87 0 147 43 147 135z" />
    <glyph glyph-name="uni0E3F" unicode="&#xe3f;" horiz-adv-x="610" 
d="M339 59v-165h-88v165h-165v558h165v149h88v-149c125 -6 186 -52 186 -141c0 -67 -56 -109 -113 -120c86 -11 152 -56 152 -139c0 -99 -76 -158 -214 -158h-11zM186 383h111c88 0 126 25 126 79c0 58 -38 77 -126 77h-111v-156zM459 223c0 54 -34 88 -123 88h-150v-173
h150c89 0 123 32 123 85z" />
    <glyph glyph-name="uni20B4" unicode="&#x20b4;" horiz-adv-x="657" 
d="M37 460h384c18 18 27 40 27 66c0 63 -51 98 -129 98c-59 0 -115 -13 -175 -46v91c58 29 123 42 183 42c136 0 226 -74 226 -179c0 -28 -9 -54 -22 -72h89v-70h-583v70zM364 -11c-151 0 -250 73 -250 176c0 34 13 63 31 84h-108v70h583v-70h-367c-22 -19 -34 -43 -34 -73
c0 -62 57 -99 154 -99c59 0 138 14 210 61v-93c-56 -34 -142 -56 -219 -56z" />
    <glyph glyph-name="uni20AB" unicode="&#x20ab;" horiz-adv-x="629" 
d="M418 193c-26 -25 -83 -68 -166 -68c-106 0 -196 67 -196 175c0 121 109 186 222 186c58 0 109 -17 140 -38v122h-221v69h221v61h94v-61h88v-69h-88v-419l-94 -20v62zM418 378c-28 20 -73 34 -125 34c-70 0 -135 -32 -135 -112c0 -68 59 -100 122 -100c62 0 110 30 138 57
v121zM109 67h409v-67h-409v67z" />
    <glyph glyph-name="asciicircum" unicode="^" horiz-adv-x="506" 
d="M304 701l164 -289h-88l-127 192l-127 -192h-87l163 289h102z" />
    <glyph glyph-name="asciitilde" unicode="~" horiz-adv-x="585" 
d="M372 207c-69 0 -106 96 -156 96c-45 0 -64 -49 -74 -99h-72c10 112 67 195 143 195c69 0 106 -95 156 -95c45 0 63 48 74 98h72c-10 -111 -67 -195 -143 -195z" />
    <glyph glyph-name="acute" unicode="&#xb4;" horiz-adv-x="530" 
d="M170 604l68 187h128l-131 -187h-65z" />
    <glyph glyph-name="grave" unicode="`" horiz-adv-x="530" 
d="M293 604l-129 187h128l67 -187h-66z" />
    <glyph glyph-name="hungarumlaut" unicode="&#x2dd;" horiz-adv-x="530" 
d="M151 791h114l-118 -187h-63zM332 791h114l-118 -187h-63z" />
    <glyph glyph-name="circumflex" unicode="&#x2c6;" horiz-adv-x="530" 
d="M315 791l106 -187h-69l-87 112l-86 -112h-68l106 187h98z" />
    <glyph glyph-name="caron" unicode="&#x2c7;" horiz-adv-x="530" 
d="M217 604l-106 187h68l86 -113l87 113h69l-106 -187h-98z" />
    <glyph glyph-name="breve" unicode="&#x2d8;" horiz-adv-x="530" 
d="M264 604c-92 0 -150 76 -150 187h68c3 -68 32 -111 82 -111c52 0 80 43 83 111h69c0 -111 -58 -187 -152 -187z" />
    <glyph glyph-name="tilde" unicode="&#x2dc;" horiz-adv-x="530" 
d="M334 617c-57 0 -94 91 -137 91c-32 0 -40 -39 -46 -88h-63c2 93 43 172 114 172c56 0 93 -90 136 -90c32 0 40 38 46 88h63c-2 -94 -42 -173 -113 -173z" />
    <glyph glyph-name="macron" unicode="&#xaf;" horiz-adv-x="530" 
d="M115 648v78h299v-78h-299z" />
    <glyph glyph-name="dieresis" unicode="&#xa8;" horiz-adv-x="530" 
d="M107 704c0 33 26 60 63 60c35 0 61 -27 61 -60c0 -34 -26 -61 -61 -61c-37 0 -63 27 -63 61zM298 704c0 33 26 60 62 60c35 0 62 -27 62 -60c0 -34 -27 -61 -62 -61c-36 0 -62 27 -62 61z" />
    <glyph glyph-name="dotaccent" unicode="&#x2d9;" horiz-adv-x="530" 
d="M199 703c0 36 27 65 65 65c39 0 66 -29 66 -65s-27 -65 -66 -65c-38 0 -65 29 -65 65z" />
    <glyph glyph-name="ring" unicode="&#x2da;" horiz-adv-x="530" 
d="M363 700c0 -61 -51 -111 -112 -111c-58 0 -110 50 -110 111s52 110 110 110c61 0 112 -49 112 -110zM194 700c0 -31 26 -59 57 -59c33 0 59 27 59 59s-26 59 -59 59c-30 0 -57 -27 -57 -59z" />
    <glyph glyph-name="cedilla" unicode="&#xb8;" horiz-adv-x="530" 
d="M371 -140c0 -62 -64 -99 -130 -99c-41 0 -78 9 -102 25v61c37 -22 72 -26 98 -26c37 0 65 14 65 40c0 32 -38 44 -95 44l37 103h47l-21 -60c58 -8 101 -36 101 -88z" />
    <glyph glyph-name="ogonek" unicode="&#x2db;" horiz-adv-x="530" 
d="M377 7c-51 -49 -78 -89 -78 -131c0 -31 21 -47 44 -47c12 0 19 1 30 6v-66c-14 -5 -27 -8 -46 -8c-49 0 -101 28 -101 94c0 71 45 124 122 182z" />
    <glyph glyph-name="copyright" unicode="&#xa9;" horiz-adv-x="796" 
d="M398 712c200 0 360 -151 360 -361s-160 -362 -360 -362s-361 152 -361 362s161 361 361 361zM398 45c169 0 304 130 304 306c0 177 -135 306 -304 306s-305 -129 -305 -306s136 -306 305 -306zM226 352c0 121 83 205 193 205c30 0 61 -7 87 -23v-78c-22 15 -52 24 -81 24
c-62 0 -114 -48 -114 -128s52 -123 114 -123c29 0 59 9 81 24v-76c-26 -18 -57 -24 -87 -24c-110 0 -193 78 -193 199z" />
    <glyph glyph-name="registered" unicode="&#xae;" horiz-adv-x="796" 
d="M398 712c200 0 360 -151 360 -361s-160 -362 -360 -362s-361 152 -361 362s161 361 361 361zM398 45c169 0 304 130 304 306c0 177 -135 306 -304 306s-305 -129 -305 -306s136 -306 305 -306zM482 165l-89 144h-50v-144h-78v387h130c92 0 145 -45 145 -119
c0 -53 -36 -89 -75 -106l107 -162h-90zM343 370h69c24 8 48 24 48 59c0 37 -25 57 -73 57h-44v-116z" />
    <glyph glyph-name="trademark" unicode="&#x2122;" horiz-adv-x="749" 
d="M128 368v271h-99v62h272v-62h-99v-271h-74zM493 446l-56 161h-4l-19 -239h-70l30 333h90l54 -169h4l54 169h87l31 -333h-71l-18 239h-5l-55 -161h-52z" />
    <glyph glyph-name="degree" unicode="&#xb0;" horiz-adv-x="390" 
d="M194 712c89 0 159 -70 159 -157c0 -88 -70 -159 -159 -159c-85 0 -157 71 -157 159c0 87 72 157 157 157zM194 464c51 0 91 41 91 91c0 49 -40 90 -91 90c-49 0 -89 -41 -89 -90s39 -91 89 -91z" />
    <glyph glyph-name="uni0020_uni0326" horiz-adv-x="438" 
d="M281 -48c0 -78 -56 -157 -104 -186h-68c34 37 70 109 70 186h102z" />
    <glyph glyph-name="uni0020_uni0326.alt" horiz-adv-x="438" 
d="M137 605c0 78 55 157 103 186h68c-34 -37 -70 -109 -70 -186h-101z" />
    <glyph glyph-name="i.dot" 
d="M65 703c0 36 27 65 65 65c39 0 66 -29 66 -65s-27 -65 -66 -65c-38 0 -65 29 -65 65zM79 503l103 17v-520h-103v503z" />
    <glyph glyph-name="uni00B9" unicode="&#xb9;" horiz-adv-x="235" 
d="M100 337v279l-90 -29v66l136 54h32v-370h-78z" />
    <glyph glyph-name="uni00B3" unicode="&#xb3;" horiz-adv-x="298" 
d="M18 424c25 -16 58 -27 95 -27c50 0 85 22 85 60c0 37 -31 56 -111 57v23l84 96h-139v68h227v-58l-82 -91c51 -9 100 -37 100 -97c0 -76 -74 -123 -156 -123c-42 0 -76 9 -103 24v68z" />
    <glyph glyph-name="uni00B2" unicode="&#xb2;" horiz-adv-x="299" 
d="M185 585c0 32 -19 51 -56 51c-35 0 -76 -19 -106 -42v74c30 20 74 39 124 39c78 0 122 -45 122 -106c0 -70 -63 -136 -147 -196h162v-68h-267v55c89 71 168 140 168 193z" />
    <glyph glyph-name="uni0237" unicode="&#x237;" 
d="M182 16c-2 -123 -33 -186 -77 -244h-109c50 65 80 135 83 253v478l103 17v-504z" />
    <glyph glyph-name="f_f.short" horiz-adv-x="683" 
d="M95 0v433h-73v80h73v24c0 154 87 247 222 247c26 0 46 -2 74 -11v-82c-23 7 -39 7 -59 7c-86 0 -134 -55 -134 -159v-26h231v44c0 151 86 245 214 245c19 0 37 -2 51 -7v-83c-12 3 -23 4 -36 4c-84 0 -126 -58 -126 -159v-44h163l-15 -80h-148v-433h-103v433h-231v-433
h-103z" />
    <glyph glyph-name="f.short" horiz-adv-x="349" 
d="M198 0h-103v433h-73v80h73v44c0 151 86 245 214 245c19 0 37 -2 51 -7v-83c-12 3 -23 4 -36 4c-84 0 -126 -58 -126 -159v-44h163l-15 -80h-148v-433z" />
    <glyph glyph-name="five.op" horiz-adv-x="524" 
d="M377 102c0 111 -109 156 -294 173l27 305h347v-90h-270l-9 -142c145 -17 302 -80 302 -238c0 -151 -135 -243 -286 -243c-78 0 -140 19 -189 50v93c51 -36 115 -54 181 -54c109 0 191 54 191 146z" />
    <glyph glyph-name="six.op" horiz-adv-x="587" 
d="M548 220c0 -141 -109 -231 -240 -231c-153 0 -269 133 -269 324c0 237 155 398 372 398c47 0 93 -9 122 -22v-84c-31 12 -72 19 -122 19c-150 0 -266 -107 -271 -299c41 64 118 103 188 103c117 0 220 -77 220 -208zM309 74c79 0 139 49 139 138c0 82 -58 136 -142 136
c-65 0 -125 -38 -162 -90c16 -121 86 -184 165 -184z" />
    <glyph glyph-name="eight.op" horiz-adv-x="577" 
d="M287 -11c-141 0 -252 84 -252 195c0 87 72 147 150 179c-65 35 -112 88 -112 158c0 112 96 190 219 190c124 0 220 -71 220 -175c0 -73 -52 -130 -128 -165c79 -38 159 -75 159 -184c0 -112 -110 -198 -256 -198zM326 398c51 31 90 75 90 128c0 63 -45 110 -124 110
c-73 0 -119 -47 -119 -102c0 -54 35 -80 91 -107zM287 72c85 0 150 44 150 114c0 48 -43 77 -114 111l-79 37c-64 -29 -107 -76 -107 -139c0 -69 63 -123 150 -123z" />
    <glyph glyph-name="zero.op" horiz-adv-x="603" 
d="M302 -11c-144 0 -263 123 -263 301s119 301 263 301s262 -123 262 -301s-118 -301 -262 -301zM302 76c93 0 159 89 159 214c0 126 -66 214 -159 214c-94 0 -160 -88 -160 -214c0 -125 66 -214 160 -214z" />
    <glyph glyph-name="nine.op" horiz-adv-x="587" 
d="M39 360c0 141 109 231 240 231c153 0 269 -133 269 -324c0 -237 -155 -398 -372 -398c-47 0 -93 9 -122 22v84c31 -12 72 -19 122 -19c150 0 266 107 271 299c-41 -64 -118 -103 -188 -103c-117 0 -220 77 -220 208zM278 506c-79 0 -139 -49 -139 -138
c0 -82 58 -136 142 -136c65 0 125 38 162 90c-16 121 -86 184 -165 184z" />
    <glyph glyph-name="two.op" horiz-adv-x="547" 
d="M367 398c0 63 -46 99 -120 99s-151 -41 -202 -91v98c50 46 132 87 220 87c135 0 212 -76 212 -179c0 -121 -114 -216 -293 -324h327v-88h-475v74c224 147 331 228 331 324z" />
    <glyph glyph-name="seven.op" horiz-adv-x="528" 
d="M90 -122c152 200 249 410 305 607h-376v95h484v-73c-33 -151 -166 -478 -296 -629h-117z" />
    <glyph glyph-name="one.op" horiz-adv-x="415" 
d="M207 0v463l-172 -61v85l228 98h48v-585h-104z" />
    <glyph glyph-name="three.op" horiz-adv-x="541" 
d="M24 9c51 -36 114 -54 181 -54c108 0 189 58 189 145c0 86 -70 133 -230 135v34l188 221h-301v90h415v-80l-176 -205c107 -13 210 -75 210 -191c0 -144 -135 -237 -287 -237c-78 0 -140 19 -189 49v93z" />
    <glyph glyph-name="four.op" horiz-adv-x="604" 
d="M334 -122v191h-307v66c43 130 155 333 258 445h120c-116 -122 -215 -295 -270 -431h199v171h96v-171h152v-80h-152v-191h-96z" />
    </font>
</defs>
</svg>
