<?xml version="1.0" standalone="no"?>
<!DOCTYPE svg PUBLIC "-//W3C//DTD SVG 1.1//EN" "http://www.w3.org/Graphics/SVG/1.1/DTD/svg11.dtd" >
<svg xmlns="http://www.w3.org/2000/svg">
<metadata></metadata>
<defs>
<font id="festivo_letters_no18regular" horiz-adv-x="937" >
<font-face units-per-em="2048" ascent="1536" descent="-512" />
<missing-glyph horiz-adv-x="819" />
<glyph horiz-adv-x="2048" />
<glyph horiz-adv-x="2048" />
<glyph unicode="&#xd;" horiz-adv-x="2048" />
<glyph unicode=" "  horiz-adv-x="819" />
<glyph unicode="&#x09;" horiz-adv-x="819" />
<glyph unicode="&#xa0;" horiz-adv-x="819" />
<glyph unicode="!" horiz-adv-x="368" d="M143 700v68q0 7 3.5 20t3.5 25v361q0 4 -1.5 11t-1.5 11q0 33 27 45l12 4l31 -2q4 -62 4 -78v-262q2 -8 2 -33v-49q-6 -41 -6 -104v-58q2 -14 2 -41v-96q0 -72 4 -94v-22q0 -1 1 -3.5t1 -3.5v-30q0 -47 -37 -47q-38 0 -38 45q0 3 1 9t1 9v8q0 6 -3.5 21t-3.5 28v11 q0 4 -1 12t-1 12q0 8 1 23t1 22v121q0 34 -2 57zM221 70v-45q0 -50 -31 -50q-45 0 -45 60v31q0 55 43 55q33 0 33 -51z" />
<glyph unicode="&#x22;" horiz-adv-x="514" d="M109 838l-19 14q-8 14 -8 41v41q0 77 4 98q2 23 2 78v16q0 3 1 10t1 11l4 72q9 28 37 28q26 0 33 -26v-127q0 -74 -2 -109l-6 -147h-47zM365 1247h24l33 -2l6 -147v2q4 -26 4 -109v-135q-18 -18 -33 -18q-25 0 -39 26v74q0 3 -1 9t-1 9v19q0 55 -2 78q-4 21 -4 98v31 q0 32 13 65z" />
<glyph unicode="#" horiz-adv-x="1075" d="M416 1253l30 19l17 -2h8q14 -23 14 -68l-1 -3q-1 -3 -1 -7l-1 -4q-1 -4 -1 -8l-8 -31q0 -6 -2 -8q-4 -9 -4 -25q-2 -2 -2 -14q-9 -71 -25 -141q-18 -84 -20 -130q72 -2 196 -2h97q4 47 24 162l11 96q2 14 2 37q4 95 36 158q22 -12 34 -23t13 -25t0 -19.5t-6 -20.5l-4 -8 v-4q-2 -14 -2 -39v-21q-3 -70 -18 -161q-2 -15 -7 -43.5t-7 -47t-3 -43.5h29q3 0 7 1t7 1q40 5 70 5q24 0 53 -17v-43q-27 -16 -51 -16h-37q-3 0 -6 -1t-6 -1h-10q-14 -1 -21 -0.5t-16 0t-21 -3.5q-3 -24 -12 -41l2 8q0 -1 -1 -3t-1 -3q-2 -2 -2 -17q-2 -2 -2 -14l-8 -47 q0 -5 -4 -37q0 -12 -2 -14q0 -4 -1 -10t-1 -7q-2 -2 -2 -24q0 -3 -1 -8l-1 -5q-7 -30 -9 -53h58q14 2 43 2q3 0 6 -1t6 -1h53q8 -25 8 -45q-23 -26 -65 -26q-12 -3 -41 -3q-33 0 -57 3h-19l-14 -115q-3 -11 -8 -47l-7 -51q0 -1 -1 -5.5t-1 -5.5l-6 -32q0 -3 -1 -6.5t-1 -6.5 q-2 -2 -2 -12l-6 -23q0 -4 -1 -10l-1 -6q-2 -2 -2 -8l-10 -60v-6l-4 -12q-1 -2 -3 -5.5t-3 -5t-2.5 -4.5t-2.5 -4t-3 -2.5t-4 -2.5t-4.5 -1.5t-5.5 -1t-7 -0.5q-14 0 -29 15q-15 21 2 67v8l4 16v-1v10l1 2q1 2 1 6q0 5 -2 6l1 1l3 3q4 29 13 54q6 23 8 53l6 45q0 21 2 31 q0 16 2 18v-4q0 1 1 4t1 6l6 49q3 38 4 41q-23 -2 -67 -2q-77 0 -185 11h-6q-1 0 -3 1t-3 1h-12l-4 -17q0 -3 -1 -9t-1 -7l-2 -2l-11 -53q0 -3 -4 -23q0 -3 -1 -6t-1 -6q-2 -2 -2 -6l-4 -25l-2 -6q0 -8 -1 -15.5t-1 -9.5v-4h-2v-4q-2 0 -2 -2v-4q0 -3 -1 -5t-1 -3v-10 q-9 -117 -33 -230h-29q-22 0 -43 21q25 88 35 231q13 82 23 135l14 62q-29 0 -43 2h-80q-24 0 -55 10q-10 30 4 49l6 15h29q3 0 9.5 -1.5t10.5 -1.5h131q3 19 6.5 55t6.5 54q0 8 1 20t1 17q0 23 2 31q0 4 1 10t1 10q0 5 1 15.5t1 15.5q0 4 -2 17.5t2 21.5q-1 0 -4 0.5 l-9 1.5l-12 2q-33 4 -47 2h-10q-3 0 -5.5 -1t-6.5 -1h-11q-43 0 -49 31q0 19 11 30q16 16 47 13h4q21 2 76 -3q3 0 6 -1t6 -1h16v21q0 4 1 11t1 11v9q0 1 1 3t1 3q0 19 4 39q0 3 1 5t1 5l7 20q0 1 0.5 3.5t1.5 7t2 8.5v2l10 45l16 108q0 21 4 33q-4 11 2 17l9 22q0 -2 -2 -4 q-4 13 2 19q0 16 4 36zM692 647l13 76l4 29q-29 4 -134 4h-159l-4 -43q-1 -8 -3.5 -28.5t-2.5 -29.5v-14q-10 -109 -19 -158q16 -2 47 -2q76 -6 146 -6q55 0 86 2q8 81 26 170z" />
<glyph unicode="$" horiz-adv-x="841" d="M717 928v-10q5 -38 -15 -60q-4 -1 -16 -3.5t-20 -2.5q-26 16 -21 49q0 2 -1 4t-0.5 3.5t3.5 4.5q-5 75 -40 139t-97 89q-3 0 -6 -1t-5 -0.5t-5 3.5l-15 6q-38 10 -51 10h-14q-16 4 -17 4q-11 0 -41 -10l-20 -10q-17 -10 -25 -10l-12 -7q-57 -22 -68 -118q-2 -2 -2 -4 q0 -3 -1 -6t-1 -7q0 -25 -2 -33v-47q9 -38 33 -77q24 -42 41 -62l4 -6q23 -23 45 -35l2 -2h6l6 -12l17 -12q7 -7 18 -11l41 -39l13 -10l20 -16q46 -33 66 -72l24 -25q58 -68 60 -71q4 -6 15 -21.5t15 -21t11.5 -18.5t11 -22t7 -23.5t5.5 -30.5q0 -3 1 -6.5t1 -6.5t1 -6t1 -6 q0 -1 1 -2t1 -2q2 -4 2 -35q0 -82 -26 -119q-31 -60 -80 -94q-60 -44 -121 -51v-131q0 -4 -1 -12.5t-1 -12.5v-8q0 -28 -12 -37q-10 -10 -41 -10q-26 21 -23 61v11q0 49 2 67v70q-140 16 -213 86q-6 6 -6 10q-17 20 -27 43v-2q-22 55 -22 100q0 48 6 66v22q0 22 7.5 34 t31.5 12q14 0 25 -11q10 -14 10 -47q-4 -32 -4 -57q0 -64 20 -103q10 -23 31 -41h-4q42 -29 143 -45h31q32 0 78 11h-2q74 41 102 94q30 55 18 125q-3 3 -3.5 5.5t0.5 7t1 7.5q-2 2 -2 21h-1q-1 1 -1 6q-5 15 -15.5 33.5t-12.5 23.5q-25 33 -39 49h2q-10 10 -10 11l-11 14 l-32 33q-12 12 -13 14l-4 6l-14 17l-23 22q-7 3 -10 10q-7 5 -18 19l-27 20l-29 25q-21 15 -39 33l-8 6l-10 8q-43 35 -66 61l-6 7q-62 77 -69 151q-3 29 2 82v21h2q12 143 112 184l17 8h6l4 6l10 6q41 18 78 25v12q0 3 1 10t1 11q4 46 4 82q0 17 1 26.5t10.5 20t27.5 10.5 q3 0 19 -4q4 -2 16 -2q4 0 4 -2q0 -53 -4 -119v-10q-2 -2 -2 -29q0 -3 -1 -6t-1 -4l61 -19l6 -2q1 0 4.5 -1t4.5 -1q2 -2 6 -2q85 -24 131 -104t41 -172z" />
<glyph unicode="%" horiz-adv-x="1392" d="M551 981q0 -3 1 -8t1 -8q4 -36 4 -68q0 -83 -29 -125q-4 -6 -8.5 -12t-11.5 -12t-11 -9.5t-14.5 -10.5l-13.5 -9t-17 -10t-16 -9l-12 -10q-4 0 -8 -4q-5 0 -25 -4q-3 0 -7 -1t-7 -1h-4q-61 -9 -127 16l-47 27q-84 58 -72 199q0 1 -1 2t-1 2v47q0 3 -1 7t-1 7v43 q0 53 22 92q6 18 13 27q56 95 188 98l3 -1q3 -1 7 -1h19q44 -10 84 -33q3 -3 9 -6t9 -6q34 -23 49 -65v4q10 -17 13 -31q5 -15 10 -76v-43q0 -3 1 -5t1 -3zM1264 248q0 -4 -1 -7l-1 -3v-39q-5 -57 -11 -76v4q-2 -2 -2 -8l-6 -10q-21 -59 -53 -78l2 2l-10 -6l-11 -9 q-28 -20 -84 -32q-3 0 -8 -1t-8 -1h-12q-59 2 -109 26t-78 70q-11 15 -14 29q-22 39 -22 92v39q0 3 1 8t1 8v47q0 1 1 1q1 1 1 5q-5 55 12.5 109.5t58.5 87.5q11 9 54 31q62 23 122 14h-4q2 -2 7 -2h8q9 0 18 -6q2 -2 14 -2l17 -9q65 -36 82 -56q7 -8 12 -17q29 -56 29 -125 q0 -32 -4 -68q0 -3 -1 -9t-1 -9zM1188 299v53q-3 47 -12 62v-2q-11 17 -19 26q-21 22 -53 35q-13 0 -21 8h-22q-1 0 -3 1t-3 1l-43 -12v2q-1 0 -19.5 -6t-29.5 -12q-72 -35 -56 -144v-24q0 -3 -1 -6.5t-1 -6.5v-71q-3 -32 21 -84l14 -19q38 -38 96 -47q21 0 23 2q34 2 74 27 l20 18l6 11l6 6q2 0 2 2q0 8 2 10q11 37 11 70q0 19 4 47v20l1 2q1 2 1 6q0 1 -1 5.5t-0.5 9t3.5 10.5zM451 793l16 16q11 26 14 72v49q-2 8 -2 28l-1 4q-1 4 -1 7v14q-4 28 -4 49q0 33 -10 64q-2 2 -2 10q0 2 -2 4q-6 3 -10 14l4 -6l-7 10l-22 21q-31 24 -72 27q-2 2 -22 2 q-57 -10 -94 -50l-17 -18q-23 -30 -20 -84v-72q0 -3 1 -5t1 -5v-24q-15 -109 63 -148q5 -3 19 -7t20 -7q19 -6 45 -10h21q1 0 1.5 0.5t2 1t4.5 0.5l8 2l10 2q40 23 56 39zM741 641l-18 -47l2 2l-29 -80l-30 -80l-11 -33v3l-14 -37l-31 -86q-45 -100 -63 -156l-2 -4 q0 -4 -1 -7l-1 -3l-2 -2l-4 -19q-7 -23 -21 -45l-4 -8l-2 2q-1 -9 -8 -29l-6 -12q-1 -1 -3.5 -5.5t-3 -6t-3 -5t-5 -4.5t-5.5 -3t-7.5 -2.5t-9.5 -0.5q-3 0 -19 4q-22 13 -23.5 23.5t11.5 30.5v-2l14 28l15 31v-2l6 29l-2 -2q0 1 1 3t1 3q60 153 80 196q19 41 37 97l24 65 l10 35l45 121q3 3 9 26l20 46l23 51v2q0 -4 2 1q1 5 2 13q16 42 24 57l6 15l27 65q-2 -2 -2 0l8 19l6 16q5 11 37.5 95t52.5 118l7 8l6 13q3 12 10 20l12 29q12 12 25 12q19 0 35 -22q0 5 8 2q-9 -58 -23 -72v4l-16 -41q-15 -29 -45 -100q-1 -4 -5 -11.5t-5 -9.5l-25 -61 q0 -4 -1 -9t-1 -6l-2 -2l-8 -18v2q-6 -15 -19 -49.5t-18 -46.5v2l-31 -72l-8 -18l-14 -37v-2q0 -11 -15 -31z" />
<glyph unicode="&#x26;" horiz-adv-x="1116" d="M893 -18l-14 8q-19 4 -27 12l-14 8l6 -2l-11 4h1q-7 6 -22.5 18t-24 18.5t-19 16.5t-16.5 19l-21 27q-6 -10 -31 -35q-37 -31 -104 -62l-21 -4q-6 -6 -14 -6q-2 -2 -18 -2q-13 -6 -43 -10q-14 -2 -43 -2q-66 0 -101 14q-12 0 -22 10l-10 6l6 -4q-17 5 -72 39l-4 6 q-8 3 -14 15q-38 35 -64 92q-4 10 -9.5 28.5t-8.5 24.5q-8 17 -11 58l-4 53v51q8 92 90 188l9 9l4 8l33 33l-3 -3l11 9l14 12l16 6q-49 37 -94 121q-10 17 -10 31q-27 65 -27 149q0 60 15 90q45 99 116 142h-2q68 51 134 49q91 0 161 -49q73 -52 82 -138l2 -8q0 -26 -12 -35 q-16 -16 -41 -10q-19 12 -23 41q-12 54 -51 86t-96 37q-2 2 -29 2q-31 0 -49 -6q-11 -4 -22 -12l-15 -9l-6 -6q-24 -18 -49 -50t-35 -62q-8 -13 -8 -62q0 -55 16 -102l2 -2q0 -3 5 -8q12 -41 34.5 -79t49.5 -50q33 -11 34 -11h9q3 0 9 -1t9 -1q30 -3 57 0q27 0 35 -2h19 q4 0 9.5 -1t8.5 -1h98q1 0 4 1t7 1h16q2 -2 22 -2q1 0 7 1t12 0.5t12 -3.5h8q107 0 183 -8q27 -40 -13 -80q-31 8 -55 8h-18q-31 0 -45 2h-19v2h-2v-37q0 -58 -2 -81t-2 -76q0 -35 2 -58q0 -44 -2 -67q0 -56 2 -62q0 -14 2 -16q12 -45 25 -68q2 -2 6.5 -7.5t8.5 -9.5t7 -5 l2 -6q6 -8 21.5 -21.5t19.5 -17.5h-2l78 -41h-2q2 -1 7.5 -3t8 -3.5t6.5 -3.5t6 -4.5t4.5 -5.5t3.5 -7.5t1 -9.5q0 -35 -35 -35q-22 0 -35 8zM352 588l2 2q-38 -28 -69 -70q-47 -47 -62 -123q-6 -21 -6 -41q3 -105 49 -198q3 -7 21 -31l6 -8l10 -8l12 -7h-2q2 -2 9 -2 q11 -11 34 -20q11 -8 17 -8q42 -11 71 -11q41 0 91 13q14 0 16 2q2 0 4 2q-7 0 -1 3q2 0 5 1h8v-4q7 7 25 14q0 2 2 2q4 0 6 2q3 1 7 4.5t9 6.5h-4q11 5 21 11.5t19.5 16t14.5 15t16 18.5t13 16l6 7q-6 27 -6 90v34q0 99 2 148q2 39 2 102q0 6 1 22.5t-1 22.5h-112 q-34 -4 -58 4h-18h-6q-2 0 -4 2q-3 3 -23 3h-33q-20 0 -57 -21l-8 -2q-17 -10 -29 -10zM313 104l-6 2q0 -2 2 -2h4zM535 0l8 2h-2q-1 0 -3 -1t-3 -1z" />
<glyph unicode="'" horiz-adv-x="245" d="M106 842l-16 14q-8 14 -8 41v41q0 77 4 98q2 23 2 78v16q0 3 1 10t1 11l4 72q6 28 37 28q24 0 33 -26v-127q0 -86 -4 -109l-6 -147h-48z" />
<glyph unicode="(" horiz-adv-x="319" d="M82 410v252q8 139 8 305q0 42 2 65v15q0 3 -1 9t-1 9v65q0 53 2 84q4 63 27 99v-2q18 43 35 70t49 59q33 33 57 33q16 0 39 -23q-9 -39 -29 -49l-4 -4l-14 -11l-12 -12q-8 -6 -15.5 -15t-11 -15t-11 -21.5t-9.5 -19.5q-25 -55 -27 -99q-4 -24 0 -90v-125q0 -186 -6 -270 v2q-4 -126 -4 -205q0 -39 4 -117v-106q0 -7 1 -17.5t1 -17.5q0 -3 -1 -6.5t-1 -7.5v-15l-1 -3q-1 -2 -1 -7v-55q0 -3 -1 -5.5t-1 -6.5v-15q-2 -2 -2 -22q0 -18 4 -54v-14q0 -3 1 -7t1 -9q0 -1 1 -3t1 -3h2q7 -68 33 -125q6 -4 24 -29l15 -12l4 -2l2 -2q36 -14 39 -41 q3 -17 -15 -35q-8 -8 -22 -8q-10 0 -14.5 3t-16.5 15l-8 6q-9 2 -15 8q-57 48 -84 127q-4 11 -7 25t-5 23t-4 29t-2.5 27.5t-2.5 35t-3 34.5v80l1 4q1 4 1 7v41q2 18 2 49q0 47 -4 125z" />
<glyph unicode=")" horiz-adv-x="321" d="M238 662q2 -39 2 -109q0 -94 -2 -143q0 -18 -1 -59t-1 -66q0 -31 2 -49v-74q2 -16 2 -58q-10 -131 -25 -174h2q-23 -79 -86 -127l-22 -14l-7 -6h-2q-12 -12 -22 -12q-15 0 -25 10q-19 19 -12 35q0 24 37 39h2l4 2l16 16l21 23q33 78 39 124q0 1 1 2.5t1 2.5q0 3 -1.5 7 t-1 6.5t4.5 6.5v4q0 3 1 8t1 9q4 28 4 49q0 20 -2 22q0 1 -1 3t-1 3v9l2 26q-2 2 -2 29l-1 3q-1 4 -1 9v10q0 1 -1 3.5t-1 3.5v126q0 7 1 18.5t1 18.5q4 78 4 117q0 73 -4 205v-2q-6 80 -6 270v125q4 66 0 88q-1 18 -5 33t-12 35t-10 28l-2 7q-23 51 -51 71l-10 13 q-10 5 -19 14l-2 2q-20 15 -27 61l10 1q10 1 15 1l16 5q6 0 11.5 -1.5t9 -3t9.5 -6t8.5 -6.5t9 -8t8.5 -8l8 -8q49 -46 82 -125q0 -7 2 -9v5q18 -56 20 -89q2 -23 2 -84v-30q0 -3 -1 -8.5t-1 -8.5v-51q2 -23 2 -65q0 -127 7 -305z" />
<glyph unicode="*" horiz-adv-x="776" d="M604 963l-14 -5q-9 -6 -17 -6l-114 -39l14 -18l10 -12l13 -17l8 -8l19 -30l-1 1q3 -4 6.5 -11.5t6.5 -10.5h1q4 -2 5 -6l14 -27q2 -8 8 -14l19 -17q12 -12 22 -51q-21 -24 -39 -24q-27 0 -41 26q-14 12 -51 68q-7 3 -10 22l-8 15q-2 2 -8 6.5t-7 7.5l-34 51l-58 -76 q-21 -21 -47 -57l-10 -12q-4 -4 -4 -14l-39 -39q-23 0 -49 26q0 29 20 49l8 11q4 4 10.5 14t10.5 14l-4 -10q4 4 4 6q0 13 45 58q0 2 -2 2q5 7 21 25.5t32 43.5q-31 9 -91 30t-91 30q-2 0 -4 2q-24 5 -29 8q-6 0 -12 6q-33 15 -35 33q0 10 0.5 14.5t7.5 14t21 20.5l125 -45 l51 -17q50 -18 75 -22q5 42 9 143v19q0 1 0.5 1.5t1 2t0.5 4.5v16q0 58 14 72q3 10 27 10l32 -2q0 -11 1.5 -41t1.5 -41q0 -52 -7 -110q0 -1 -1 -3t-1 -3v-60l78 25l35 12l20 8h-2q12 7 31 12l2 3q1 0 7 1t7 1h3q4 0 6 2q11 0 32 12q17 -9 26 -26t9 -27q-17 -33 -59 -37 q-3 0 -6 -1t-6 -1h-7q-6 -2 -12 -8zM287 829l4 7q-2 -2 -2 -5q0 -2 -2 -2z" />
<glyph unicode="+" horiz-adv-x="968" d="M803 512h-84q-78 -4 -137 -4q-6 0 -13 1t-10 1h-33q0 -27 2 -43v-139q0 -3 -1 -14t-0.5 -19.5t3.5 -15.5q0 -19 2 -23q0 -4 2 -12.5t2.5 -12.5t-3 -12t-11.5 -16q-13 -13 -26 -13q-24 4 -29.5 15t-5.5 33v8q-8 117 -8 266l-39 -4h-15q-10 -2 -30 -2q-36 0 -50 2h-36 q-3 0 -7.5 1t-7.5 1q-16 0 -30 -2h-9q-10 -2 -39 -2h-10q-18 0 -49 10q-8 23 -8 31l2 35h90q3 0 8 1t8 1q23 0 25 2h49q3 0 8.5 -1t8.5 -1q14 -2 38 -2q9 -2 43 2q1 0 3 1t6 1h39v41q0 49 2 67v41q0 80 -2 113q0 6 -2 8q-6 9 -5.5 19.5t15.5 25.5q16 16 57 8q10 -66 10 -188 v-31q-2 -23 -2 -63q0 -27 2 -41q14 -2 56 -2h63q4 0 11.5 1t11.5 1q27 2 98 2h33q20 0 35 -15q18 -18 8 -43q-18 -18 -39 -18z" />
<glyph unicode="," horiz-adv-x="419" d="M197 96h16q1 0 4 -1t4 -1h15q22 0 61 -16q-10 -39 -10 -72q0 -12 -2 -14q0 -25 -4 -29l-17 -98q-2 -7 -4.5 -21.5t-6 -26.5t-9.5 -28l2 2l-6 -24q-4 -12 -7.5 -19t-13.5 -13.5t-24 -6.5l-29 20q8 64 18 92q6 16 9.5 34t5.5 38.5t4 30.5q0 5 2 17.5t2 16.5q0 1 1 3t1 6 l2 20q0 17 -2 19q-3 0 -5.5 -1t-6.5 -1h-70l-4 34l4 33q69 6 70 6z" />
<glyph unicode="-" horiz-adv-x="698" d="M317 500h-153q-21 0 -37 16q-9 22 0 41q18 18 53 18q2 1 4 3h60q3 -3 26 -3h76q119 0 150 -4h39q27 0 36 -30q9 -12 -8 -29q-9 -18 -49 -18h-25q-1 0 -2 1t-2 1h-12q-14 2 -37 2h-28q-60 0 -91 2z" />
<glyph unicode="." horiz-adv-x="323" d="M125 33v24q0 11 0.5 18.5t3.5 19.5t9.5 15.5t17.5 7t28 -4.5q17 -19 17 -56v-30q0 -28 -17 -47q-14 -6 -24.5 -7.5t-16.5 3t-10 10t-5.5 15t-2 16.5t-0.5 16z" />
<glyph unicode="/" horiz-adv-x="729" d="M150 -29l-33 -2q-52 13 -23 58l4 4v4q19 82 70 190l6 15v-2l4 20q1 2 1.5 7.5t2 10t4.5 7.5l7 18q2 0 2 2t2 4t2 6q0 17 14 31l23 49q2 6 5 20.5t7 27t8 16.5v2l8 18v-2q52 143 76 203v-2l20 53l25 62v-3l25 62l39 94l22 57q0 7 6 13l6 14l11 29v-2l6 18l-2 -2l6 23 l24 57l11 23l-2 -7q0 1 2 3.5t2 3.5l8 24q23 51 39 70q21 0 39 -11l20 -20l-57 -135l-37 -94v2l-8 -19l-92 -233l-19 -51v4l-12 -29q-20 -33 -31 -70l2 2l-8 -26q-11 -43 -25 -68v4l-28 -82l-4 -10q-3 -10 -18 -41.5t-15 -44.5l-12 -22l-9 -27l-22 -57l-39 -99 q-19 -47 -45 -125z" />
<glyph unicode="0" horiz-adv-x="854" d="M231 78q-38 41 -41 49l-10 20l-12 29q-25 98 -25 178v56q0 39 4.5 167.5t-0.5 167.5q0 43 -4 58v18l7 72q0 16 2 18v37q0 3 1 7.5t1 7.5q-2 2 -2 18q0 45 16 98l10 31q25 47 69.5 81t96.5 38l-4 -2q9 4 22 4h9q1 0 1 1q1 1 5 1h74q36 0 45 -4q87 -9 151 -76l10 -18 q10 -10 17 -27l10 -14l4 -21q3 -7 6 -25t6 -22q2 -10 2 -49v-64q3 -34 3 -65q0 -60 3 -161t3 -167q0 -88 -6 -131q0 -1 -1.5 -4t-1.5 -6t-1 -8.5t-1 -8.5q-2 -16 -2 -38q-1 -43 -3 -67t-11 -61t-25 -71q-52 -94 -165 -115q-3 0 -6.5 -1t-6.5 -1h-8q-28 -4 -47 -4 q-34 0 -55 6q-13 5 -32.5 10t-28 9t-13.5 10q-49 27 -66 39zM254 160l4 -6q0 -2 8 -9l17 -16q20 -20 49 -35.5t49 -15.5q11 -2 26 -5l14 -3h-1q18 0 20 2t6 2q9 0 11 2h14q59 15 70 24l41 37q15 16 25 47.5t13 54t7 66.5q0 3 1 8.5t1 8.5q0 16 2 24q0 3 1 9t1 10q0 24 2 32 v17q0 2 1 10t1 16q4 62 4 82q0 67 -4 185.5t-4 183.5q4 86 -10 145q-5 20 -5 21q-4 4 -4 14l-18 29l2 -2q-38 50 -109 59q-1 0 -2 1t-2 1h-34q-28 4 -45 4q-9 0 -11 -2h-24q-3 0 -5.5 -1t-5.5 -1h-6q-41 -4 -76 -36t-47 -74l-6 -48v-30q4 -62 -4 -103q-2 -2 -2 -14 q-2 -2 -2 -31v-14q0 -16 2 -18q6 -104 6 -285q0 -3 1 -8t0.5 -7.5t-3.5 -5.5v-18q-6 -37 -6 -86q0 -74 9 -139.5t28 -81.5z" />
<glyph unicode="1" horiz-adv-x="577" d="M434 434v-55q-2 -27 -2 -68v-39q0 -52 2 -77v-15l-1 -1q-1 -1 -1 -5v-55q2 -18 2 -76q0 -47 -35 -53q-17 0 -24 10q-13 13 -13 41v18q3 3 3 0q2 11 -3 43q-2 14 -2 43v25q2 2 2 8v39q-1 38 3 158v96q0 4 -1.5 11.5t-1.5 11.5v22l-2 14q0 12 -1 35t-1 35v70q0 94 -2 141 v61q0 1 -1 5.5t-0.5 9t3.5 8.5v25q0 27 -4 77q0 3 -1 10t-1 11v22q-4 72 -2 105l-74 -31q-9 -3 -25 -10.5t-20 -9.5l-53 -23l-10 -4h-2l-10 -6q-4 -4 -9 -4q-39 -21 -55 8q-7 8 -8.5 15.5t-1 12t7 9.5t10 7t14.5 7.5l15 7.5q29 12 37 17l47 20l88 39l14 4l17 8q36 16 53 17 q18 0 27.5 -11t10.5 -21t1 -28v-32q-4 -73 4 -123v-17q0 -1 1 -4t1 -6v-364q4 -110 4 -189z" />
<glyph unicode="2" horiz-adv-x="847" d="M588 752l-4 -7l-6 -10l-11 -20l-20 -31l-39 -59l-10 -17l-74 -114q-14 -17 -38.5 -67t-37.5 -71l-22 -37v-2q-21 -21 -29 -43q-27 -60 -36.5 -96.5t-4.5 -85.5v-26h35q40 0 63 2q42 4 203 4h74q2 2 20 2q29 0 54 -29q0 -1 -1.5 -6t-1.5 -6v-15q-1 -2 -3.5 -6t-3 -5 t-3 -3.5t-3.5 -3t-4 -1.5t-6.5 -1h-8.5q-17 0 -19 2q-23 0 -37 2q-3 0 -7 -1t-7 -1h-45q-25 2 -70 2h-73q-3 0 -8.5 -1t-8.5 -1h-12q-30 0 -99 -1t-89 -1q-15 19 -15 39v51q-4 96 19 148q28 66 39 77l-2 -4l10 15q7 8 18 32q6 3 10 15v4q22 55 54 98l20 31l35 53h-2 q8 15 25.5 41.5t23.5 36.5l51 74q4 17 23 41l-2 -2l22 38q16 37 31 52q3 11 14 22q2 2 6 17q21 41 21 100q0 33 -6 47q-8 26 -35 70v-2l-18 14l-2 2l-9 6q-8 2 -14 8q-66 32 -139 29h-25q-68 -6 -94 -45l-4 -8v-2q-8 -5 -8 -9q-16 -17 -19.5 -31.5t-3.5 -39.5v-41 q1 -15 0.5 -27t-4 -24.5t-11 -15t-20.5 0.5q-28 11 -34.5 28.5t-6.5 53.5v19q3 63 47 127l9 8q1 1 2 4t4 6q48 57 141 72h12q2 2 11 2q119 0 180 -43l10 -6l16 -9q37 -27 64 -74t31 -96q3 -37 -6 -77q-1 -4 -2 -9t-2 -8t-1 -4q-1 -4 -4.5 -23.5t-11.5 -33.5l-14 -25l-11 -14 z" />
<glyph unicode="3" horiz-adv-x="864" d="M606 653l-10 -8l-6 -6l31 -31q6 -10 15.5 -22.5t12.5 -20.5l-2 2l17 -26l4 -4l4 -13l-2 8q15 -32 32 -111t17 -116v-20q2 -78 -57 -170l2 2q-3 -5 -8.5 -15t-11 -18t-11.5 -12l-25 -25q-52 -52 -121 -61q-6 -2 -22 -2h-53q-2 2 -15 2l-22 4q-7 1 -26.5 3.5t-31.5 6.5 t-24 12l-12 13h-2q-56 32 -76 77l-10 21q-3 9 -5 10q-14 34 -21 82.5t3 73.5v22l2 -8q0 14 2 21t15 15t40 15q17 -35 17 -53l-2 -10q0 -2 1 -6t0.5 -7t-3.5 -8q0 -3 -1 -7t-1 -7q-4 -39 4 -63q0 -13 8 -21l4 -20v2l14 -27h-2q14 -24 25 -31l16 -10q62 -33 133 -33 q13 -4 27.5 -1t23 3.5t20 7t17 10t15.5 13t15 15t15.5 16.5t16.5 18q0 9 14 27q31 49 37 114q0 58 -12 119q0 48 -25 103q-11 11 -12 14q-16 18 -21 39q-11 4 -20 16l-2 2l-23 25q-1 -1 -5 0.5t-6 2t-5 1.5q-28 0 -51 -2q-1 0 -4 -1t-6 -1q-24 0 -46 12t-18 33q1 14 6 22.5 t16.5 12t20 4t25.5 0.5h34q25 0 31 2h-2q3 2 14.5 6.5t16.5 9.5l12 11q18 11 27 32q0 3 2 10.5t2 10.5l8 20q0 9 8 17q1 5 5 10.5t5 9.5l-2 -2q13 67 13 119q0 70 -17 110q-2 2 -2 9q0 2 -2 4q0 1 -18 30l-23 23l-16 16l4 -2q-49 28 -117 37q-2 2 -16 2q-2 2 -21 2 q-6 -2 -16 -2q-3 0 -4 -1t-4 -1q-74 -14 -117 -51q-2 -3 -11 -14t-9 -19q-6 -6 -12.5 -30t-6.5 -35q-2 -14 -2 -39q-3 -9 0 -17q4 -22 1 -39t-23 -26q-24 -10 -37 8t-15 47q0 1 -1 5t-1 5v9q0 22 2 36q18 100 79.5 163t158.5 73q4 0 4 2h49q119 -15 176 -72l17 -16 q71 -113 71 -217q0 -22 -4 -68q-9 -70 -28 -110v2l-11 -27l-16 -39q-6 -10 -35 -39z" />
<glyph unicode="4" horiz-adv-x="854" d="M598 498q4 -126 4 -168h80l31 -2q26 0 41 -15q16 -18 16.5 -29.5t-12 -18t-23 -9t-16.5 -2.5h-23q-23 2 -71 2h-25v-31q0 -7 -1 -17t-1 -15v-52v-35.5t-1.5 -35t-4 -35.5t-6.5 -27.5t-11.5 -21t-17.5 -6.5q-18 0 -25 10q-12 12 -12 35q0 27 4 55v43q0 3 1 7t1 7v60v59 h-135q-5 0 -13.5 -1t-12.5 -1h-111q-31 0 -45 -2h-51q-35 0 -70 16v37l-1 3q-1 4 -1 9v17h-2q0 2 -2 4l18 43v-2q3 13 13.5 33t13.5 30l14 33l39 96v-2q29 86 41 107l19 37q4 4 4 6l16 41v-2q25 72 53 123l11 22l18 45v-2l6 15q0 3 2 10t2 10l76 154l6 14l43 86q11 4 45 4 h15q15 0 22 -1t15.5 -6.5t15.5 -17.5q13 -35 4 -102q2 -23 2 -76q0 -75 -2 -114q0 -3 -1 -12t-1 -13v-29q-3 -56 0 -108v-58q0 -3 1 -8t1 -8q0 -74 4 -188zM520 924v12q4 62 4 92q0 9 -1 26.5t-1 26.5v68q0 3 -1 6t-1 6l-4 -14l-14 -29l-23 -41q-1 -2 -22 -49l-6 -16 l-11 -23q0 -14 -18 -35l-8 -20v2l-31 -80q-38 -72 -68 -154l-4 -10v-10q-2 -2 -2 -6q-10 -10 -10 -17l-8 -16l-6 -14q-22 -43 -39 -80q-2 -5 -5 -19.5t-7.5 -26.5t-10.5 -18l-12 -32q-8 -19 -26 -54.5t-27 -58.5q0 4 2 -1q1 -5 2 -13q63 2 196 2h48q6 0 24 1t27 1h69v143 q0 36 -4 98v17q0 4 -1 12t-1 12v27q0 4 -1 11.5t-1 11.5v18q-2 35 -2 125v24q0 74 4 95zM223 485l2 2q0 -2 -2 -2z" />
<glyph unicode="5" horiz-adv-x="854" d="M688 565v-6h2q0 -1 1 -5t1 -7l4 -41q4 -28 4 -31v-24q0 -4 1 -12t1 -11v-37q0 -5 1.5 -15t1.5 -18q0 -125 -27 -202l-21 -43v2l-14 -29l-20 -20q-7 -7 -19 -11l-26 -24l-15 -8l-4 -3l-14 -8q-5 -8 -19 -8h-6q-23 -12 -58.5 -19t-60.5 -5q-157 20 -235 210q-17 34 -19 58 q-7 28 0 35v20q0 15 2 22.5t13 15.5t35 15q22 -38 22 -67v-19q0 -6 6 -24q0 -2 2 -4l4 -23q23 -65 79 -114.5t116 -49.5q20 0 47 15q52 11 98 43l13 12q0 2 4 6l2 4q0 1 1 4t1 4q3 5 7.5 12t7 11t3.5 8q3 8 6 18t5 18t3.5 20t2.5 19.5t2 22t1.5 20.5t0.5 22v21v23v21v86 q0 22 -2 24q0 1 -1 4.5t-1 6.5q-1 3 -5.5 14t-5.5 16q-27 91 -49 117h2q-39 42 -106 51q-2 2 -21 2q-24 0 -92 -22l-22 -10l-41 -17l-4 -6q-15 -12 -29 -12h-10q-4 0 -7 1t-4 1h-16q-29 0 -35 24q-2 2 -2.5 4.5t0 5t1.5 7t1 8.5v125q0 3 -1 9t-1 9v13q-4 70 -4 108 q0 30 -4 96v9q-4 17 -4 80q0 53 6 92l166 6h35q7 0 17.5 1t17.5 1q94 4 174 4h65q35 0 51 -18q11 -11 11 -31q-5 -11 -10 -17.5t-11.5 -8.5t-9.5 -2.5t-12 -0.5h-21q-23 2 -72 2q-149 0 -272 -8h-10q-28 -4 -53 -4q0 -30 4 -66v-34q0 -4 1 -11t1 -10q4 -62 4 -96 q0 -50 2 -68q4 -36 4 -45v-26q4 -40 0 -84l6 6l29 14l51 25q26 11 57 14l-4 -2q18 6 43 6h6q75 0 142 -43q4 -4 22 -20.5t28.5 -28.5t18.5 -27q21 -40 33 -88z" />
<glyph unicode="6" horiz-adv-x="872" d="M150 307v21q0 3 -1.5 4t-1.5 4v35q-4 46 -4 78v61q0 3 1 12t1 13q2 23 2 59v244q0 40 9 75v5l1 4q1 4 1 10l1 2q1 2 1 6q0 17 2 25q0 3 1 8t1 6q2 6 4 20q2 2 2 13q11 57 20 75q0 1 1.5 4t5.5 7v2q20 63 88 102l28 12h-2l58 29q18 6 26 6h2q0 2 2 2q5 0 7 2h79 q19 0 21 -2q16 0 29 -8q3 0 5 -1t3 -1q0 -2 -2 -2l22 -10q47 -19 82.5 -62t46.5 -94v-16l1 -1l1 -3q7 -23 5.5 -73t-19.5 -54q-29 -7 -45 14.5t-8 56.5v-2l2 2q0 1 -0.5 4l-1.5 9l-2 12v2q-4 5 -4 29q0 1 -1.5 4t-1.5 6q-6 33 -31 60t-57 42q-4 2 -12 4q-6 0 -8 2 q-7 0 -12 5q3 0 -1 1q-3 2 -10 3q-3 0 -5 1t-5 1h-16q-2 -2 -19 -2l-1 -1q-1 -1 -5 -1h-20v-1q0 -1 -4 -1l-21 -7l-16 -8q-5 -1 -21 -6q-81 -30 -102 -119v2q-2 -2 -2 -14q-10 -40 -12 -53q0 -5 -1 -17t-1 -16q-13 -89 -13 -131v-70q0 -12 1 -31t1 -26v-45q0 -45 -2 -68 q41 41 86 60h-2q86 39 187 28q16 0 18 -2q71 -10 117 -47q40 -37 53 -63q37 -56 45 -127v-23q9 -102 -18 -196q-2 -2 -2 -11q0 -2 -2 -2l-17 -34q-20 -42 -58 -77t-85 -55h-2q-4 -4 -11 -4q-56 -18 -92 -18q-50 0 -71 8q-62 12 -95 33v-2q-54 30 -86 88q-27 59 -36 137 q-2 14 -2 47zM344 563q-77 -42 -123 -125q0 -50 4 -96q0 -75 8 -127q6 -35 29 -65q3 -6 7 -11.5t7 -9.5t9.5 -8.5t9.5 -7t12 -7.5t13 -6.5t15.5 -7.5t16.5 -8q47 -14 84 -14q54 0 99.5 23.5t70.5 68.5l6 6q2 2 2 4q6 14 19 53q0 10 6 19q0 1 1 2t1 2l-2 -2q8 48 12 127v22 q-3 61 -24 99q-10 20 -33 43q-24 26 -45 36t-57 15h-21q-78 0 -127 -25z" />
<glyph unicode="7" horiz-adv-x="747" d="M539 825l-4 -16v-4l-9 -23l-4 -10q-42 -128 -51 -176l-18 -53v2l-7 -27q-10 -37 -18.5 -80t-19.5 -112.5t-13 -79.5q-4 -48 -12 -64l2 2l-8 -65v-29q0 -11 -6 -29v-14q0 -21 -5.5 -36t-20 -19.5t-38.5 20.5q-14 14 -15.5 26.5t4 37t5.5 45.5q4 51 12 80q3 6 9 51v6l1 2 q1 2 1 6q0 21 2 23v2q0 1 1 4t1 6q3 65 12 92l12 51l19 68l6 35q7 45 22 92q3 9 7.5 25t7.5 24l26 84l17 45q0 8 6 17l6 14l14 37q45 137 105 217v31q0 3 1 8t1 8v6h-8q-57 0 -80 -2q-14 -2 -43 -2h-35q-4 0 -9.5 1t-8.5 1h-17q-50 4 -86 4q-67 0 -100 2h-35q-47 0 -78 6 q-7 16 -8 28t4.5 19t12 11.5t19 6.5t22 2.5t24.5 0.5h123q73 0 94 -4q16 -2 59 -2q49 0 76 2h21q3 0 9.5 1t10.5 1h33q3 0 6 -1t6 -1h14l37 -2q13 -29 13 -58v-10q-4 -28 -4 -51q0 -16 -7 -37l-14 -20l-6 -9l-10 -12q-21 -28 -56 -123l-18 -53l2 2q-5 -18 -14 -31z" />
<glyph unicode="8" horiz-adv-x="882" d="M154 379v6q0 15 4 36t4 23l8 33q0 40 35 78l33 35l16 18l31 17q-44 27 -54 43l-12 12q-38 47 -47 106l-6 33q0 1 -1 5t-1 7v25q-8 21 -8 72q0 32 4 37q0 1 1 1q1 1 1 5v8q0 34 18 76l8 18q31 95 111 141q3 0 6 3l8 2q7 4 26 9q4 1 3 1l27 6q13 1 23.5 0.5t22 0t17.5 3.5 h37l20 -8q1 0 3.5 -1t3.5 -1h10q54 -11 101 -47.5t69 -91.5q8 -23 12 -27l6 -16q13 -35 15 -56l-2 4l8 -37q0 -1 0.5 -3t1.5 -6.5t2 -8.5v2q2 -16 2 -41q0 -34 -14 -92q-2 -2 -2 -10q0 -2 -3 -2v-13q0 -45 -31 -92t-71 -74q8 -5 18 -14t27 -29t21 -24l10 -12q63 -84 63 -209 q0 -68 -22 -113l2 2q-2 -7 -7 -26.5t-7.5 -27t-8.5 -24t-12 -26.5t-15 -23.5t-21 -25.5t-27 -23l-13 -12l-14 -8l-27 -17q-44 -28 -80 -35l2 2q-17 -6 -55 -6q-107 0 -174 51l-14 13q-30 38 -31 39l-8 10q-87 116 -53 299zM225 358v-28q-11 -102 39 -209l4 -10l-4 12l37 -47 l12 -8l-2 2q49 -37 144 -37q38 3 80 35l20 12l27 24l6 9q5 8 15.5 25.5t14.5 24.5t11.5 20.5t11 22.5t8 21.5t6.5 24.5q0 12 3.5 35t3.5 35q0 41 -11 90t-30 73l2 -2l-15 19l-16 20l-29 33q-1 1 -11.5 11t-25.5 16h-8l-2 2q-10 -6 -70 -6q-4 0 -10.5 1t-9.5 1h-8 q-8 0 -22.5 4t-22.5 4q-25 0 -56 -17l-16 -12q-4 -4 -10 -11t-10 -12t-5 -6l-16 -16q2 0 2 -2l-4 -4v2l-8 -16q-3 -5 -8 -41l-6 -31q-3 -9 -3 -32.5t-8 -31.5zM332 678l12 -4q29 -23 84 -23h35q6 0 29 4l22 4h14q62 28 91.5 94t29.5 152q-6 6 -6 29v10q0 1 -1.5 12.5 t-3.5 25t-8.5 32t-15.5 33.5q-11 43 -44 73.5t-76 36.5l-31 8q-3 0 -6 -1t-4 -1q-3 0 -7 4h-18q-61 -3 -102 -22l-15 -6q-32 -25 -49 -68l-4 -8l-20 -88q-1 -9 -5 -32.5t-4 -32.5t7 -27l6 -47l4 -17q11 -71 26 -86l21 -24q16 -28 39 -31z" />
<glyph unicode="9" horiz-adv-x="872" d="M186 160v4q-2 2 -2 14v2q-7 28 -5 76t20 55q28 7 44.5 -15t8.5 -52v6q0 -1 -1 -3t-1 -3v-8q0 -1 0.5 -3.5t1.5 -8t2 -11.5q0 -1 1 -3t1 -3q2 -2 2 -21v-12q4 -32 25 -52.5t59 -41.5q4 0 7 -1l3 -1q2 -2 6 -2q1 0 4.5 -1t4.5 -1q4 -4 10 -4l2 -2q1 0 1.5 -0.5t2 -1 t4.5 -0.5h33l1 1q1 1 5 1v2h33l20 6l19 8q15 3 18 6q82 40 102 119l3 2q0 1 1 6t1 6q9 28 12 53q0 4 2 18t2 19q10 65 10 127v60q0 12 -1 30t-1 29v59v68q-14 -15 -45 -43v2q-101 -75 -223 -63q-17 0 -19 2q-78 13 -127 53q-12 12 -43 55q-39 56 -45 129v21q-8 90 25 194 l4 13l6 10q0 9 6 18l4 8q41 83 136 121l2 2l8 2l33 15l12 4l16 4q9 4 47 4h15q13 0 41 -4q64 -15 104 -37q45 -21 80 -80q28 -62 37 -137q2 -14 2 -47v-55q0 -3 1 -5.5t1 -5.5q4 -46 4 -78q0 -3 -1 -9.5t-1 -10.5v-66q-2 -23 -2 -59v-233q0 -55 -8 -76v4q-2 -2 -2 -6v-15 q-2 -2 -2 -10v-8q0 -3 -1 -6t-1 -6t-1 -7.5t-1 -7.5l-4 -22l-5 -17l2 3q-12 -64 -20 -76q-2 -2 -2 -6l-4 -4q-20 -65 -88 -105l-29 -14h4l-57 -27q-16 -6 -29 -6l-4 -2q-1 0 -5 -1t-7 -1h-72q-20 0 -22 2q-16 0 -29 8q-2 0 -19 10q-1 0 -6 2t-6 2q-96 35 -121 142zM594 739 l55 95q0 38 -2 61q0 86 -6 125q-11 43 -37 78q-10 19 -28.5 30t-53.5 23q-46 16 -82 16q-28 0 -30 -2l-27 -10q-6 -6 -18 -10q-72 -26 -97 -72q-8 -8 -8 -12l2 2l-16 -57l-8 -19h2q-18 -106 -19 -123v-24q3 -48 25 -97q15 -30 30 -45q10 -18 31 -28q50 -17 74 -19 q21 0 29 -2q81 0 114 23l19 12l16 21q9 3 12 12q6 6 11.5 10.5t8 6.5t3.5 5zM186 160l2 -4q0 2 -2 4z" />
<glyph unicode=":" horiz-adv-x="395" d="M186 84h23q9 0 15.5 -0.5t16.5 -2t15.5 -5.5t10 -10t4 -16.5t-6.5 -24.5q-19 -17 -53 -17h-31q-30 0 -49 17q-11 17 -8 28t7 17.5t16.5 9.5t20.5 3.5t19 0.5zM186 741h23q9 0 15.5 -0.5t16.5 -2t15.5 -5.5t10 -10t4 -16.5t-6.5 -24.5q-18 -18 -53 -18h-31q-31 0 -49 18 q-11 17 -8 28t7 17.5t16.5 9.5t20.5 3.5t19 0.5z" />
<glyph unicode=";" horiz-adv-x="419" d="M197 96h16q1 0 4 -1t4 -1h15q22 0 61 -16q-4 -18 -6 -46t-6 -40q0 -1 -1 -4t-1 -4q0 -3 1.5 -7t1 -7t-4.5 -7l-17 -98q-2 -7 -4.5 -21.5t-6 -26.5t-9.5 -28l2 2l-6 -24q-4 -12 -7.5 -19t-13.5 -13.5t-24 -6.5l-29 20q13 79 18 92q6 16 9.5 34t5.5 38.5t4 30.5q0 5 2 17.5 t2 16.5q0 1 1 3t1 6l2 20q0 17 -2 19q-3 0 -5.5 -1t-6.5 -1h-70l-4 34l4 33q69 6 70 6zM193 743h22q10 0 16 -0.5t16 -1.5t15 -5t10 -10t4.5 -16t-6.5 -24q-18 -18 -53 -18h-31q-31 0 -49 18q-7 14 -8 24t4 16t10.5 10t16.5 5t17 1.5t16 0.5z" />
<glyph unicode="&#x3c;" horiz-adv-x="802" d="M670 268v-24q-16 -31 -41 -31q-3 0 -21 6h-6l-72 41h2l-28 14l-113 62h2q-46 23 -53 29q-22 13 -23 16l-49 27l-20 12h2l-74 45l-6 4l-6 6q-6 0 -8 2q-16 3 -31 27q-2 15 1 44.5t9 39.5l25 16l98 70q19 12 47 28.5t47 27.5t29 18q2 2 9 7l13 9l62 41l2 2l6 4q11 11 16 10 l54 29l24 18q33 26 60 35q8 8 26 8q27 -19 27 -39q0 -26 -31 -41l-14 -6l2 2l-70 -47l-22 -10h4q-7 -4 -20.5 -14.5t-20.5 -14.5l4 4l-12 -8q-32 -18 -70 -45l-65 -45l2 2l-39 -22l-29 -19h2q-16 -10 -50.5 -30.5t-47.5 -30.5q-2 -2 -2 -4v-6q6 -3 18 -12t21 -13l30 -18h-2 l27 -15q23 -15 68 -39t53 -28l61 -35q8 -4 27 -16t32.5 -19.5t28.5 -13.5z" />
<glyph unicode="=" horiz-adv-x="1011" d="M858 805l21 -19q0 -34 -15 -43q-8 -8 -30 -8h-154l-18 -4h6q-23 -6 -76 -6q-27 0 -37 2h-33l-86 -4q-24 0 -74 -4h-10l-33 2h-129q-4 0 -6 1q-1 1 -2 1h-10l-2 -1q-2 -1 -6 -1q-17 0 -41 27q6 45 49 45h182q3 0 6.5 1t6.5 1h100q17 0 31 2q20 0 22 2q3 0 6 1t6 1h11 q2 0 4.5 0.5l5 1t6 -0.5t6.5 -3h17q48 0 98 6h178zM141 322l2 18q20 20 47 20h279q3 0 6 1t6 1q38 3 84 3q24 0 45 -3h47v-2l23 5l29 2l3 -1q4 -1 9 -1h10q3 -3 23 -3h28l1 2q1 1 5 1q14 2 46 2q26 0 55 -13q0 -38 -12 -47q-10 -10 -31 -10h-23q-18 0 -20 -2q-1 0 -6 -1 t-9 -1q-2 0 -4 -2h-2h-22q-25 0 -31 2h-45q-14 -2 -49 -2h-41q-3 0 -8 1t-8 1q-62 4 -95 -2q-4 0 -7 -1l-3 -1h-86q-1 0 -3 1t-3 1h-121q-43 0 -70 -2q-40 0 -49 33z" />
<glyph unicode="&#x3e;" horiz-adv-x="802" d="M135 231l4 27l101 55l86 49l63 35l117 68l29 16h-3q40 18 72 43l-1 4q-1 4 -1 7l-98 59h2l-31 16q-59 35 -98 68l-70 45l-14 10l2 -2l-37 25l-23 12h1q-12 8 -37.5 23.5t-36.5 23.5h-4q-35 15 -35 43q0 24 27 39l18 -2q52 -24 94 -55l39 -25q7 -6 31 -20l90 -60 q9 -7 117 -71h-2l14 -9l24 -14q49 -26 99 -68q4 -10 5 -23.5t0 -34.5t-1 -23q-9 -26 -31 -29l-16 -12l-8 -9l-43 -22l-27 -14l-16 -13l-48 -24q-3 -2 -14 -9t-14 -10q-30 -19 -47 -26l-117 -64l-25 -14h2l-75 -43h-6q-4 -1 -8.5 -2t-7 -1.5t-3.5 -0.5q-9 0 -13.5 1.5 t-11.5 8.5t-14 22z" />
<glyph unicode="?" horiz-adv-x="839" d="M596 1194l39 -39q17 -17 24 -29l11 -26q1 -3 2 -3t4 -3q7 -10 10 -31q0 -3 1 -7t1 -7l2 -5l1 -2q1 -2 1 -6q10 -54 0 -94v2q-23 -142 -139 -282l-8 -11l2 2q-3 -6 -12 -18t-13 -21l-26 -53v2l-7 -24q-35 -78 -38 -146v-8q0 -30 -11 -45q-11 -14 -28 -14l-15 2 q-21 11 -23 32t5 52q0 3 1 9t1 9q10 74 35 127q0 5 6 14l6 13l6 14q18 55 49 86l9 8l12 21q47 67 51 75q39 63 61 154q11 41 0 82q0 1 -1 4t-1 4v4q-6 19 -10 25l-8 14q-13 42 -55 68t-90 31q-2 2 -11 2h-10q-3 0 -4 1t-4 1h-21l-18 -4q-3 0 -6.5 -2t-5.5 -3l-17 -6 q-135 -59 -135 -190v-6q2 -18 2 -36t-14 -29.5t-39 -6.5q-33 26 -23 76q0 1 1 2t1 2q-2 30 15 100l6 6v4l22 43l9 9q49 62 96 80l37 16l16 4l21 8q18 0 20 2l21 2h22q23 0 33 -2q1 0 1 -1q1 -1 5 -1q1 0 6 -1t8 -1q2 -2 7 -2l20 -4q51 -10 84 -43zM436 55v-24 q0 -11 -0.5 -19t-3.5 -20.5t-9.5 -16t-17.5 -6.5t-28 8q-19 19 -19 54v30q0 31 19 50q14 6 24.5 6.5t16.5 -4.5t10 -10.5t5.5 -15t2 -16.5t0.5 -16z" />
<glyph unicode="@" horiz-adv-x="1812" d="M1686 745v-8q0 -7 2 -23t2 -24q0 -99 -43 -209t-95 -162l-14 -18l-8 -16l-12 -17l-9 -10l-8 -12l-28 -23l-70 -33q-18 -6 -21 -6l-53 -14q-4 0 -6 -2q-233 0 -233 207q-27 -27 -73.5 -58.5t-64.5 -31.5q-10 -5 -41 -13l-12 -4l-12 -4q-33 -10 -78 -10h-14q-51 3 -84 29 l2 -2q-12 6 -24.5 16t-18 15t-21 21t-16.5 17l-10 23q-7 7 -7 8l-26 53q-17 48 -19 70v20q0 3 -1 11t-1 12q0 81 43 188v8l4 11q34 76 104.5 125t160.5 49q54 0 106 -25l14 -4q11 0 25 -7.5t23.5 -15t31 -26t31.5 -27.5q6 3 8 9t3 15.5t3 14.5v19q0 63 54 63q2 0 7 0.5t7 0 t4 -4.5t2 -12q0 -48 -8 -108t-10 -79l-15 -135q-4 -9 -5 -30t0 -54t1 -39v-57q-3 -64 11 -102l10 -33v2l12 -14q11 -21 44.5 -32t59.5 -11h13q23 5 39 9.5t38 15t43.5 29.5t41.5 46l8 10l-2 -2l26 37l17 22q9 14 35 72l8 21q45 91 45 200q0 62 -19 147.5t-55 153.5l-35 84 l2 -6q-94 119 -215 178q-12 0 -14 2l-27 7l-18 6q-6 0 -8 2h-6q-3 0 -5 2q-80 22 -170 22h-18q-2 2 -31 2q-25 0 -74.5 -10t-87.5 -10l-94 -16q-3 -3 -18 -3l-12 -4h6q-26 -7 -67 -25.5t-71 -33t-32 -14.5l-45 -33l-27 -27l-18 -24l-52 -70q-8 -8 -8 -10l-28 -47 q-38 -50 -93 -170v2l-10 -29l-8 -22v2l-8 -27l-4 -4q-8 -11 -12 -19.5t-4.5 -12.5t0.5 -10t1 -7l-6 -35q0 -3 -1 -7t-1 -7l-6 -31q-16 -82 -16 -139q0 -165 26 -236v2l27 -45q3 -4 5 -13.5t5 -13.5v3l19 -35q14 -25 30 -45t39.5 -45.5t36.5 -40.5l18 -17q37 -33 115 -84 q11 0 19 -8l172 -45h2q11 -4 67 -4q38 0 56 2h34q3 0 13 1t18 1h16q8 2 39 2h9l3 1q3 1 7 1h12q7 0 30 9.5t38 9.5q19 0 34 -29q-8 -52 -61 -55h-20q-4 0 -8 -1l-3 -1h-6q-19 -5 -49 -5h-27q-4 0 -12 -1t-12 -1h-23q-62 -4 -100 -4q-7 0 -20.5 1t-20.5 1h-8q-3 0 -9.5 2 t-9.5 2h-8q-44 0 -121 31l-34 12q-14 0 -21 7l-10 6h2l-29 8q-38 17 -80 53l-47 41l-4 6h-4q-2 0 -2 2l-43 47h2l-53 54l-6 8q-8 7 -9 12l-22 37l-12 31q-28 46 -42 81.5t-20 82.5l-4 30l-1 4q-1 4 -1 9v8q-4 28 -4 49v59q-3 68 12 140l21 104q0 14 4 28t11 31.5t9 24.5 l11 33l36 82l8 19q8 19 21.5 44t26.5 39l51 74l18 26l25 37l27 29q35 45 61 63l12 11q25 25 58 32l41 23h-3q14 8 51 21t48 18l18 6q45 14 139 25h17q52 14 135 14h41q8 0 10 -2h15l3 -1q4 -1 9 -1h12q150 -8 257.5 -51.5t199.5 -147.5l6 -6q5 -8 16.5 -22.5t12.5 -14.5v2 q17 -29 20 -37v2l12 -30l5 -15v4q9 -28 29.5 -78.5t25.5 -64.5l6 -24v2q18 -59 20 -109v-18q0 -1 1.5 -3.5t1.5 -3.5zM1092 592l6 43q0 9 4 27t4 26q0 37 -39 76l-20 20q-22 22 -69 46t-93 24h-23q-56 0 -122.5 -61t-73.5 -138q0 -18 -9.5 -51.5t-9.5 -48.5v-27q0 -3 -1 -10 t-1 -10q0 -18 21 -64q31 -55 65 -86.5t84 -31.5h12q11 2 26 4t25.5 4t20.5 6h-2l31 12q97 52 141 101l21 22v103q2 2 2 14zM1538 301l4 4l-4 -6v2z" />
<glyph unicode="A" d="M801 111v-7q7 -11 10 -43q0 -1 1 -4t1 -4q3 -22 -2 -30q-7 -17 -22.5 -20.5t-32.5 7.5q-8 9 -12 15t-5 8.5t-1.5 5.5t-2.5 6l-2 2q-4 20 -4 21l-4 12l-6 31q0 1 -1 5t-1 5v12q-1 1 -1.5 4t-1 7t-1.5 6l-4 26v-6q-19 56 -33 131q-107 0 -170 -6q-96 -8 -215 -8h-41 l-14 -66l-19 -94q0 -3 -1 -12.5t-1 -12.5h-4v-10q-2 -2 -2 -16l-6 -53q-9 -24 -37 -27q-22 -3 -43 24v15v2q0 1 1 3t1 3l6 43q4 48 8 57v13l19 86l20 108l23 86l8 31l22 90l19 82l49 229l6 33q0 1 1 4t1 4q9 60 35 133h-2l12 43l19 72q0 34 13 60t44 22h47l47 -8l49 -164 l2 -18l5 -9v4l45 -182l-2 2l12 -41l26 -90l27 -98v2q3 -12 12.5 -38t14.5 -48l16 -78l4 -20q0 -5 4 -25l4 -29l7 -37q17 -69 20 -81l23 -121q0 -22 10 -49zM270 383l-6 -16h43q119 0 182 6q68 8 177 8q-21 115 -101 383q-8 23 -18.5 69t-11.5 50v-2l-23 92l-16 57l-2 17 l-7 18l-8 18l-22 74h-8q-1 -18 -6 -38.5t-5 -22.5l-10 -21q-2 -2 -2 -4l-4 -14v-6l-12 -56l-7 -26q-55 -206 -73 -338l-6 -17l-25 -125q-13 -55 -29 -106z" />
<glyph unicode="B" horiz-adv-x="892" d="M766 379v-8q4 -28 4 -45q0 -37 -7 -69t-13.5 -51t-6.5 -24l-4 -8q0 -27 -16 -43v-2q-16 -34 -57.5 -64t-61.5 -30l-8 -4q-4 -1 -12.5 -5.5t-16.5 -5.5q-48 -14 -176 -18h-20q-49 0 -72 -2h-51q-2 2 -27 2h-18q-29 0 -44.5 17t-15.5 42q0 9 4 37v-4q0 1 1.5 3t1.5 3v109 q0 54 -2.5 170t-2.5 174v33q0 97 5 131q0 7 -1.5 32t-1.5 37v56l-1 2q-1 2 -1 6v96q0 3 1 6t1 6v9q0 1 -1 4t-1 6v59q0 67 7 88v13q0 25 4 30v9q0 25 18 49h33q1 0 4 0.5t8.5 1.5t11.5 2h13q23 0 37 2h26q1 0 4 1t6 1h21q76 0 94 -4h-2q2 -2 10 -2h9q115 -10 169 -41l17 -17 q25 -28 78 -104v-2q28 -61 28 -160q0 -91 -34 -182l-29 -49l-21 -31l2 2q-19 -33 -20 -33q20 -10 29 -28l12 -17l27 -26q0 -7 8 -15l10 -18q6 -7 9.5 -14.5t6 -17t4.5 -13.5l5 -23v4l10 -32q0 -21 2 -23zM686 281l2 6q-4 19 -6 67.5t-12 71.5q-3 18 -12 31t-9 16l-12 19 q-2 3 -8.5 11t-8.5 10.5t-8 9.5t-8 9.5t-7 7.5t-8 7t-7.5 5.5t-8.5 5t-8.5 3t-9.5 2.5q-6 0 -21 -3t-28 -3h-283q0 -5 -1 -14.5t-1 -14.5q0 -58 3 -169.5t3 -168.5v-88q0 -16 -2 -18v-4q6 0 8 2q2 -2 5 -2h8h110q115 0 203 22l39 9l10 4l-8 -2l12 8q34 9 43 55l7 4l18 68 l6 29v4zM227 1139v-21q-2 -23 -2 -59v-422h279q26 0 47 8l4 4q14 6 25 21l12 10l-6 -10q4 0 4 4l10 24q30 40 47 98.5t17 114.5q0 47 -11 95l-6 12q-4 4 -4 10q-10 14 -28.5 43.5t-28.5 42.5l-13 6q-102 33 -299 33h-45v-4q0 -3 -1 -5t-1 -5z" />
<glyph unicode="C" horiz-adv-x="831" d="M709 328v-115q-3 -39 -19 -68v2l-8 -14q-44 -79 -100 -98h2l-15 -6q-2 -1 -13.5 -6.5t-19.5 -8.5t-20.5 -6.5t-21.5 -3.5l-27 -6q-24 -6 -53 -6h-21q-110 12 -194 96l-13 14q-5 5 -11.5 17.5t-6.5 19.5l-10 17q-6 10 -9 18.5t-4.5 20t-3.5 18.5l-4 55q-6 16 -6 51v19 q-4 70 -4 125q0 51 2 74v2q-2 6 -2 22v21q-4 78 -4 139v22q1 -1 1 -5l1 -6v1v72q3 31 2.5 98t3.5 92l2 4l4 19l-2 -2q15 70 25 80v2q57 102 145 127q8 0 14 6q58 14 109 14q61 0 116 -25t85 -63l16 -18q38 -53 47 -148v-37q0 -3 1 -6t1 -6q0 -51 -45 -51q-9 0 -15.5 4 t-10 11t-5 13t-2.5 13l-2 8v27q-6 82 -31 121.5t-83 66.5h4q-36 12 -78 12q-36 0 -74 -12h-6q-2 -2 -12 -2q-57 -20 -96 -80v2l-13 -33v2q0 -1 -1 -3t-1 -3l-4 -18q-16 -38 -16 -92q0 -4 1 -14t1 -15v-12q0 -51 -2 -74v-84q0 -96 2 -143v-21v-2q0 -2 2 -4v-20q0 -1 -1 -4 t-1 -7v-28q0 -12 -1.5 -42.5t-0.5 -49.5q0 -45 2 -68v-14q1 -59 16 -117l15 -37v2l26 -43q42 -52 158 -63h6q1 1 9 1.5t22 3.5t28 9l37 8q2 0 4 2l19 8h4q6 0 8 2h-4l4 4q26 8 55 64v-2l9 12l4 21v4q0 6 4 10v2q4 9 4 47v66q4 16 16.5 24t26.5 8q33 0 33 -34zM223 1038l2 4 q0 -2 -2 -4z" />
<glyph unicode="D" horiz-adv-x="870" d="M152 1198l12 19q36 14 98 18h17q31 2 100 -2q1 0 3 -1t3 -1q16 -2 48.5 -2.5t56 -4.5t42.5 -14l15 -4q7 0 16 -6l19 -6q43 -14 73 -64l15 -16l12 -16q10 -19 29 -70q4 -32 4 -59v-19q0 -1 1 -1t1 -1q6 -39 6 -131q0 -67 2 -100q0 -45 2 -70q4 -50 4 -78v-73q-3 -42 0 -82 v-88q0 -27 -2 -37q0 -4 -2 -16.5t-2 -16.5l-4 -25l-8 -41q-11 -18 -11 -22q0 -1 -1 -2t-1 -2v-4l-2 -2l-14 -35q-24 -46 -84.5 -81t-118.5 -40q-14 -2 -43 -2q-3 0 -5.5 -1t-6.5 -1h-35q-36 0 -98 4h-31q-61 0 -88 -2l-27 27v61h3v18q-3 3 -3 21q0 1 -1 4t-1 6v25 q-2 23 -2 88q0 76 2 117v24q0 3 1 7.5t1 7.5v83q0 3 -1 6.5t-1 6.5v39q0 84 2 131v254q0 52 3 110v-2q2 47 2 164zM598 1081l-16 21l-2 2v2l-13 8l-4 4q-28 0 -39 8l-12 4q-28 16 -94 19q-1 0 -5 1t-5 1q-2 2 -29 2q-46 4 -62 4q-41 0 -88 -6v-186q-4 -250 -4 -379v-271 q-2 -31 -2 -82q0 -52 2 -83v-68h43l2 -1q2 -1 6 -1h27q50 -4 68 -4h43l1 1q1 1 5 1q31 0 45 2q2 -2 29 -2q37 2 68 21t44 53l6 14l9 14l10 27q0 8 6 18l4 11q0 22 6 30v4v2q2 0 2 2q0 9 2 11l-2 -2q1 6 2 11.5t1.5 8.5t0.5 6v170q0 15 -2 29v35q0 34 -4 100q0 3 -1 12t-1 13 v18q-4 78 -4 133q0 49 -4 135q-4 67 -21 97q-10 13 -14 24q0 2 -2 4z" />
<glyph unicode="E" horiz-adv-x="849" d="M662 1223h55q20 0 35 -9q16 -10 16 -34q-3 -16 -10 -23.5t-13.5 -8.5t-21.5 -1h-59q-36 0 -52 2h2q-82 4 -118 4h-31q-5 0 -15.5 1t-15.5 1q-16 2 -49 2h-23q-4 0 -12 1t-12 1h-27q-3 0 -7 1t-7 1h-37q-8 -2 -35 -2h-2v-14q-2 -31 -2 -96q0 -48 4 -150q0 -13 1 -40t1 -40 q4 -31 0 -59v-58q0 -7 1 -19t1 -19h15l178 -5h63q24 3 56 3h47v-3h7.5h8.5t7.5 -0.5t8 -2t6.5 -3.5t6.5 -5.5t4.5 -8.5q9 -21 0 -41q-12 -18 -41 -18l-5 1q-5 1 -9 1l-2 2q-16 2 -52 2q-32 0 -55 -2h-121q-5 0 -15 1t-15 1q-46 0 -62 2h-29v-56q0 -4 -1 -7l-1 -3v-26 q-4 -28 -4 -39v-31q0 -4 1 -7l1 -3q-2 -31 -2 -90q0 -7 -1 -25t-1 -25v-38q0 -23 2 -25v-20q0 -21 -0.5 -46t-0.5 -41.5t1 -33.5h86q4 0 12.5 1t12.5 1h33q3 0 5 1t5 1h96q125 0 197 -2q2 -2 14 -2l2 -1q2 -1 6 -1h13q27 0 45 -21q6 -14 6 -22q-9 -31 -56 -31h-8 q-3 0 -6.5 1t-7.5 1l-2 1q-2 1 -6 1q-78 4 -131 4q-46 0 -148 -4h-76q-14 -2 -55 -2h-29q-1 0 -3 -1t-3 -1h-20q-34 0 -43 12q-12 20 -12 66v35q0 3 -1 8t-1 8v115q0 16 3.5 61.5t3.5 82t-7 58.5q0 20 3 51t3 46q0 1 1 5t1 7q2 16 -2 59v27q-6 31 -6 102q2 47 -3 174 q-4 78 -4 129q0 59 2 82v45q0 1 1 3t1 6q-4 38 22 50t64 5q1 -1 6 -0.5t9 0.5q8 2 26 2h31q86 -4 119 -4q124 0 190 -6q14 -2 48 -2z" />
<glyph unicode="F" horiz-adv-x="827" d="M150 84q0 4 -1.5 12.5t-1.5 12.5v71q-4 77 -2 115q2 23 2 76q0 5 1.5 15t1.5 15q6 72 6 213v84q-2 39 -2 105q0 71 2 112v11q0 16 1 50t1 50v35q0 113 8 170q78 4 98 4h90q3 0 8.5 -1t8.5 -1q35 -2 110 -2q23 -2 64 -2q3 0 9 -1t9 -1h53q49 0 72 -2q37 -5 53 -21 q10 -24 -4 -43q-8 -14 -30 -14h-21q-2 0 -2 2q-66 8 -197 8h-20q-72 0 -111 2t-108 2h-15q-2 -33 -2 -104v-23q5 -28 0.5 -126t-4.5 -124v-108h21q4 0 11.5 -1t10.5 -1h64q14 -2 37 -2h41q19 -2 67 2q28 4 56 4q1 0 1.5 0.5t2 1t4.5 0.5h12q19 0 47 -4q10 -6 21 -31.5 t0 -36.5q-16 -8 -45 -8h-35q-26 2 -82 -2q-23 -2 -76 -2h-39q-3 0 -6 1t-6 1t-7 -0.5t-7 -1t-7.5 0.5t-9.5 3h-43q-3 0 -5.5 -1t-6.5 -1h-17v-2q0 -29 -2 -39q0 -62 -2 -80q-6 -79 -6 -172q0 -41 4 -151v-33q0 -5 1 -24.5t0.5 -33.5t-3.5 -24q0 -20 -13.5 -34.5t-41.5 -14.5 q-24 21 -21 78q3 3 3 16z" />
<glyph unicode="G" horiz-adv-x="888" d="M735 53l2 -14q0 -2 2 -4q0 -1 1 -3t1 -3q7 -11 1.5 -23t-29.5 -22q-7 -3 -13 -1t-10 1.5t-8 3.5t-6.5 4.5t-5 6t-3.5 7.5t-2.5 8t-2 8.5t-1.5 9t-2 9.5l-4 14q-2 2 -2 8l-8 29l-14 -16q-29 -38 -68 -49l-22 -9l2 2q-56 -16 -103 -16q-48 0 -67 6h-6q-1 0 -4.5 1t-4.5 1 h-12q-3 0 -7 1t-7 1q-3 1 -8.5 1t-11 1t-11.5 4l-33 11h-4l-37 20l-12 10l2 -2q-3 3 -9.5 8t-10.5 9q-12 9 -25 30q-35 43 -39 146q-5 20 -7 44t-2 40.5t0.5 45.5t0.5 42v61v58q-2 10 -2 39v139q3 33 2 93t2 91q0 3 1 8.5t1 8.5q1 14 6.5 44t5.5 44q15 58 19 69l28 56v-2 l17 22l4 4q24 30 98 66h10l35 10q13 8 54 8h10q48 0 96.5 -13.5t75.5 -33.5h-2q40 -24 76 -86q17 -31 25.5 -50.5t14.5 -54.5t3 -77q0 -15 -2.5 -25t-14 -19.5t-33.5 -9.5q-16 3 -23 14t-6.5 26.5t3.5 35.5l2 4q-3 59 -33 117l-16 19l-17 24q-19 24 -24 27q-25 18 -123 30 q-12 0 -66 -12h-2q-8 -6 -33 -12l-12 -4l8 2q-44 -24 -54 -40q-3 -4 -5 -9v2l-18 -29l-5 -4q0 -1 -1 -5t-1 -5q-2 -2 -2 -11q-2 -2 -2 -14q0 -3 -1 -8t-1 -8q-6 -30 -6 -31q0 -3 -1 -5t-1 -3q-2 -2 -2 -8l-6 -29l-6 -64q-4 -21 -4 -81q0 -3 1 -25t1 -57q-3 -17 2 -58 q4 -28 4 -45v-33q0 -26 -2 -36v-76q0 -19 1 -48t1 -34v-39q2 -14 2 -43v-31q0 -26 2 -28q-2 -38 20 -90l19 -21q2 -5 20 -12q6 -6 27 -13q6 -6 10.5 -9t6 -3h3.5h4l46 -8h8q3 0 7 -1t7 -1q2 -2 16 -2q68 -10 117 10l33 16h2l35 35q22 17 28.5 42.5t6.5 64.5v33q0 1 -1 4 t-1 4v26q0 27 2 41v45q4 84 2 129q-33 0 -56 2q-9 3 -16 3h-41h-6q-20 0 -30.5 1t-21 9.5t-10.5 25.5q0 42 82 37h13q2 -2 18 -2q9 -3 25 0q28 0 30 2h25q23 0 36.5 -5.5t26.5 -24.5v-25q0 -90 -2 -141v-115q2 -18 -2 -66q-10 -50 9 -81l-5 2l29 -93q0 -1 1 -3t1 -3q0 2 2 0 z" />
<glyph unicode="H" horiz-adv-x="901" d="M145 852v94q0 12 1 37t1 37q5 73 3 96v60q-1 13 -0.5 23t9.5 18.5t27 15.5q42 -17 37 -74q0 -18 -2 -20q0 -29 2 -35v-45q-6 -96 -6 -244v-110v-64h29q56 0 192 4h78q110 4 158 4v15q0 3 -1 6t-1 6v24q0 57 2 82v9q0 4 -1 8.5t-1 7.5q2 23 2 61q0 4 1 10.5t1 14.5v16 q2 31 -2 113v160v8.5v8v6t0.5 6t1.5 5t2.5 5t3.5 4t5 4.5t6.5 4t8.5 4q21 6 37 -10q11 -15 11 -37q0 -7 -1 -18.5t-1 -18.5v-35q0 -3 1 -15t1 -20v-49q2 -23 2 -47q0 -47 -2 -63v-88q2 -31 -2 -91q-3 -35 -3 -59v-4h3q9 -26 0.5 -88.5t-3.5 -93.5v-23q0 -3 1.5 -6t1.5 -6 v-131q2 -31 2 -84v-109q0 -3 1 -6t1 -6v-10q0 -3 1 -5t1 -3v-21q0 -3 1 -10t1 -10q4 -32 0 -60q-16 -33 -29 -33h-2q-9 0 -16.5 2t-12 4.5t-8 7.5t-5 8t-2.5 10.5t-1 10v10.5v9v16q-2 8 -2 41v31q0 19 -2 25q0 7 1 19t1 19v39q0 26 -4 88v48q2 18 2 69q-2 8 -2 35v8 q-2 0 -2 2v6v13q0 7 -1 37.5t-1 39.5h-6q-52 0 -166 -4q-8 0 -24 -1t-23 -1h-185q-8 0 -10 -2h-29q-1 0 -4 1t-4 1q-2 -47 -1.5 -68.5t3.5 -67t4 -73.5v-63q4 -78 4 -131q0 -7 1 -18.5t1 -18.5v-113q12 -35 -26 -51q-47 0 -47 47q-2 18 -2 64q2 18 2 51v16q0 3 -1 9t-1 10 q0 19 -2 33q-4 126 -4 200v8q0 3 -1.5 9t-1.5 10v29q0 8 -1 28t-1 27v115q0 8 -1 27.5t-1 31.5v55q0 84 2 117z" />
<glyph unicode="I" horiz-adv-x="335" d="M129 475v2q0 3 -1 7.5t-1 7.5v43q-4 62 -4 110v107q2 49 2 118v111q0 7 1 22.5t1 22.5q0 4 1 12.5t1 12.5v75q-2 14 -2 41q0 2 -1 5t-0.5 6.5t3.5 7.5q6 39 29 49l14 -1q15 -1 21 -1q8 -23 8 -47v-168q-2 -47 -2 -137v-35q0 -4 -1 -11t-1 -10v-137q0 -111 6 -219v-209 q-8 -36 2 -90v2q11 -47 2 -115v-26q5 -19 -1.5 -31.5t-33.5 -22.5q-14 0 -37 23v45q2 43 -2 133q-3 14 -3.5 27.5t0.5 32.5t1 28v123q0 55 -2 86z" />
<glyph unicode="J" horiz-adv-x="831" d="M125 336v76q0 17 1 25.5t6 20t18 16.5t34 5q22 -28 19 -55v-33q0 -3 -1 -7t-1 -7q-4 -88 -2 -137q0 -25 2 -27q0 -16 6 -37l6 -18q17 -41 74 -70q7 -5 26 -10h-2q28 -4 45 -4q23 0 39 2q3 0 12 1t15 1l1 1q1 1 5 1l2 2h29l24 8l11 2q3 1 10 6h2l20 8h-6l25 15l18 24h-2 q26 41 39 152v63l1 3q1 3 1 6q0 8 2 27t2 32l1 3q1 3 1 7v230q-2 2 -2 22q0 3 -1 5t-1 5v11q-8 117 -8 301q0 98 2 145h-10q-31 0 -41 2h-60q-5 0 -15 1t-17 1h-140q-24 0 -45 21q0 1 -1 8t-1 8v6q9 31 45 31h199q51 0 66 -4h30q47 0 68 -21v-16q0 -3 1 -11.5t1 -11.5l-2 -2 q-2 -23 -2 -63q0 -46 -2 -62q0 -7 1 -31t1 -36v-84q4 -62 4 -102v-58q0 -3 1 -7t1 -7q2 -8 2 -35v-25q0 -1 1 -4t1 -4v-28q0 -5 1 -13t1 -12q5 -78 -2 -115q0 -1 -2 -29.5t-2 -72.5q0 -3 -1 -6t-1 -4v-29q-2 -14 -2 -33q0 -4 -1 -9.5t-1 -8.5v-21q-6 -53 -8 -61q0 -3 -1 -8 t-1 -8q-5 -5 -5 -11l-8 -18l2 8q0 -1 -1 -3t-1 -3l-10 -33q-4 -13 -31 -51l-24 -25q-19 -19 -41 -22l-15 -8l-20 -9l-16 -4l-15 -4l-14 -4q-6 -2 -25 -2h-16q-32 -4 -59 -4h-11q-28 0 -39 4q-27 0 -47 12q-43 19 -81.5 58t-51.5 80v-2q-4 8 -8 36q0 3 -1 5.5t-1 5.5 q-2 8 -2 37v92l1 2q1 2 1 6z" />
<glyph unicode="K" horiz-adv-x="897" d="M756 66h-2q19 -38 19 -49q-1 -7 -5 -17q-9 -18 -31 -18q-29 0 -49 51l-29 61l-81 174q-2 3 -9 14.5t-10 14.5l-37 72v-2q-8 19 -26 53.5t-25 48.5l-45 86v-2l-49 90l-10 25l-21 37l-2 -5l-41 -41v3l-59 -56l-25 -24q-3 -34 0 -60q2 -23 2 -67v-68v-88q2 -31 2 -104v-39 q2 -31 2 -99v-28q0 -43 -41 -43q-7 3 -11.5 7t-7.5 6.5t-5 8t-3 7.5t-2.5 9.5t-2.5 10.5q-4 21 0 43v6q0 3 1 7t1 7q2 14 -2 41v37q-2 16 -2 62q3 27 0 57q0 13 -3 16q0 1 -1 6t-1 9v104q0 4 1 14t1 17q0 5 -1 13t-1 13v29v121q0 33 2 49v107q-2 23 -2 67v66q2 18 2 51v237 q0 18 7 27q9 22 49 16q12 -10 13.5 -13.5t6.5 -24.5v-203q-4 -111 -2 -166q0 -23 2 -37v-37q0 -8 1 -17t1 -14v-55l25 23q36 24 92.5 98t79.5 119l6 12v-2l61 84q9 11 25 29.5t22.5 27t18 24t23.5 32.5q3 9 10 16l4 6l10 17q1 6 4 10.5t7.5 10.5t7.5 11l-3 -2q18 31 44 31 q15 0 30 -18q5 -8 7 -14.5t-2 -16.5t-5.5 -13t-9.5 -18q-14 -14 -23 -35l-8 -12l4 4l-24 -33l2 4h-2l-13 -22l-14 -16l-24 -33l-33 -37l-82 -121l-27 -43v2l-16 -20q-8 -14 -23 -29q15 -27 41.5 -78.5t42.5 -79.5l21 -37v2q65 -118 162 -321q0 -6 4 -10q3 -12 6 -15l16 -32 q13 -33 64 -129z" />
<glyph unicode="L" horiz-adv-x="778" d="M225 -4h-26q-27 0 -43 29v28l2 -2v39q2 80 2 236v82q-2 43 -2 143q0 137 -6 211v29q0 5 -1 14t-1 16q-5 46 -5 170v150q0 44 -2 67q12 22 31 31h25q20 -20 20 -53q2 -27 2 -90v-56q-2 -41 -2 -118l6 -127l6 -133q0 -8 1 -19t1 -16v-125q5 -148 5 -205q0 -45 -2 -68v-61 q0 -3 -1.5 -6t-1.5 -6v-84h9q3 0 6 1t6 1q4 0 12.5 1t12.5 1h94q65 -6 127 -6q8 0 38.5 -1.5t48.5 0t29 7.5h31q24 0 39 -15q12 -12 6 -36q-10 -23 -35 -23h-14q-33 0 -49 -2q-3 0 -7 -1t-7 -1h-168q-3 0 -8.5 1t-8.5 1q-16 2 -41 2q-20 2 -57 -2q-14 -2 -51 -2 q-19 0 -21 -2z" />
<glyph unicode="M" horiz-adv-x="1206" d="M1061 809v-328q0 -31 -2 -45q0 -91 -8 -127v-26q-2 -31 -2 -80q0 -3 -1 -9l-1 -6v-41q-4 -47 -3 -59q0 -11 3 -14q0 -84 -22 -93q-17 -6 -44 21q-8 13 -8 41v29q-2 14 -2 43q4 94 4 147v51q0 1 4 21q3 17 4 36t1 42.5t1 36.5q0 5 1 19t1 19q2 6 2 33q0 30 -1 107t-1 104 v121q-2 23 -2 74q0 7 -1 18.5t-1 18.5v30q-2 31 -2 109v74q-3 0 -7 1t-5 1t-5.5 1t-5.5 1q-3 0 -5 1t-5 1l-2 -11q0 -3 -1 -7t-1 -5q-2 -2 -2 -6l-27 -80l3 2q-3 -20 -31 -102l-2 -4q0 -1 -1 -4t-1 -4l-2 -3l-17 -55v4q0 -1 -1 -3t-1 -3l-22 -65q-25 -48 -52 -156l-10 -43 l-24 -59q-2 0 -2 -3q0 -1 -1 -3t-1 -3q-4 -5 -13 -30l-2 -11l2 2q-3 -14 -12 -26l-12 -45l-17 -47l-6 -19h2l-18 -61l-8 -8q0 -1 -1 -9.5t-1 -9.5l-11 -12q-3 -3 -6 -13.5t-6 -15.5q-13 -22 -29 -35q-58 -22 -77 50l2 -3q-2 2 -2 9q0 1 -3 4h3l-3 4l-10 26v5l-4 24 q-6 21 -6 27l-2 4q-5 0 -7 1t-2 2.5t0.5 6t0.5 8.5q-10 20 -13 35l-22 78l-6 14l-4 21v2q0 1 -0.5 1.5t-1 2t-0.5 4.5v4q-3 3 -4 6.5t-1 8.5t-1 8l-7 20l-8 23q0 1 -1 3t-1 3l2 -8q-7 5 -10 41l-4 14l-4 10l-6 23v-2q-26 57 -35 108h2l-25 66l-18 57v-2l-12 33l-15 43v-2 l-20 57l-27 88q-3 3 -3.5 5t0.5 4.5t1 4.5h-35q0 -47 2 -61q0 -59 -2 -90v-143q-2 -35 -2 -97v-20q0 -54 4 -72v-39q0 -5 1 -13.5t1 -12.5v-70q5 -79 2 -129v-25q0 -3 -1 -5t-1 -3v-57q2 -8 2 -29v-37q0 -4 -1 -10.5t-1 -9.5v-27q-2 -2 -2 -12q0 -3 -1 -5t-1 -3v-25 q-2 -2 -2 -16q-4 -79 2 -109l2 -12v-8q0 -40 -20 -48t-43 17q-12 12 -12 41v6q-5 12 -5 45v41q0 1 1 1q1 1 1 5q0 55 3 117q2 2 2 14q0 74 2 113v47q0 74 -2 113q0 4 -1 10.5t-1 9.5v45q-3 0 -3 2v4v25q0 59 -2 90t-2 94q0 47 2 70v135q0 4 1 18t1 23v39q3 16 0 33v22 q0 33 7 54q4 6 9.5 10t13 7.5t9.5 4.5q6 2 29 2h92l15 -33l4 -4l4 -18q0 2 2 0q0 -4 2 -4l18 -62l-2 2l8 -20v2l15 -39q34 -102 64.5 -202.5t43.5 -133.5l4 -8q35 -142 56 -203l-2 2l20 -67q1 -8 8 -27l4 -12l-2 8l11 -21l14 -39v-10l10 29l14 35l7 20l8 21l12 35h-2 q5 20 39 112q7 10 25 72l2 2q0 1 1 5t1 5l20 62l6 20l4 12v4q17 52 29 80v-2l10 27l2 4l4 12l9 27h-2q11 37 45 133l4 14q4 31 20 78l8 23v4q7 14 7 22q1 11 2.5 17t5.5 13.5t14 11t25 3.5q35 0 49 -2q1 0 4 -1t6 -1t8.5 1t8.5 0.5t6 -3.5h2q1 0 3 -1t3 -1h14q2 -2 16 -2 q13 -44 13 -131v-117q6 -49 6 -108v-51q0 -5 -1 -14t-1 -13zM608 299h-2q0 -4 2 -4v4z" />
<glyph unicode="N" horiz-adv-x="964" d="M150 51l-5 51q0 3 -1 8.5t-1 8.5v35q0 23 4 69q3 24 3 39v14q0 42 6 91q4 28 4 47q1 17 -2 57q0 1 -1 4t-1 6v107q0 4 1 11t1 11v49q-8 156 -8 357v39q0 120 4 151q25 21 48 24t41 -11t33 -33.5t26.5 -47t18 -47.5t11.5 -40v2l20 -47q31 -69 31 -70v2q4 -9 15.5 -34.5 t21 -48.5t16.5 -44v2l78 -182l18 -29l27 -63l31 -82q9 -35 28 -66l31 -74l4 -10l-2 8l4 -10l7 -18q9 -12 12 -21q1 -1 1.5 -3.5t1 -4.5t1.5 -2l18 -41l15 -37l16 -35v2l4 -10q3 -11 6 -14l6 -15v222q0 27 -2 41v39q0 19 -4 65q-2 41 -2 129v10q0 4 -1 12.5t-1 12.5v61 q-2 14 -2 54q-2 57 10 155q2 23 2 68v37q0 3 1 8t1 8q3 3 3 25v63q-5 76 0 101q20 20 32 20q8 0 31 -10q8 -23 8 -47q-2 -2 -2 -6l2 -50q0 -3 1 -8t1 -8v-35q0 -11 -1 -34t-1 -35q-2 -16 -2 -50v-10q0 -40 -6 -86q-4 -32 -4 -49q-3 -43 0 -84v-74q0 -61 2 -92q8 -164 8 -352 v-39q0 -117 -4 -148q-12 -26 -36 -29.5t-46 7.5q0 -2 -20 -2l-78 174l-21 47q-19 42 -28 70v-2q-42 86 -54 127v-2q-5 11 -16 33t-16 36l-31 76l-12 31l-19 30q-42 85 -59 144q0 -4 -2 1l-2 9q-13 38 -29 64l-27 69l-16 37l-10 25l-2 2l-19 41l-14 36l-14 35v-2l-4 10 q-3 11 -7 15l-6 14v-108v-113q0 -25 2 -39v-41q0 -24 4 -70v-77q0 -6 -1 -14t-1 -11v-37q0 -4 1 -11.5t1 -10.5v-64q2 -14 2 -53q3 -75 -6 -152q-2 -18 -2 -71q0 -3 -1 -7.5t-1 -7.5v-30q-2 -2 -2 -25v-63q5 -70 -4 -103q-18 -18 -33 -18q-18 0 -28 10q-12 23 -9 47z" />
<glyph unicode="O" horiz-adv-x="862" d="M731 274q0 -2 2 -4q0 -2 2 -2q-3 -9 -8 -26l-6 -21v2l-6 -26l-4 -31q-40 -138 -238 -170l2 2q-9 -4 -29 -4q-3 0 -5 -1t-5 -1h-8q-109 -7 -194 65.5t-97 182.5v-2q-4 28 -4 30q-6 35 -6 111v29q0 4 1 13t1 17v101q0 22 -2 24q-2 27 -2 62q0 1 -1 4t-1 6v57q0 3 1 5t1 5 q0 29 2 39v13q0 3 1 9t1 9q0 27 2 37v35q2 16 2 49q5 92 10 121l4 14v4q0 4 1 8l2 4q2 2 2 9q5 23 30 77l31 39q10 10 35 25l31 18l47 15q11 4 36 4q23 6 87 6l3 -1q3 -1 7 -1q5 0 33 -4q6 0 22 -4q2 -2 12 -2l41 -15q64 -27 92 -65q64 -94 56 -172v-6q0 -1 1 -3t1 -3v-87 q0 -96 8 -172q8 -63 8 -178q2 -10 2 -39v-47q0 -4 1 -7l1 -3q0 -10 2 -12l-4 -76q-4 -46 -4 -66zM621 156l4 4l2 4q3 3 5 3l1 3q0 1 1 3.5t2.5 6.5t2.5 6l-2 -2l6 31q4 15 4 59q0 8 1 19t1 16q0 69 8 105l-1 2q-1 2 -1 6v125l-6 100q-6 55 -6 176v78q-2 8 -2 31v43 q8 46 -35 112l-4 5q-6 6 -15 16t-14.5 16t-15 13t-20.5 12q-2 2 -7 2q-24 6 -38 6h-97q-3 0 -6 -1t-6 -1h-10q-38 0 -68 -12l-14 -8l-6 -5l-25 -24q-35 -59 -45 -98l-4 -39q-6 -33 -6 -97q0 -31 -1 -54.5t-1 -35.5q0 -10 0.5 -27.5t0.5 -27t-1 -21.5t-4 -20v-37q0 -55 6 -94 v-145q0 -5 1 -14t1 -13v-21q0 -62 4 -83q0 -15 2 -29q4 -81 73.5 -137.5t149.5 -44.5h-2q2 2 39 2q96 12 148 86z" />
<glyph unicode="P" horiz-adv-x="860" d="M731 952v-8q0 -3 1 -4t1 -4v-27q9 -85 -8 -153l-16 -39q-30 -53 -43 -70l-33 -33l-35 -22l-14 -6l-9 -2q-23 -13 -86 -17l-86 -8h-67q-63 0 -96 2h-21v-31q0 -34 2 -57v-27q0 -1 1 -3t1 -3q4 -47 0 -90v-129q0 -5 1 -15.5t1 -15.5q0 -81 -6 -116v-39q0 -25 -8 -33 q-12 -12 -29 -12q-16 0 -28 12q-9 16 -9 43v43q0 25 2 35v-2q3 47 3 90v207q0 3 -1.5 9t-1.5 9v180q0 3 -1 7.5t-1 7.5v84q0 3 1 6t1 6q-2 16 -2 80q-2 16 -2 59q0 80 2 119v70q0 4 1 12t1 12v47q0 12 3 15q0 61 24 76q9 4 33 4h8l27 -4q4 0 6 2q4 4 8 4q8 2 25 2h24l3 -1 q4 -1 9 -1h33q10 2 39 2q62 5 124 -11.5t105 -50.5q99 -86 107 -170q0 -4 2 -6v-8q1 -5 2 -11.5t1.5 -10t0.5 -5.5zM659 852q3 21 0 33q0 35 -2 51q0 15 -2 29v16q-8 63 -73 115q-45 36 -101 50.5t-112 4.5q-33 0 -47 -2q-2 0 -7.5 -1t-10.5 -0.5t-9 3.5h-31q-12 0 -14 -2 q-3 0 -7 -1t-7 -1q-4 0 -5 -1t-2 -1q-2 -2 -6 -2q0 -26 -2 -51q0 -7 -1 -31.5t-1 -38.5v-66q-4 -126 -4 -198v-27q0 -12 -1 -31.5t-0.5 -32t3.5 -28.5q22 -4 90 -4h60q133 0 174 16l28 13q10 2 29 16l4 4l16 18l7 13l10 16q2 2 6 14q14 36 18 107z" />
<glyph unicode="Q" horiz-adv-x="815" d="M137 203v4q-10 46 -8 90v29q0 12 1 32t1 31q0 14 -4 60q-4 31 -4 141v37q0 121 2 178v8q0 105 -2 168v23q0 3 1 7t1 7l2 4q4 66 52 121.5t114 81.5q13 6 35 10q3 0 6 1t6 1q61 6 123 -6t115 -40.5t83.5 -81t24.5 -120.5q2 -8 2 -31q0 -29 2 -45q2 -23 2 -73 q0 -72 -2 -105q0 -29 -2 -35v-129q0 -63 -2 -96q0 -3 -1 -10.5t-1 -11.5v-27q0 -37 -2 -51v-96q5 -77 -16 -109v-6q-24 -43 -31 -51q-25 -31 -72 -58l-6 -8l-6 -6l63 -154h-2l9 -16q3 -8 8 -24t8 -23l27 -64v4q23 -32 8 -57q-16 -16 -33 -16t-34 18.5t-17 36.5q-3 4 -6 12.5 t-11.5 32t-19.5 51.5l-4 8q0 1 -1 4.5t-1 4.5l-15 35q-3 6 -17 46.5t-28 65.5v2q-6 6 -6 8q-3 0 -5 -1t-3 -1q-5 -1 -19.5 -4t-20 -4.5t-17.5 -3.5t-19 -2h-16.5t-18 1.5t-16.5 4.5q-51 17 -51 21q-6 0 -12 6q-102 45 -144 170zM203 463v-201l4 -33l-2 2l4 -14q5 -7 22 -30 t25.5 -33.5t23.5 -25.5t29 -24q2 -1 11 -7.5t16.5 -10.5t13.5 -4q2 -2 4 -2q50 -9 90 0l-2 -2l23 6h-2q37 14 67 37l13 8q36 28 45 43h-2q7 7 10 29q0 13 6 22q1 4 2 8.5t1.5 7t0.5 3.5q0 3 1 7t1 7q2 2 2 14v25q-2 10 -2 43v2q0 4 2 6q0 17 1 75.5t1 72.5v36q0 8 1 19t1 16 v68q0 59 2 94v94q2 39 -2 105v55q0 3 -1 6t-1 6q-1 30 -2.5 44t-9.5 34.5t-22 32.5q-40 35 -103.5 48t-128.5 7q-7 -1 -19.5 -5t-19.5 -5l2 2q-105 -44 -108 -123q0 -2 1 -6.5t0.5 -7t-3.5 -6.5l-2 -4v-25q6 -47 6 -145q0 -7 -1 -19.5t-1 -19.5v-39q0 -61 -2 -92 q0 -27 2 -33q0 -113 2 -168zM492 16q-2 2 -7 2q2 -2 7 -2z" />
<glyph unicode="R" horiz-adv-x="845" d="M184 -29h-14q-28 19 -25 115v14q0 12 5 47v52q2 25 2 75v17q0 61 2 86v57q0 7 1 21.5t1 21.5q0 59 2 90v119q0 85 6 148q2 63 2 172v10l1 2q1 2 1 6q0 84 -2 125q0 16 -2 18l2 27l4 8q0 19 29 29h86q23 2 77 2q39 0 101 -4q48 -3 88 -21v2l12 -4l29 -14l37 -29l16 -22 q35 -53 51 -148v-12q0 -1 1 -3t1 -3q0 -8 2 -10v-17q2 -18 -2 -55v-10q0 -3 -1 -9.5t-1 -9.5q-2 -2 -2 -14q0 -3 -1 -6.5t-1 -7.5t-1 -9t-1 -6q-11 -92 -28 -121v2l-11 -16l-16 -14h-2l-27 -27q-3 -3 -7 -7.5t-7 -8t-7.5 -7t-9.5 -6.5h3l-54 -20v2l-18 -8l2 -6l-2 2l4 -21 l6 -18l8 -17q0 -2 -2 0l19 -38q6 -17 16 -51.5t18 -53.5l7 -18v2l18 -45q28 -53 74 -189q0 -2 12 -22l4 -19q0 -1 1 -2t1 -2l6 -18v2l7 -13q0 -8 2 -10q0 -4 4 -8q0 -6 2 -6q17 -23 2 -57l-25 -17l-2 -2h-24q-22 25 -25 47l-4 19l-4 12l-4 8l-4 12q-2 2 -9 23l-4 16l-8 19 l-6 20l-72 180l-8 19l-74 190l-1 3q-1 3 -1 6v2l-10 30v4q-14 -2 -33 -2q-25 0 -39 2q-6 1 -11 2t-7.5 2t-3.5 1h-31q-3 0 -7 1t-5 1h-12q-34 0 -50 2q0 -4 -1 -6t-1 -3q0 -12 2 -14v-18q2 -38 -2 -125q0 -3 -1 -9.5t-1 -9.5v-37q0 -3 -1 -7t-1 -7v-61q-2 -23 -2 -78 q0 -1 -1 -1q-1 -1 -1 -5v-43q-4 -62 -4 -80q0 -21 4 -53q0 -27 -14 -52zM238 991v-282q0 -36 -2 -54h28q3 0 7.5 -1t7.5 -1h12q30 0 53 -2t53 -2h11q28 0 51 8q48 12 71.5 22.5t42.5 31.5l17 20l-2 -2l14 19v2q0 8 2 10l6 24v-2q15 103 15 158q0 10 -2 12q-3 85 -60 166 l-12 10l-6 7q-6 0 -8 2q-9 0 -13 4l-20 10q-31 8 -117 8h-16q-47 0 -72 -2h-63q0 -1 1 -2t1 -2q0 -10 2 -12v-58q0 -5 1 -15t1 -15q0 -26 -4 -62z" />
<glyph unicode="S" horiz-adv-x="829" d="M707 983v-35q0 -31 -9 -47q-14 -14 -45 -8q-28 21 -18 47v12l-12 70l2 -2l-7 16l-8 21l-10 20v-2q-22 54 -65 84h2l-11 4l-4 4l-20 9h2q-31 6 -55 8q-2 2 -13 2q-66 0 -115.5 -20.5t-68.5 -55.5q-9 -11 -23 -43q0 -7 -6 -16q-13 -30 -16 -58q-4 -57 41 -149 q37 -59 82 -96l14 -15q26 -34 66 -59l10 -10q8 -8 53 -48l19 -12l47 -39l24 -26l33 -35l16 -19l21 -24l12 -19q27 -41 39 -104q0 -6 2 -8q15 -102 -20 -180l-9 -17q-14 -31 -57 -74l-16 -12l-13 -12l-18 -8l-10 -7l-6 -2q-8 -8 -17 -8q-44 -18 -114 -18q-46 0 -60 2h-8 q-6 0 -8 2t-4 2q-7 0 -9 2q-45 15 -55 23h4l-26 12q-9 6 -17.5 14t-14 14t-15.5 18.5t-15 18.5l-8 9q-3 4 -8 14t-8 14l-9 19l2 -4l-6 18q-11 33 -14 76q0 10 -2 12v25q-4 59 33 65q41 0 45 -67v-21q0 -47 6 -72l2 -2q0 -8 4 -8q0 -8 2 -10l8 -8q27 -49 82 -76h-2 q4 -2 10 -4l7 -4l28 -6q3 0 5 -1t5 -1h29q55 -4 100 8l13 8q6 0 8 2l6 2q2 0 2 2q0 4 2 6q44 27 60 64l6 10q30 56 26 156q-2 2 -2 16l-1 2q-1 3 -1 8q-2 4 -8.5 19.5t-11.5 21.5l-2 2l-6 11l-23 28q-6 2 -10 15l-19 20l-34 37l-9 8l-43 31q-18 14 -55 51l-18 12 q-48 38 -119 113l-35 37q-7 8 -51 78l-12 26v-2q-11 22 -15 74q-11 63 8 113q29 79 43 104q49 66 164 98q18 6 70 6q24 0 70 -4q2 -2 4 -2l4 -1q4 -1 8 -1q21 -4 49 -14l6 -6q12 -4 22.5 -10.5t16.5 -11t15 -17t11 -15t12 -20t11 -18.5l-4 4l6 -11l15 -22l4 -8l10 -21l1 -1 l1 -3q18 -35 21 -90h2zM670 1102l2 -2q-2 0 -2 2z" />
<glyph unicode="T" horiz-adv-x="919" d="M797 1231q25 0 34 -25l3 2q4 -5 4 -26q-22 -25 -62 -25h-45q-2 2 0 2h-63q-116 0 -158 -4q-6 -90 -6 -321q0 -27 2 -41v-58q0 -12 -1 -30t-1 -25v-121q0 -9 1 -26t1 -25v-135q0 -4 -1 -11t-1 -10v-241q-2 -2 -2 -13q-2 -23 -2 -73q-32 -51 -53 -40.5t-21 52.5v37 q0 3 1 10.5t1 11.5v70v94q0 37 2 51v146q-2 27 -2 102v90q0 8 -1 30t-0.5 36.5t3.5 25.5v54q0 3 -1 6t-1 6v72q0 11 1 34t1 37q0 129 2 201h-45q-4 0 -10.5 1t-9.5 1h-191q-34 -9 -74 6q-15 8 -18.5 16t1 15.5t17.5 21.5q20 11 45 11q2 2 23 2h27q1 0 4 1t6 1h141 q73 -8 164 2h8q62 4 103 4q7 -2 174 -2z" />
<glyph unicode="U" horiz-adv-x="880" d="M143 1133v41q0 43 12.5 62t49.5 -3q28 -19 12 -68v-55q0 -3 1 -8t1 -8v-72q0 -3 1 -8.5t1 -9.5v-179q0 -105 2 -168v2q2 -72 2 -194v-182q15 -101 31 -129l4 -4l12 -15q74 -77 160 -69h55q1 0 4 1t7 1l14 2q1 0 4 1t4 1h4l25 10l-2 -2l35 14h-2q10 8 26 33v-2l12 18 l11 13l8 10l-2 -4q19 29 27 82.5t7.5 100t-4 122.5t-3.5 113v53q2 29 -3 94q-2 14 -2 51v43q0 66 -2 105v100q0 61 2 92v21q5 57 5 65q10 31 36 31q23 0 33 -29q4 -46 4 -57q0 -22 -4 -68q-4 -32 -4 -51v-82q0 -43 2 -57q4 -46 4 -72q-2 -29 2 -90v-76q0 -7 1 -20.5t1 -20.5 q0 -8 -1 -21t-1 -20v-131q0 -81 -10 -194v-6l-4 -31q-1 -8 -3.5 -23.5t-4 -23t-5 -18.5t-8.5 -19q-8 -8 -8 -6l-14 -19q-34 -53 -70 -69q-4 -4 -9 -6t-13 -4.5t-13 -4.5h-2q-2 0 -4 -2l-18 -6q-1 0 -3 -1t-3 -1t-1.5 -0.5t-2 -1t-4.5 -0.5q-1 0 -3.5 -1t-3.5 -1 q-3 0 -4.5 -1t-5.5 -1q-6 -2 -35 -2h-63q-116 -4 -180 65l-23 25q-26 26 -41 72l-2 2q-5 0 -7 1t-2 2.5t0.5 6t0.5 8.5q-9 23 -12 76v16q-5 20 0 78v150q0 3 -1 11t-1 11v103q0 4 -1 12t-1 12q-5 97 -3 135v52q-4 37 0 65q0 10 -1 44t-1 52q-2 41 -2 136zM569 14h-2q1 0 2 1 t2 1z" />
<glyph unicode="V" horiz-adv-x="884" d="M283 702q2 -4 18 -67l4 -25q17 -80 37 -145l10 -49l10 -37l7 -27v2q42 -148 63 -284h10q1 0 4.5 1t4.5 1l2 4q0 8 2 10l8 23q4 22 8 28q0 11 6 17l10 26q10 70 31 129q-2 24 84 336l12 45q3 7 7 35q0 3 1 7t1 5q9 68 18 101l16 65l7 27l8 39q0 3 8 30t8 29q4 20 8 25 q23 69 23 94q2 2 2 8q0 1 0.5 1.5t1 2t0.5 4.5q1 15 2.5 25t5.5 22t12.5 18.5t20.5 6.5q14 0 24 -10q21 -21 9 -47q0 -8 -9 -17v-8q-2 -2 -2 -12q-2 -2 -8 -51l-8 -41q-2 -2 -2 -11q0 -2 -2 -2l-16 -57l-7 -35q-1 -16 -8.5 -41.5t-7.5 -36.5l-12 -53v-16q-2 -11 -11.5 -37.5 t-9.5 -44.5v-6q0 -3 -1 -8l-1 -5q-5 -26 -12 -41q2 2 2 0l-10 -43q-6 -21 -11 -34t-7 -19.5t-5 -23.5q-1 -6 -2 -11.5t-1.5 -8t-0.5 -3.5l-43 -180l-16 -53h2l-29 -109l-8 -29l-14 -49q0 -4 -1 -7l-1 -3q-3 -3 -3 -6q-2 -2 -2 0l-1 -2q-1 -2 -1 -6q0 -1 -4 -21l2 8l-6 -14 l-8 -12q0 -13 -20 -27q-13 -8 -37 -8h-11q-4 0 -6 1q-1 1 -2 1h-14l-27 2q-16 4 -23 14t-14 33q-30 174 -82 371l-6 28l-14 52l-12 53q-2 9 -29 115l-6 28l-6 27v-2q-17 71 -21 98l-8 31l-6 35l2 -4l-4 10q2 2 -2 13.5t-8 17.5q0 1 -1 3t-1 3l2 -9q-9 19 -33.5 121.5 t-24.5 122.5h-2q0 1 -1 7.5t-1 7.5v8q0 1 -1 6t-1 6l-4 4q-15 12 12 51q20 2 33.5 -2t19.5 -13.5t8 -18t3 -21.5v-8h2q0 -4 2 -6v-2q18 -43 30.5 -124t24.5 -116l10 -35l7 -16q1 -6 8 -29.5t16 -62.5t19 -93z" />
<glyph unicode="W" horiz-adv-x="1286" d="M659 1092l-4 14v-6q-2 -2 -2 -4l-6 -39q0 -3 -1 -6.5t-1 -6.5q0 -2 -3.5 -31.5t-9.5 -81.5t-14 -114q-3 -13 -7 -38t-7 -38l-14 -63l-15 -74l-10 -61l-6 -23l-12 -57l-8 -51l-29 -142v2l-43 -186q-1 -5 -5 -16.5t-5 -16.5q-1 -36 -23.5 -50t-54.5 -3q-10 6 -14 2l-5 -1 q-6 -1 -10 -1q-28 0 -37 6q-17 15 -26 41l2 -2q-4 20 -4 31q-2 0 -2 2v6l-1 2q-1 2 -1 6l-9 53v2q-2 2 -2 13q0 2 -2 4l-14 92l-8 57l-17 82l-8 33l-6 33l-6 28l-6 35l2 -2l-6 21v-2q-6 16 -15 61q-6 17 -10 68v10q0 1 -1 3t-1 3v4q-11 51 -14 92q-14 82 -23 117q0 14 -2 16 q0 13 -2 19q0 2 -2 4q-29 97 -29 154l-6 43l-2 2v22q0 1 -1 4t-1 4q0 2 -2 4q-7 11 -5.5 29.5t11.5 28.5l17 8q26 10 36.5 -5.5t10.5 -43.5v-14q0 -1 1 -1.5t1 -1.5l6 -41q4 -29 10.5 -60t16.5 -69.5t14 -58.5l4 -24q9 -49 22 -150l17 -90q1 -4 6 -39q0 -3 1 -8t1 -8 q3 -12 7 -34.5t7 -33.5l9 -37l8 -33l6 -36l8 -39l10 -68q3 -16 3 -25t1 -12q0 -3 1 -6t1 -6l9 -51l20 -113q3 -8 4 -28.5t4 -28.5v2v2h27l31 123l26 114l25 109v-2l1 1q1 1 1 5v23l18 79l9 29q0 10 2 12q0 3 1 6.5t1 6.5l34 196l15 70q3 15 9 81.5t9 76.5q0 4 2 6v10l19 94 v2l1 4q1 4 1 8l20 74l31 15l29 2l39 -15l18 -71l4 -25l4 -14q13 -69 27 -111l12 -119v2l10 -59l19 -96q5 -11 7 -19t2 -11.5t-0.5 -11.5t-0.5 -14q4 -39 14 -69q4 -41 8 -51l17 -86l4 -29v2l18 -100l-2 2l9 -29l2 -18q0 -1 1 -4t1 -7q1 -7 5 -21l1 -9l12 -41q1 -12 16 -70 v-4q0 -1 1.5 -3t1.5 -3h2q0 -9 4 -29q0 -3 1 -9t1 -9q0 -4 1 -6t1 -3v-10q2 -2 6 -2q15 92 55 264q17 68 29 148l49 307l16 123v-2q2 2 2 4q0 8 2 12v8l9 48l18 135l1 3q1 3 1 7q2 20 2.5 38.5t2 31t7.5 30.5v6q0 1 1 3q4 12 6.5 17.5t12 11t23.5 5.5l7 -2l7 -1q7 -1 11 -1 q5 -12 6.5 -20t1.5 -12t-1.5 -12t-2.5 -15q-7 -25 -8 -41.5t-5.5 -64.5t-15.5 -124q0 -3 -1 -6t-1 -6l-6 -61q0 -3 -1 -9l-1 -6q-1 -5 -3.5 -13t-2.5 -17l-6 -33q-7 -59 -25 -156q-4 -45 -10 -59l-24 -156h-3l-1 -3q-1 -3 -1 -7q-13 -92 -22 -135l-8 -29l-6 -31 q-21 -77 -35 -153q0 -19 -2 -21l-19 -73l-39 -2h-18l-59 8q-9 26 -23 67q0 3 -1 9.5t-1 9.5l-4 20q-1 2 -2 7t-2 9t-2 5l-6 12q-11 18 -11 43l-18 94l-4 17q-21 100 -29 153l-10 64l-4 20q-4 16 -4 21q-11 31 -15 63l-4 33q-8 75 -32 188q0 1 -1.5 5.5t-1.5 5.5l-6 24l-8 37 q0 10 -5 54.5t-9 54.5q-4 14 -15 88z" />
<glyph unicode="X" horiz-adv-x="806" d="M606 100l-2 11v-2l-14 32l-12 35v-2q-59 138 -107 215q-10 15 -20 34t-20.5 42t-16.5 35v-2l-23 41l-26 -60q-3 -6 -13.5 -28.5t-13.5 -28.5v2l-25 -53q-49 -122 -82 -183v2l-10 -24v2l-10 -25l-10 -20l-25 -51l-12 -29q-2 -2 -2 -4l-17 -33q-19 -24 -51 -10 q-3 5 -5.5 9.5t-4 8.5t-2.5 8t-1 7t0.5 7t1 6t2 5.5t2.5 5.5t2.5 5.5t2.5 4.5v-2q0 1 2 3.5t2 3.5q21 91 66 151q66 133 94 209l47 100q8 12 19.5 41t17.5 41l8 23l-8 16l-35 78q-63 147 -102 219q-4 8 -7.5 12.5t-5 6.5t-3.5 5t-5 10t-8 19l-18 39l-19 45q-4 10 -9 21.5 t-14 30t-16 32.5l-2 2q-9 12 -10 17t2 24q2 12 29 29q16 0 31 -15.5t24 -35.5l31 -68l12 -28l45 -103l14 -22l17 -33l41 -90l51 -111q25 59 52.5 126.5t48 117t44.5 104.5l4 6l39 80l56 80q29 0 55 -26l-23 -56l-28 -45l-13 -26l-6 -13v2l-10 -24l-4 -12q-33 -66 -56.5 -122 t-54.5 -137t-45 -116l-14 -39q39 -84 59 -113l17 -28l14 -27q9 -30 25 -49q16 -28 84 -166l14 -35l-2 2l18 -39l37 -92q0 -1 1 -4t1 -4l15 -23q10 -13 14 -28v-29q-21 -21 -37 -21q-21 0 -37 37l-4 9l2 -9l-6 13l-6 6z" />
<glyph unicode="Y" horiz-adv-x="749" d="M643 1223l23 -19l2 -20l-11 -25l-6 -16l-20 -62l2 2q-6 -25 -21 -51v2l-32 -82l-21 -45q-44 -115 -72 -172l-53 -129q-2 -2 -2 -12l-4 -6q-1 -2 -3.5 -6t-2.5 -7l-4 -11v1q-3 -15 0 -30v-74q-2 -14 -2 -41q-2 -41 -2 -121v-121q0 -4 -1 -10.5t-1 -9.5v-21q-3 -27 0 -57 v-35q6 -24 -11 -41q-12 -12 -41 -12q-17 10 -20.5 19.5t-3.5 31.5q0 8 2 10q-2 2 -2 15v8q0 53 2 159t2 158t-4 162q-30 38 -47 84l-4 10v-4q-20 50 -37.5 98t-22.5 60l-39 115h2q-1 3 -2 6.5t-1.5 5t-0.5 2.5v2l-6 14l-8 21l-37 98l-14 35l-6 18l-11 21v-2l-12 28v-2 q-18 25 0 49l25 15q12 0 20 -4t11 -7.5t10 -13.5l4 -12l2 -4q21 -43 49 -119l39 -98l33 -80q8 -21 11 -42t11 -40l14 -39l23 -55q7 -27 23 -70q0 2 2 4v-2q42 105 75 168q19 41 33 78l35 92q27 59 45 113l29 76q0 8 4 12q11 41 41 41z" />
<glyph unicode="Z" horiz-adv-x="827" d="M698 70h4q20 0 43 -23v-33q-27 -18 -45 -18l-16 2q-14 2 -45 2h-94q-3 0 -6 -1t-4 -1q-27 2 -121 2q-8 -2 -39 -2h-185v-2l-6 -1q-7 -1 -12 -1l-2 1q-2 1 -6 1q-11 4 -25 -2q-22 20 -22 59l2 2q-3 13 0 29v8q17 28 24 53l9 21l18 43l16 37l13 22l22 45v-2l15 29 q3 5 43 88l24 47v-2l19 45l34 74l29 53q20 40 78 171.5t106 207.5l-2 -2l17 33q6 10 20.5 39.5t24.5 46.5h-31q-5 0 -16.5 1t-16.5 1h-30q-7 0 -18.5 -1t-18.5 -1h-31q-5 0 -15.5 1t-15.5 1q-7 0 -17.5 -1t-15.5 -1h-36q-9 4 -37 4h-11q-65 0 -104 2q-3 0 -6 -1t-6 -1h-47 l-2 -2q-4 0 -12 1t-9 1l-4 2q-23 0 -37 14q-17 17 4 62q20 -5 74 0q14 2 53 2h13q3 0 8 -1t8 -1q2 -2 27 -2q1 0 4 -1t6 -1h33q4 0 7 1l3 1q17 3 49 -2h51q115 0 162 2q10 -2 39 -2h20q14 0 20.5 -1t17.5 -6.5t26 -17.5q-4 -9 -4 -33v-33l-8 -16l-11 -16l-18 -29v2l-8 -18 l-17 -35l-18 -39q-10 -18 -28 -46t-31 -51t-23 -51l-21 -53l2 2q-5 -25 -18 -41q-7 -21 -18 -39v2l-15 -28q-3 -7 -8 -16.5t-8 -16.5t-4 -10q-2 -5 -4.5 -13.5t-5.5 -11.5q-47 -81 -52 -98l-49 -98l-35 -78l-8 -15q-5 -10 -24 -45t-36.5 -72t-27.5 -73q-4 -16 -8 -19 q-4 -8 -10 -14l-6 -10l-5 -10h9q3 0 7 1t7 1q23 -2 74 -2h80q90 0 129 -2h4.5t12 0.5t21.5 1t39 0.5h60q47 0 65 -2z" />
<glyph unicode="[" horiz-adv-x="378" d="M305 1499h6q32 0 47 -26q0 -50 -43 -50q-6 0 -26 4h-15q-18 0 -32 -2h-60q-16 0 -18 -2h-2v-133q0 -96 2 -151q0 -1 1 -3t1 -6v-8l2 -8q0 -53 -2 -84v-84q0 -56 -4 -166q-4 -48 -4 -198q0 -63 -2 -88v-150q0 -86 4 -224.5t4 -199.5q-2 -14 -2 -49l-2 2q1 -6 2 -11.5 t1.5 -8t0.5 -3.5q0 -3 1 -11.5t1 -12.5h2q3 0 6 -1t6 -1q50 -4 82 -4q35 0 43 -19q5 -19 2 -32q-6 -25 -37 -25h-12q-3 0 -5 1t-5 1q-2 0 -4 -1t-3.5 -0.5t-4.5 3.5h-5q-14 2 -38 2h-11q-4 0 -7 1l-3 1h-14q-31 0 -64 15q-15 37 -2 59l2 4q0 1 -1 3t-1 3v223q0 113 -6 172 q-4 34 -4 158v41q0 121 2 176v10q0 64 2 95q0 11 1 40t1 46v84q3 27 0 55v86q2 2 2 6q4 52 2 86q-4 110 -4 191t2 122v13q0 26 6 35q24 24 80 24q43 0 70 2h20q31 0 39 -2zM289 1427h2q2 -2 4 -2z" />
<glyph unicode="\" horiz-adv-x="716" d="M621 35l2 -10q0 4 2 2q26 -46 -23 -58l-33 2l-18 45q-32 90 -45 119l-35 96v-2l-4 11q-12 33 -25 61l-30 76l-27 72v-3q-10 25 -27 78v-4q-7 12 -30 84l-4 8v9q-25 57 -27 61l-12 29l-21 53v-2l-94 229l-4 19v-4q-5 7 -21 49l-18 47q-6 19 -20.5 69t-24.5 76l14 13 q16 13 37 4q33 -50 39 -72l6 -18l12 -23l23 -57l8 -23l-2 2l4 -18v2l13 -31l34 -82l39 -94l23 -62v3l12 -31l14 -31l19 -53v2q14 -25 27 -60t33.5 -94.5t37.5 -105.5l1 -10q1 -10 5 -15l21 -41q0 -4 1 -7l1 -3q0 -2 2 -2l12 -23l10 -38l17 -41v2l6 -15q51 -108 70 -190z" />
<glyph unicode="]" horiz-adv-x="370" d="M283 281q0 -3 1 -9.5t1 -9.5q1 -28 2 -58.5t1.5 -47.5t0.5 -29q0 -7 -1 -23t-1 -24v-66q0 -3 -1 -5t-1 -5v-31q0 -3 -1 -7t-1 -7v-195h-54q-116 0 -145 -4h-16q-48 0 -48 56q14 19 39 16h58q3 0 9.5 1t10.5 1h13l3 1q3 1 7 1q14 2 47 2v115q0 3 1 9t1 9q2 14 2 43v33 q0 111 -2 166v18q-9 100 -6 209v172q0 12 1 30t1 30v168q0 47 2 63v123q-2 23 -2 72q0 61 2 92v22q0 5 1 15t1 14q2 23 2 59v60q2 15 -2 57h-2q-70 4 -94 4h-19q-17 0 -47 23q-3 38 25 55q62 -4 96 -4q72 0 113 -8q6 -93 6 -109q0 -8 -1 -22t-1 -21v-75q-2 -23 -2 -60 q-3 -43 0 -92v-111q-2 -39 -2 -112q0 -59 -2 -90v-179q0 -96 -3 -204q0 -23 2.5 -60t2.5 -63q0 -3 1 -5t1 -3z" />
<glyph unicode="^" horiz-adv-x="833" d="M121 717h-2q-20 0 -29 18q-15 15 10 56v2l31 49l-2 -4q4 4 4 6l23 37q45 68 69 112l105 164h-2l39 62v-2l18 36l37 2l37 -2l22 -34l19 -35v2l71 -131l29 -45q25 -44 51 -89.5l36 -63t21.5 -37t18 -28t14.5 -18.5q16 -19 9 -35l2 2q-6 -30 -52 -30l-36 34l-2 7 q-8 13 -38.5 60t-58.5 95l-24 45l-15 29v-4q-20 31 -47 90v-2l-18 35l-25 43l-16 24q-86 -142 -103 -170l-20 -34q-64 -105 -74 -119h2l-26 -41l-35 -60q-32 -26 -43 -26z" />
<glyph unicode="_" horiz-adv-x="747" d="M135 -113h84q129 0 203 7h59q4 0 11.5 1t11.5 1q5 0 14.5 -1t13.5 -1h70q50 -3 96 -3q20 0 28.5 -3t18.5 -19q3 -24 -2 -37q-14 -14 -51 -14q-29 0 -39 2h-213q-105 0 -139 -4h-4q-8 -2 -37 -2q-17 0 -46 1t-69 1q-42 0 -65 -2q-3 0 -9.5 -1t-9.5 -1h-20q-16 0 -31 12 q-10 7 -10 31q0 28 37 28q1 0 1.5 0.5t2 1t4.5 0.5q23 2 90 2z" />
<glyph unicode="`" horiz-adv-x="157" d="M39 1591q6 0 10.5 -2t7.5 -4t7.5 -7.5t5.5 -7.5t5 -9.5t5 -8.5l8 -10l21 -37q5 -9 16.5 -26.5t17 -27t10.5 -24t5 -28.5q-18 -21 -35 -21q-13 0 -22.5 7t-13 12.5t-13.5 23.5q0 2 -2 4l-2 7l-17 28q-41 71 -51 94l-2 15q22 22 39 22z" />
<glyph unicode="a" horiz-adv-x="929" d="M793 111v-9l12 -41q0 -1 1 -4t1 -4q0 -28 -2 -30q-10 -17 -26 -20.5t-29 7.5q-12 11 -15.5 15.5t-5 10.5t-2.5 9l-2 2q-4 20 -4 21l-4 10l-6 33q0 1 -1 5t-1 5v10q-1 1 -1.5 3.5t-1 6.5t-1.5 6l-3 27v-6q-16 47 -32 129q-107 0 -170 -6q-91 -8 -211 -8h-41l-15 -64 l-18 -92q0 -3 -1 -13.5t-1 -13.5h-4v-10q-2 -2 -2 -14l-6 -53q-9 -24 -35 -27q-22 -3 -43 24v13q0 1 1 4t1 6l6 41q4 48 8 57v13l17 84l22 108l21 86l8 31q3 10 11 36t11 44l19 96l47 227l6 33q0 1 1 4t1 4q10 48 37 131h-2l10 45v-2l19 72q0 31 14 57t43 25h47l45 -8 l100 -367l-2 2l13 -39l26 -90l27 -98v2q20 -64 25 -100l16 -68l4 -23q0 -1 0.5 -3.5l1.5 -7.5t2 -11l6 -29l6 -37l19 -79l22 -121q0 -18 11 -47zM268 379l-6 -17h41q109 0 182 7q68 8 174 8q-26 137 -100 387l-29 117v-2l-24 92l-14 57l-39 125h-9q-1 -19 -6 -40l-4 -21 l-10 -21q-2 -2 -2 -4l-4 -14v-6l-12 -56l-7 -24q-51 -193 -71 -336l-6 -31q-12 -62 -27 -123q-4 -27 -27 -98z" />
<glyph unicode="b" horiz-adv-x="886" d="M760 385v-8q10 -53 -2 -121q0 -5 -4 -25q-9 -20 -11 -32l-4 -21l-4 -8q0 -4 -1 -7l-1 -3q-2 0 -2 -2t-2 -4q-4 -17 -12 -27l-4 -6q-2 -2 -2 -6q0 -2 -2 -2q-17 -38 -76 -68q-10 -10 -19 -10l-12 -4l-8 -4q-7 -1 -15.5 -4.5t-15.5 -4.5q-48 -14 -172 -18h-22q-47 0 -72 -2 h-49q-2 2 -27 2h-18q-25 0 -41 16q-17 14 -17 31q-2 17 2 47v-4q0 1 1.5 3t1.5 3v109q0 103 -3 192q-2 47 -2 160v33q0 95 5 129q0 7 -1.5 32t-1.5 37v58l-1 2q-1 2 -1 6v94q0 3 1 6.5t1 6.5t-0.5 9t-1 22t-0.5 44q0 18 5 58q0 24 2 30v13q0 3 1 9t1 9q0 10 2 12 q-4 32 20 58h31q1 0 4 0.5t8.5 1.5t11.5 2h13q23 0 37 2h57q65 0 92 -2h-2q2 -2 10 -2h11q117 -11 165 -43l17 -15q48 -53 76 -102v-2q0 -3 1 -6t1 -4q0 -2 2 -2q9 -27 24 -113q0 -1 1 -5t1 -5q7 -80 -35 -207l-8 -16l-20 -33l-15 -19l-6 -10v2q-1 -2 -7 -15t-11 -18 q20 -14 29 -28l4 -6l8 -11l26 -24q0 -7 7 -17l2 -8l8 -10q5 -5 8.5 -11t5.5 -10.5t4.5 -12t3.5 -11.5l4 -21v2l9 -28l2 -2v-8q0 -11 2 -13q0 -8 2 -10zM645 479l-6 10l-6 9q-3 3 -9 13t-8 13q-11 8 -14 17q-2 0 -4 2q-2 0 -4 2q-25 18 -41 20q-2 0 -2 2q-21 0 -23 -2l-5 -1 q-5 -1 -9 -1l-4 -1q-4 -1 -8 -1h-279v-84q0 -76 2 -115q2 -55 2 -176v-88q0 -16 -2 -18v-4q6 0 8 2q1 0 6.5 -1t6.5 -1h108q89 0 148 10q12 1 53 12q8 4 22.5 10t19.5 8.5l14 7t13 8t9 8t8 10.5q7 7 10 22l4 6l21 64q21 51 9 121.5t-40 115.5zM227 1139v-21q-2 -23 -2 -57 v-420h275q28 0 49 8l2 2q12 5 24 21l13 12l-6 -12q4 0 4 4l12 26q35 51 55 148q6 35 6 65q0 23 -10 60.5t-10 52.5q-8 12 -19 31t-19.5 32t-18.5 23l-13 6q-70 21 -108 27q-59 6 -187 6h-45v-4q0 -3 -1 -5t-1 -5z" />
<glyph unicode="c" horiz-adv-x="827" d="M705 326v-115q-2 -35 -21 -68v2l-8 -14q-32 -74 -98 -96h2l-13 -8q-40 -15 -67 -21q-1 0 -4 -1t-4 -1l-27 -6q-24 -6 -53 -6h-21q-50 5 -98.5 26t-79.5 56q-3 1 -14 12l-13 14q-13 23 -16 35l-2 2l-8 17q-6 10 -9 18.5t-4.5 20t-3.5 18.5l-4 27v28q-8 13 -8 49v19 q-4 70 -4 123q0 50 2 73v5q-2 2 -2 20v20q-4 78 -4 111v23q0 3 1 10.5t1 11.5v72q2 31 2 80q0 75 6 106l2 4q2 0 2 4q0 11 2 17l-2 -2q3 9 9 28t8 25v2q0 2 2 4q0 6 2 8q0 7 4 11v2q81 158 307 143q67 -11 125 -55q16 -13 29 -29l18 -21q36 -47 45 -145v-35q0 -1 1 -3t1 -3 q0 -66 -63 -55q-14 40 -15 47v27q-4 57 -12 81l-39 64q-16 16 -61 41h4q-46 12 -78 12q-18 0 -47.5 -7t-44.5 -7q-66 -26 -107 -111v2q0 -1 -1 -3t-1 -3q-19 -57 -16 -137v-12q0 -54 -2 -72v-68q0 -4 -1 -13t-1 -13v-23q0 -9 -1.5 -50.5t0 -67t7.5 -41.5q0 -3 -1 -6.5 t-1 -6.5v-28q-2 -31 -2 -91q0 -44 2 -67q0 -48 8 -64q0 -21 4 -49q0 -14 2 -16l6 -19l9 -18v2l16 -29l10 -14q40 -49 156 -61h6q2 2 10 2q19 3 47 10l25 4l14 4l2 2l19 8h4q6 0 8 2q-6 0 0 6q27 9 55 62v-2l8 12l5 21q0 2 -1 4.5t-0.5 4.5t3.5 5v2q2 2 2 6q2 14 2 41v23 q0 33 2 43q8 18 26.5 26t34 0.5t15.5 -28.5zM223 1032l2 4q0 -2 -2 -4z" />
<glyph unicode="d" horiz-adv-x="854" d="M135 1194l15 18q31 13 96 17h16q31 2 100 -2q1 0 3.5 -1t3.5 -1h32q2 -2 13 -2v-2h8q62 0 92 -15l12 -4q8 0 17 -6l18 -6q45 -22 74 -64l14 -16l13 -16q7 -14 26 -70q4 -28 4 -59v-17q0 -1 1 -1t1 -1q6 -39 6 -131q0 -59 2 -92q0 -7 5 -70q4 -46 4 -90v-74q-3 -40 0 -79 v-86q0 -29 -2 -39q0 -5 -7 -33l3 2l-7 -25l-8 -41q-10 -17 -10 -22q0 -1 -1 -2t-1 -2v-4v-2l-14 -33q-24 -46 -84.5 -81t-116.5 -40q-14 -2 -43 -2q-3 0 -5.5 -1t-6.5 -1h-35q-33 0 -99 4h-28q-61 0 -86 -2l-29 25v61h2v20q-2 2 -2 21q-2 0 -2 2v6q-2 47 -2 113 q0 33 2 102.5t2 134.5q-14 56 0 193v246q0 69 2 108v-2q2 47 2 164zM354 76h47q31 0 45 2q2 -2 27 -2q39 2 70 21t43 53l6 14l8 14l10 27q0 8 6 18q15 62 15 82q2 5 2.5 11.5t0 20t-1 29t-1 46t-0.5 63.5q0 3 0.5 6.5t1 5.5t-0.5 6t-3 9v35q0 49 -4 143t-4 137q0 27 -5 135 q-4 67 -20 97q-13 17 -14 22q0 2 -2 4l-2 2l-17 21l-2 4l-12 8l-4 4q-26 0 -37 8l-12 4q-28 16 -95 19q-1 0 -5 1t-5 1q-2 2 -27 2q-46 4 -61 4q-43 0 -86 -6v-186q-4 -246 -4 -381v-269q-2 -31 -2 -82t2 -82v-67h41l2 -1q2 -1 6 -1h27q25 -2 67 -2z" />
<glyph unicode="e" horiz-adv-x="843" d="M657 1223h54q22 0 37 -9q14 -11 14 -36q-3 -15 -9.5 -22t-13.5 -8t-22 -1h-58q-35 0 -51 2h2q-82 4 -116 4h-31q-5 0 -15.5 1t-15.5 1q-16 2 -47 2h-25q-4 0 -11.5 1t-10.5 1h-27q-3 0 -8 1t-8 1h-35q-8 -2 -35 -2h-2v-14q-2 -31 -2 -94q0 -58 4 -160q0 -13 1 -38.5 t1 -41.5q3 -27 0 -51v-58q0 -4 1 -17t1 -21h15l176 -5h63q21 3 56 3h45v-3q39 0 49 -18q9 -20 0 -41q-12 -18 -39 -18l-6 1q-6 1 -10 1l-3 2q-16 2 -49 2q-32 0 -55 -2h-121q-4 0 -13.5 1t-14.5 1q-46 0 -62 2h-29v-55q0 -3 -1 -7l-1 -4v-26q-4 -28 -4 -39v-29q0 -4 1 -7 l1 -3q-2 -31 -2 -84q0 -8 -1 -23t-1 -22v-53q0 -21 2 -23v-20q0 -21 -0.5 -45.5t-0.5 -40.5t1 -33h142q3 0 6 1t6 1h94q127 0 195 -2h14l2 -1q2 -1 6 -1h12q28 0 46 -21q6 -14 6 -24q-10 -29 -56 -29h-8q-3 0 -6.5 1t-7.5 1l-2 1q-2 1 -6 1q-78 4 -129 4q-48 0 -146 -4h-76 q-16 -2 -55 -2h-26q-4 0 -6 -1t-3 -1h-20q-32 0 -41 12q-14 14 -14 64v37q0 3 -1 7t-1 7v113q0 18 3.5 64t3.5 83t-7 59q0 21 4.5 77t1.5 87v29q-6 31 -6 100q2 44 -3 168q-4 78 -4 135q0 59 2 82v45q0 1 1 3.5t1 3.5q-4 38 22 50t67 5q2 -1 5.5 -0.5t6.5 0.5q8 2 26 2h31 q82 -4 117 -4q146 0 188 -4q14 -2 47 -2z" />
<glyph unicode="f" horiz-adv-x="823" d="M150 74q0 3 -1.5 10.5t-1.5 11.5v72q-5 79 -2 113q5 32 5 116q8 96 8 211q0 37 -2 68q-2 39 -2 102q0 90 2 131v11q4 66 4 100v33q0 113 8 168q9 1 44.5 3.5t51.5 2.5q57 0 88 -2q3 0 9 -1t10 -1q33 -2 108 -2q23 -2 64 -2q3 0 8 -1t8 -1h53q38 0 72 -3q36 -5 53 -20 q9 -21 -4 -43q-8 -14 -33 -14h-18q-2 0 -2 2q-66 8 -195 8h-20q-72 0 -111 2t-106 2h-12q-3 -47 -3 -102v-21q4 -62 0 -113v-8q-4 -98 -4 -145v-55q0 -11 -1 -19t-1 -20h21q4 0 11.5 -1t10.5 -1h64q14 -2 76 -2q19 -2 67 2q28 4 55 4l3 1q3 1 6 1h10q19 0 47 -4 q10 -6 20.5 -30.5t-0.5 -35.5q-38 -10 -45 -10h-32q-26 2 -82 -2q-23 -2 -74 -2q-70 0 -82 4h-43q-3 0 -5.5 -1t-6.5 -1h-15v-2q0 -27 -2 -37q0 -62 -2 -78q-8 -73 -8 -172q0 -50 4 -160v-30q0 -6 1 -25.5t0.5 -34t-3.5 -24.5q0 -20 -13 -33.5t-40 -13.5q-26 21 -23 77 q3 3 3 17z" />
<glyph unicode="g" horiz-adv-x="888" d="M737 53v-14q0 -4 2 -6q0 -1 1 -3t1 -3q12 -27 -26 -43q-8 1 -14 -0.5t-11 2t-8.5 4t-6 5.5t-4 7.5t-3.5 9t-2.5 9.5t-1.5 10t-2 10l-5 14q-2 2 -2 8l-8 27l-14 -14q-28 -35 -68 -51l-22 -7l2 2q-38 -16 -101 -16q-48 0 -65 6h-6q-1 0 -4 1t-4 1h-15q-3 0 -7 1t-7 1 q-1 0 -11 1t-18 5l-33 9h-4l-37 22l-8 8q-3 3 -10.5 8t-11.5 9q-16 9 -25 28q-35 46 -39 146q-2 6 -2 22q0 1 -1 3.5t-1 3.5v6q-6 24 -6 51v2q3 31 0.5 96.5t1.5 91.5q-2 10 -2 39v131q5 11 0 47q0 13 -2.5 40t-1.5 44q0 65 18 142v4q0 3 -1.5 7t-1 6.5t4.5 6.5q0 3 2.5 9.5 t2.5 9.5q16 61 18 67l27 56v-2q1 2 7 10.5t9 11.5l4 4q25 30 98 64q1 0 5.5 1t5.5 1l34 10q24 6 52 6h10q46 0 94.5 -14t75.5 -33h-2q31 -16 76 -84q17 -33 24 -50t13.5 -52.5t3.5 -77.5q0 -11 -1 -18t-5 -15.5t-14.5 -13t-27.5 -4.5q-16 1 -23 11t-6.5 26t3.5 36l2 4 q-3 57 -33 115l-16 19l-17 24q-16 20 -24 25q-25 20 -121 32q-14 0 -64 -12h-4q-6 -6 -30 -14l-13 -4l8 2q-47 -19 -59 -47v2q-3 -5 -11 -15.5t-12 -19.5t-4 -19q-2 -2 -2 -12q0 -12 -5 -32t-5 -31l-8 -31l-6 -59q-6 -27 -6 -50v-24q2 -10 2 -37v-12q0 -3 1 -6.5t1 -6.5v-57 q-2 -14 2 -51q4 -28 4 -45v-31q0 -27 -2 -35v-78q0 -18 1 -46t1 -33v-29q2 -10 2 -43v-29q0 -28 2 -30q-3 -35 21 -89l18 -20l20 -10q3 -9 27 -15q8 -8 12.5 -10.5t8 -2t4.5 0.5l45 -8h8q3 0 6 -1t6 -1q2 -2 17 -2q67 -9 116 10q3 1 7 3.5t11.5 7l12.5 7.5h2l18 17l17 16 q35 27 35 105v35q0 1 -1 3t-1 3v26q0 17 2 31v45q4 82 2 127q-36 0 -54 2q-8 2 -18 2h-39q-47 0 -58 11q-9 10 -9 26q0 42 81 37l4 -1q4 -1 7 -1q2 -2 18 -2q13 -3 25 0q28 0 30 2h23q25 0 38.5 -5.5t24.5 -23.5v-24q0 -91 -2 -140v-104q1 -17 -2 -64q-10 -50 9 -82l-5 3 l17 -33l8 -23l6 -22v-13q0 -1 1 -3t1 -3q0 2 2 0z" />
<glyph unicode="h" horiz-adv-x="901" d="M756 958v-118q2 -33 2 -111v-55q0 -12 -1 -32t-1 -28v-114q0 -7 -1 -27.5t-1 -28.5v-28q0 -4 -1 -10t-1 -9v-16q0 -60 -4 -186q-1 -5 -1.5 -7t-1 -2.5t-0.5 -2.5v-7q0 -4 -1 -9.5t-1 -8.5v-17q0 -33 2 -51q0 -45 -2 -63q0 -47 -47 -47q-38 16 -26 51v112q0 7 1 11.5 t1 11.5q0 53 4 131v63q1 29 4 72.5t3.5 64t-1.5 66.5q-1 0 -4 -1t-4 -1h-29q-2 2 -10 2h-184q-7 0 -23.5 1t-24.5 1q-114 4 -165 4h-7q0 -9 -1 -40t-1 -37v-13q0 -1 -1 -3t-1 -3v-2v-8q0 -27 -2 -35q0 -45 2 -63v-48q-4 -62 -4 -88v-39q0 -7 1 -15t1 -15q-2 -6 -2 -25v-31 q0 -33 -2 -41v-16v-9v-10.5t-1 -9.5t-2.5 -10t-5 -8.5t-8 -7.5t-12 -4t-16.5 -2h-2q-7 0 -12.5 5.5t-8 10t-8.5 16.5q-4 28 0 60q0 3 1 10t1 10v21q0 1 0.5 1.5t1.5 2t1 4.5v10q0 3 1 6.5t1 6.5v100q0 53 2 84v125q0 3 1 6t1 6v23q5 31 -3 94t1 88q0 2 2 4q0 36 -2 59 q-4 57 -2 84v113q-2 16 -2 63q0 29 2 52v30q0 8 1 20t1 15v35q0 7 -1 18.5t-1 18.5q0 23 10 37q16 16 37 10q15 -7 21 -15t6.5 -13.5t0.5 -26.5v-142q-4 -84 -2 -116v-35q0 -8 1 -17.5t1 -13.5q0 -32 2 -55q0 -3 -1 -8t-1 -9v-8q2 -25 2 -82v-24q0 -3 -1 -6.5t-1 -6.5v-14 q48 0 158 -4h78q136 -4 192 -4h29v63v111q0 166 -6 262v45q2 6 2 35q-2 2 -2 20q-5 57 37 74q27 -10 33 -22t4 -35v-60q-2 -30 2 -96q0 -12 1 -37.5t1 -36.5z" />
<glyph unicode="i" horiz-adv-x="333" d="M129 471v2q0 3 -1 7t-1 5q-4 148 -4 154v104q2 49 2 134v108q0 7 1 22t1 23q0 3 1 11t1 12v75q-2 10 -2 41q0 2 -1 5t-0.5 6.5t3.5 7.5q5 34 29 49l14 -1q15 -1 21 -1q6 -25 6 -47v-166q-2 -47 -2 -137v-35q0 -4 -1 -10t-1 -9v-149q0 -109 6 -217v-207q0 -3 -1 -6.5 t-1 -7.5v-13q0 -17 4 -63v2q12 -53 2 -113v-28q12 -36 -33 -52q-17 0 -37 23v45q2 39 -2 133q-4 32 -4 55v23l1 2q1 2 1 6v119q0 57 -2 88z" />
<glyph unicode="j" horiz-adv-x="825" d="M125 315v76q0 16 1 24.5t6 20.5t18 17.5t34 5.5q22 -32 19 -56v-34q0 -3 -1 -6.5t-1 -6.5q-4 -88 -2 -137q0 -18 2 -24q0 -24 8 -37l6 -19q12 -38 72 -69q9 -7 26 -11h-2q14 -2 45 -2h37q6 0 13 1.5t27 5.5t46 8q18 3 62 32l18 23h-2q26 42 39 149v64l1 2q1 2 1 6 q0 2 -1 5t-0.5 5.5t3.5 6.5q1 18 0 35.5t0.5 37t5.5 29.5q-2 18 -2 59v117q-2 8 -2 25q0 3 -1 4t-1 4v10q-8 117 -8 336q0 96 2 143h-10q-31 0 -41 2h-60q-5 0 -14 1t-16 1h-138q-26 0 -47 21v22q6 31 45 31h197q50 0 65 -4h29q48 0 68 -20v-19q0 -3 1 -10t1 -10l-2 -2 q-2 -23 -2 -64q0 -43 -2 -61q0 -6 1 -29.5t1 -36.5v-61q0 -17 2 -82t2 -78v-57q0 -3 1 -7.5t1 -7.5q2 -8 2 -32v-62q0 -5 1 -14t1 -13q5 -78 -2 -110v-31q0 -3 -1 -5t-1 -5q0 -32 -2 -74t-2 -59q0 -4 -1 -10t-1 -9v-18q-6 -55 -8 -62q0 -7 -10 -28t-15 -47q-21 -37 -31 -52 l-24 -22q-17 -17 -41 -25l-33 -14q-23 -14 -70 -14h-16q-32 -4 -57 -4h-11q-30 0 -39 4q-31 0 -47 12q-42 19 -79 56.5t-54 78.5v-2q-4 8 -8 37q0 3 -1 5t-1 5q-2 8 -2 35v94q0 1 1 3t1 3z" />
<glyph unicode="k" horiz-adv-x="888" d="M750 68h-2l8 -19l4 -12l-2 8q1 -2 3 -6.5t2.5 -6t1.5 -5.5t0.5 -7t-2 -7.5l-3.5 -10.5q-10 -16 -29 -16q-29 0 -49 49l-31 59l-80 166q-3 5 -8.5 8.5t-7.5 5.5l-35 72v-2l-51 98l-45 86v-2l-47 90l-12 23q-13 21 -19 39l-2 -4l-43 -43v2l-57 -55l-11 -9l-14 -14 q-3 -33 0 -59q2 -23 2 -68q-1 -3 -0.5 -32.5t0.5 -30.5v-89q2 -31 2 -102v-31q2 -27 2 -96v-29q0 -43 -39 -43q-9 4 -14.5 8t-9 9.5t-4.5 8.5t-3 11.5t-3 12.5q-4 21 0 43v6l1 4q1 4 1 8q2 19 -2 41v29q-2 16 -2 61q3 28 0 55q0 14 -3 17q0 1 -1 6t-1 8v186q-2 31 -2 95v18 l1 2q1 2 1 6q0 31 2 47q1 14 1 27.5t-0.5 29t-0.5 23.5v27q-2 18 -2 67v64q2 18 2 51v264q0 20 7 27q12 22 49 16q12 -10 13.5 -13.5t6.5 -22.5v-232q-4 -110 -2 -164q0 -25 2 -39v-34q0 -8 1 -17t1 -14v-53l25 20q16 13 43 47l10 12l64 78l8 10q15 22 47 71t49.5 75 t43.5 63t49 64.5t46 50.5l4 6l11 15q1 6 3.5 11t7 11.5t7.5 11.5l-2 -2q17 29 43 29q13 0 31 -18q5 -6 6.5 -12.5t-2.5 -16t-6.5 -14t-10.5 -17.5q-13 -13 -20 -37l-8 -12l4 4l-25 -31l2 4q1 3 -3.5 -3t-28 -36t-54.5 -67q-5 -5 -10 -18l-70 -103l-53 -78v2l-16 -18 q-8 -14 -23 -29q15 -27 41.5 -78.5t42.5 -78.5l19 -35v2q101 -183 159 -305q0 -9 5 -9q3 -11 6 -14l16 -33q23 -55 64 -118z" />
<glyph unicode="l" horiz-adv-x="770" d="M223 -6h-26q-27 0 -41 26v31l2 -2v37q2 80 2 236v86q-2 41 -2 141q0 137 -6 209v28q0 3 -1 12t-1 17q-5 46 -5 154v178q0 44 -2 67q12 21 29 31h25q22 -17 22 -53q2 -25 2 -88v-86q-2 -41 -2 -103l4 -124l6 -134q0 -7 1 -17t1 -15v-125q5 -148 5 -209q0 -33 -3 -68v-59 q0 -3 -1 -6t-1 -6v-82h21q4 0 11.5 1t10.5 1q59 0 95 -1t45 -1q14 0 40 -1t40 -1q13 0 34.5 1t32.5 1h35q12 0 14 2h31q26 0 39 -13q10 -17 4 -39q-6 -20 -33 -20h-16q-31 0 -47 -2q-3 0 -6.5 -1t-6.5 -1h-167q-3 0 -8.5 1t-8.5 1q-14 2 -41 2q-18 2 -55 -2q-16 -2 -51 -2 q-19 0 -21 -2z" />
<glyph unicode="m" horiz-adv-x="1196" d="M1051 799v-322q0 -35 -2 -45q0 -86 -9 -127v-24q-2 -31 -2 -93q0 -3 -1 -7t-1 -7v-22q-4 -43 -2 -58q0 -12 2 -14q0 -94 -29 -93q-14 1 -34 21q-8 13 -8 39v31q-2 14 -2 41q4 94 4 141v49q0 3 4 23q3 16 4 34.5t1 41t1 34.5q0 5 1 20.5t1 20.5q2 2 2 31q-2 59 -2 209v121 q-2 18 -2 71q0 7 -1 19t-1 16v33q-2 31 -2 107q0 6 0.5 36t-0.5 35q-3 0 -7 1t-5 1t-5.5 1t-5.5 1q-3 0 -6 1t-6 1l-2 -10q0 -2 -0.5 -4t-3 -9.5t-5.5 -18t-9.5 -33.5t-14.5 -52q0 -15 -11.5 -43.5t-12.5 -33.5q-1 -12 -13 -35t-12 -35l-23 -66q-25 -51 -51 -153l-8 -43 q-15 -32 -23.5 -52t-12.5 -30.5t-5 -13.5l-4 -13l2 2q-2 -15 -10 -26l-12 -45l-17 -45l-6 -19h2l-16 -59l-8 -8q-1 -4 -2 -9t-2 -8t-1 -4l-10 -12l-12 -27q-2 -3 -4.5 -8t-4 -7.5t-4 -6.5t-6 -7t-8.5 -6q-32 -12 -51.5 4t-26.5 45l2 -2l-2.5 5t-1.5 6h2l-2 4l-8 26v7l-6 22 q-6 21 -6 27l-2 4q-5 0 -7 1t-2 2.5t0.5 6t0.5 8.5q-10 20 -13 35l-20 76l-6 14l-4 21v2q0 1 -0.5 1.5t-1 2t-0.5 4.5v4l-4.5 9t-4.5 13l-14 43q0 1 -1 3.5t-1 3.5l2 -9q-7 10 -10 39l-2 15l-4 12l-6 20v-2q-25 56 -37 107h2l-23 65l-18 58v-2l-13 33l-12 40v-2l-22 58 l-25 88q-2 2 -3 3.5t-0.5 2.5t1 2.5t0.5 3.5h-37q0 -47 2 -57q0 -61 -2 -92v-142q-2 -33 -2 -94v-20q0 -53 4 -70v-41q0 -4 1 -12.5t1 -12.5v-69q4 -77 2 -152q0 -3 -1 -6t-1 -4v-53q2 -8 2 -31v-35q0 -4 -1 -11t-1 -11q-4 -32 -4 -82q-2 -2 -2 -17q-3 -61 2 -88l2 -14v-6 q0 -40 -19 -48t-42 17q-12 12 -12 39v6q-5 12 -5 45v43q0 1 1 1q1 1 1 5q0 47 3 109q2 2 2 14q0 72 2 111v47q0 72 -2 111q0 4 -1 10.5t-1 9.5v43l-2 2q-1 2 -1 6v25q0 57 -2 88t-2 92q0 47 2 70v133q0 7 1 20.5t1 20.5v39q3 16 0 32v23q0 32 7 51q5 6 10 10t12.5 8t9.5 5 q6 2 27 2h94l12 -31l5 -4l4 -18q0 2 2 0q0 -7 2 -7l18 -59l-2 2l8 -20v2l13 -39l108 -332l4 -14v6q25 -98 56 -201l-2 2l6 -20l14 -48q1 -6 2.5 -10.5t3 -8t2.5 -5.5l4 -12l-2 8l8 -21l15 -39l2 -10l10 29l14 35l7 20l6 19l12 34h-2q12 41 39 111q29 52 29 86l30 92v4 l68 195q0 10 4 14l18 51q0 1 4 17l5 14q4 28 16 57l4 21l8 20v7q6 12 6 22q1 14 3.5 22.5t13.5 15.5t30 7q22 0 50 -4q1 0 4 -1t6 -1q2 0 5.5 0.5t5.5 1t4.5 -0.5t4.5 -3h2q1 0 3.5 -1t3.5 -1h16q2 -2 14 -2q13 -40 13 -129v-115q6 -53 6 -108v-50q0 -5 -1 -14.5t-1 -13.5z M604 295h-2q0 -4 2 -4v4z" />
<glyph unicode="n" horiz-adv-x="958" d="M150 63l-5 52q0 4 -1 8.5t-1 5.5v35q0 21 4 67q11 91 11 199q2 16 -2 59q0 1 -1 4.5t-1 6.5v106q0 4 1 11.5t1 11.5v57q-6 115 -6 352v37q0 103 2 150q56 50 112 0q37 -61 66 -154v2l20 -45q3 -13 15 -38t14 -32v3q35 -72 53 -125v2l152 -361q4 -14 28 -69 q33 -79 52 -120l2 -5q1 -1 2 -3l2 -4t2 -2l18 -43q38 -94 45 -104v217q0 25 -2 39v41q0 22 -4 68q-2 43 -2 129v18q0 3 -1 11t-1 12v61q-2 14 -2 53q-2 57 10 154q2 18 2 69v39q0 3 1 7.5t1 7.5q2 2 2 24v64q-4 67 2 100q22 19 31 19q5 0 31 -9q12 -30 8 -49q-2 0 -2 -4 l4 -49q0 -3 1 -8t1 -8v-33q0 -24 -4 -70q-2 -18 -2 -49v-14q0 -39 -6 -86q-4 -32 -4 -47q-3 -45 0 -84v-72q0 -69 2 -100q8 -164 8 -353v-39q0 -114 -4 -145q-20 -43 -82 -23q0 -2 -18 -2l-78 172l-19 45q-4 12 -15.5 36.5t-14.5 33.5v-2q-36 75 -54 127v-2l-30 72l-31 75 l-12 31l-19 37q-46 99 -59 143q0 5 -4 9q-18 51 -27 63l-29 70l-4 12l2 -8l-6 14l-6 19l-10 24l-2 2l-19 41l-28 70l-4 8q-2 9 -7 14l-6 15q-1 -17 -1 -35t0.5 -39t0.5 -33v-112q0 -25 2 -39v-39q0 -24 4 -70v-78q0 -4 -1 -12t-1 -12v-43q0 -4 1 -12.5t1 -12.5v-61 q2 -14 2 -54q3 -77 -6 -153q-2 -18 -2 -70q0 -3 -1 -7t-1 -7v-39q-2 -2 -2 -25v-61q5 -70 -4 -103q-15 -18 -31 -18q-20 0 -30 10q-10 16 -7 47z" />
<glyph unicode="o" horiz-adv-x="856" d="M727 270q0 -2 2 -2l2 -2l-9 -30l-5 -18v1l-6 -24l-6 -29q-32 -138 -234 -170l2 2q-9 -4 -29 -4q-3 0 -5 -1t-5 -1h-8q-106 -8 -191.5 64t-97.5 182v-2q-4 28 -4 30q-6 33 -6 107v30q0 5 1 14.5t1 14.5v94q0 23 -2 25q-2 25 -2 78q0 1 -1 4t-1 6v57q0 3 1 5.5t1 5.5 q0 28 2 38v13q0 3 1 8t1 8q0 29 2 39v33q2 16 2 49q4 73 12 121l5 14v2q0 4 1 8l1 4q2 2 2 9q9 36 28 77q15 21 33 39q5 6 33 23l28 18l48 17q11 4 38 4q15 4 84 4h11q2 0 30 -4q9 0 25 -4q2 -2 12 -2l39 -17q60 -26 92 -65q64 -95 56 -168v-6q0 -1 1 -3t1 -3v-86 q0 -94 8 -170q8 -60 8 -187q2 -14 2 -41v-47q0 -4 1 -7l1 -3v-10l-2 -76q-4 -46 -4 -66zM616 154q13 18 23 59q4 12 4 57q0 8 1 19t1 16q0 69 8 105l-1 2q-1 2 -1 6v117l-6 116q-6 55 -6 174v78q-2 8 -2 29q-3 21 0 45q8 44 -35 110l-4 5q-30 39 -66 55q-2 2 -4 2 q-13 8 -41 8h-94q-3 0 -6 -1t-6 -1h-8q-37 0 -68 -14l-14 -8l-6 -3q-4 -3 -25 -24q-36 -61 -43 -96l-6 -39q-6 -33 -6 -94v-52q0 -3 -1 -6t-1 -6v-29q0 -10 0.5 -27t0.5 -26.5t-1 -21t-4 -19.5v-37q0 -57 6 -110v-137q0 -5 1 -14t1 -13v-21q0 -63 4 -84q0 -17 4 -26 q4 -81 71 -135.5t148 -46.5h-2q2 2 39 2q92 12 145 86z" />
<glyph unicode="p" horiz-adv-x="856" d="M727 967v-11l1 -1q1 -1 1 -5v-26q11 -88 -10 -160l-17 -39q-18 -43 -40 -70l-9 -8l-24 -22l-35 -23l-14 -8l-9 -2q-26 -10 -84 -14l-86 -9h-65q-63 0 -96 2h-21v-30q0 -33 2 -56v-28q0 -1 1 -3t1 -3q4 -45 0 -89v-143q0 -5 1 -15.5t1 -15.5q0 -79 -6 -114v-41 q0 -23 -8 -31q-12 -12 -27 -12q-16 0 -28 12q-11 15 -11 43v41q0 27 2 37v-2q3 47 3 88v221q0 3 -1.5 8t-1.5 8v181q0 3 -1 6t-1 6v84q0 3 1 6t1 6q-2 16 -2 88q-2 16 -2 58q0 79 2 118v68q0 4 1 12.5t1 12.5v47q0 11 3 14q0 58 26 74q7 4 31 4h8l27 -4q4 0 6 2q4 4 8 4 q8 2 25 2h24l3 -1q4 -1 9 -1h31q10 2 41 2q136 10 225 -61q97 -81 105 -168l2 -5q0 -1 0.5 -1.5t1 -2t0.5 -4.5l2 -12l1.5 -9t0.5 -5zM655 866q3 19 0 35q0 33 -2 49q0 15 -2 29q0 3 -1 8t-1 8q-8 63 -71 113q-91 75 -209 53q-33 0 -47 -2q-15 0 -29 2h-29q-12 0 -14 -2h-14 q-1 0 -3.5 -1t-3.5 -1h2q-2 -2 -4 -2h-4q0 -26 -2 -51q0 -5 -0.5 -20.5t-1 -44.5t-0.5 -68q-4 -126 -4 -205v-27q0 -12 -1 -30.5t-0.5 -31t3.5 -30.5q22 -4 90 -4h58q131 0 174 16l26 13q18 7 29 18l37 49q3 3 6 15q14 34 18 112z" />
<glyph unicode="q" horiz-adv-x="829" d="M139 195v4q-12 51 -10 88v30q0 9 1 30t1 30q0 13 -4 59q-4 31 -4 142v36q0 128 2 183v8q0 111 -2 174v22q0 3 1 6.5t1 6.5l2 4q4 66 52.5 121t113.5 80q15 6 33 10q3 0 6 1t6 1q61 6 123 -5.5t115 -39.5t82.5 -80t21.5 -119q2 -8 2 -33q0 -27 2 -43q2 -23 2 -77 q0 -80 -2 -113q0 -29 -2 -35v-127q0 -63 -2 -94q0 -3 -1 -12t-1 -13v-24q0 -37 -2 -51v-95q5 -72 -14 -108v-6q-24 -43 -31 -50q-22 -27 -70 -57l-14 -14q18 -38 63 -154h-2l8 -16q2 -5 7 -20.5t10 -24.5l26 -62v4q24 -33 9 -57q-16 -16 -33 -16q-25 0 -37 32h-6q-4 0 -4 7 q-4 4 -4 14q-11 25 -17 49v-2l-20 49l-4 8q0 1 -1 4.5t-1 4.5l-15 34q-23 72 -45 111v2q-6 6 -6 8q-2 0 -4 -2h-2q-5 -1 -19.5 -4t-20 -4.5t-17.5 -3.5t-19 -2h-16.5t-18 1.5t-16.5 4.5l-29 12l-14 4q-2 2 -6 2q-5 0 -12 7q-105 51 -142 170zM203 451v-78q0 -8 0.5 -24 t0.5 -29t-1 -25v-41l6 -33l-2 2l4 -14q1 -2 10 -15t11 -16.5t10 -15t12 -16t12 -14t13.5 -14.5t13.5 -11t16 -11l10 -12q3 0 8 -1l5 -1q4 -4 10 -4q4 -4 8 -4q2 -2 4 -2q47 -6 88 0l-2 -2l23 6h-2q44 15 65 39l13 6q31 19 45 43h-2q7 7 10 29q0 13 6 22l4 16q0 3 1 8.5 t1 8.5q2 2 2 14v23q-10 68 2 196v37q0 8 1 19t1 16v68q0 59 2 92v100q2 42 -2 111v55q0 3 -1 6t-1 6q-1 28 -3 42.5t-10 34.5t-22 32q-75 67 -229 55q-8 -1 -20.5 -5t-16.5 -5l2 2q-105 -44 -108 -123q0 -3 1.5 -6.5t1 -6t-4.5 -5.5l-2 -5v-24q6 -47 6 -150q0 -7 -1 -21 t-1 -18v-47q0 -29 -1 -93t-0.5 -109t3.5 -88zM489 10q-2 2 -8 2q2 -2 8 -2zM322 82l6 -4v2h-2q-4 0 -4 2z" />
<glyph unicode="r" horiz-adv-x="827" d="M207 -18h-35q-30 15 -27 110v14q0 13 5 48v26q2 2 2 25q2 25 2 76v14q0 53 2 78v57q0 7 1 21t1 22q0 57 2 88v119q0 7 -1 21.5t-0.5 23.5t3.5 16q2 2 2 15v2q0 4 2 6v61q2 63 2 183v10l1 2q1 2 1 6q0 84 -2 125q0 16 -2 18l2 27l4 6q0 20 27 29h84q23 2 77 2q39 0 101 -4 q51 -3 86 -21v2l12 -4l31 -12l35 -31l16 -20q35 -53 51 -146v-18q0 -8 2 -10v-19q3 -23 -2 -67v-29q-2 -2 -2 -12q0 -3 -1 -7t-1 -8q0 -3 -1 -8t-1 -8q-11 -89 -29 -119v2l-12 -14l-14 -16h-2l-27 -25q-3 -3 -8.5 -9.5t-10.5 -11t-12 -8.5h2q-2 -1 -51 -22v2l-20 -6l2 -6 l-2 2l6 -21l6 -18l8 -17q0 -2 -2 0l19 -39q16 -61 32 -102l9 -18v2l16 -43q12 -23 21 -47t20 -58.5t20 -58.5q0 -1 2 -4t5.5 -8t5.5 -9q3 -10 5 -20.5t5 -20.5v2l6 -12q0 -8 2 -10q0 -4 4 -8q0 -7 2 -7q17 -24 2 -57l-22 -14l-2 -2q-1 0 -12.5 -1t-12.5 -1q-20 20 -24 47 l-5 16l-4 15q-20 41 -34 96l-58 153l-8 19q-3 6 -39 104v-2l-12 33l-23 53l-1 2q-1 2 -1 6v5q-7 11 -10 28v4q-14 -2 -33 -2q-25 0 -39 2q-6 1 -11 2l-7.5 1.5t-3.5 0.5h-29q-3 0 -7 1t-7 1h-10q-34 0 -50 2v-38q1 -15 1 -37t-0.5 -49.5t-0.5 -38.5q0 -3 -1 -9.5t-1 -9.5 v-37q0 -3 -1 -7t-1 -7v-53q-2 -23 -2 -76q0 -1 -1 -1q-1 -1 -1 -5v-43q-6 -44 -6 -80q0 -19 4 -51q6 -18 -14 -51zM238 995v-295q0 -35 -2 -53h28q3 0 7.5 -1t7.5 -1h10q30 0 53 -2t53 -2h11q28 0 51 8q48 12 70.5 22t41.5 31l11 11l8 10l-2 -2l12 18v2q0 9 2 11l6 24v-2 q15 103 15 170q0 7 -3 10q-3 86 -59 166l-12 10l-6 7q-4 0 -6 2q-9 0 -13 4l-4 2l-18 6q-28 8 -115 8h-14q-47 0 -72 -2h-63q0 -1 1 -2t1 -2q0 -8 2 -10v-58q0 -5 1 -15t1 -15q0 -28 -4 -60z" />
<glyph unicode="s" horiz-adv-x="825" d="M702 936q0 -31 -10 -45q-16 -16 -43 -10q-32 19 -20 47v12q-4 37 -11 68l3 -2l-7 18l-8 20l-10 19v-2q-21 53 -66 84h2l-10 4l4 -2q-4 0 -5 2l-1 2l-20 8h2q-15 6 -56 10q-2 2 -12 2q-64 0 -114 -20t-68 -55q-9 -11 -23 -43q0 -6 -6 -15q-10 -22 -14 -57q-3 -49 14 -107 v3l13 -25l12 -18q31 -57 80 -97l14 -14q21 -26 66 -59l12 -11q6 -7 14.5 -14.5t19.5 -16t17 -14.5l18 -16l46 -37l24 -25l33 -36l16 -17l19 -26l14 -19q28 -42 37 -102q0 -4 2 -6q16 -100 -18 -181l-9 -16q-12 -27 -57 -72l-16 -12l-11 -12l-20 -11l-10 -4l-7 -2 q-8 -8 -14 -8q-44 -18 -115 -18q-43 0 -59 2h-8q-4 0 -6 2q-9 0 -13 4q-49 16 -55 22h4l-26 11q-11 8 -20.5 18t-22 24.5t-19.5 22.5q-8 8 -8 10q-3 4 -7 13.5t-7 13.5l-9 19l3 -5l-7 19q-13 34 -16 74q0 12 -2 14v24q0 13 -0.5 26t8.5 24t27 14q39 0 43 -66v-20 q0 -124 104 -176h-2q1 -1 5 -2t5 -2q2 -2 4 -2l31 -6q3 0 5 -1.5t5 -1.5h27q50 -3 98 9q9 0 15 6q6 0 8 2l6 2q2 0 2 2q0 4 2 6q48 41 57 64l7 10q30 56 26 155q-2 2 -2 15l-1 2q-1 3 -1 8q-2 4 -8.5 19.5t-11.5 21.5l-2 2l-7 10l-22 29q-7 4 -10 12l-51 58l-7 4l-4 4 l-41 31q-11 8 -31.5 27t-23.5 22l-16 16q-19 14 -38 31t-30 28t-27.5 28t-23.5 24l-35 37q-6 7 -12.5 15.5t-13 19t-9.5 14.5l-10 18l-6 10l-10 25v-2q-11 22 -15 74q-12 66 8 112q28 80 41 103q47 63 164 96q21 8 68 8q40 0 67 -6l19 -4q11 -2 47 -14l8 -7q11 -3 21.5 -9.5 t16.5 -10.5t14.5 -16.5t11 -15.5t12 -19.5t10.5 -18.5l-4 4l6 -10l2 -2q15 -25 17 -27l-4 7l12 -29l1 -1l1 -3q17 -35 20 -88h2v-29q0 -1 1 -3t1 -3z" />
<glyph unicode="t" horiz-adv-x="911" d="M659 1229h129q26 0 35 -25l2 2q4 -4 4 -24q-21 -27 -61 -27h-43q-2 2 0 2h-63q-114 0 -156 -4q-6 -88 -6 -319q0 -27 2 -41v-58q0 -13 -1 -30t-1 -23v-121q0 -4 0.5 -19.5t1 -57t0.5 -107.5q0 -4 -1 -11t-1 -10v-237q-2 -2 -2 -15q-4 -42 -2 -67q-12 -32 -24.5 -45 t-25.5 -1.5t-24 50.5v39q0 3 1 10.5t1 11.5q2 23 2 70v475q-5 74 0 94v209q0 129 2 201q-297 0 -303 1q-16 1 -23 5q-15 8 -18.5 16t1 16t17.5 21q18 11 45 11q2 2 23 2h25l3 1q3 1 7 1h139q23 -2 57 -2q41 0 107 4h8q62 4 100 4q6 -3 13 -3.5t16.5 0.5t13.5 1z" />
<glyph unicode="u" horiz-adv-x="876" d="M143 1133v41q0 40 12.5 59.5t49.5 -2.5q27 -19 12 -68v-53q0 -3 1 -8t1 -8v-72q0 -3 1 -8.5t1 -9.5v-175q0 -104 2 -167v2q4 -48 4 -203v-127q0 -3 -1 -9.5t-1 -9.5v-30q0 -3 1 -3t1 -1q1 -5 3 -21.5t3 -24.5t4 -22.5t5 -23.5t6 -19.5t8 -17.5l4 -5l12 -14 q72 -75 158 -67h55l60 14l-2 -2l35 14h-3q11 6 27 35v-2q39 48 43 117v20q12 114 12 324v53q2 33 -2 92q-2 14 -2 51v43q0 80 -4 103v100q0 28 4 90v21q4 46 4 63q10 31 37 31q23 0 33 -29q4 -36 4 -55q0 -22 -4 -68q-4 -32 -4 -49v-18q0 -48 -2 -66q0 -25 4 -53 q4 -46 4 -72q-2 -29 2 -90v-76q0 -7 1 -19.5t1 -19.5q0 -9 -1 -22.5t-1 -17.5v-144q0 -90 -12 -192v-6l-4 -29q-13 -71 -19 -82q-8 -8 -8 -6l-14 -21q-36 -51 -70 -69q-4 -3 -9 -4.5t-13.5 -4t-14.5 -4.5q-2 0 -4 -2l-18 -6q-1 0 -2 -1t-2 -1t-3 -1t-6 -1q-1 0 -3 -1t-3 -1 q-3 0 -4.5 -1t-5.5 -1q-4 -2 -35 -2h-63q-117 -4 -178 65l-23 23q-28 28 -39 72l-2 2q-5 0 -7 1t-2 2.5t0.5 6t0.5 8.5q-9 23 -12 76q-2 6 -2 16q-5 19 0 76v12q2 23 2 62v16q0 42 -2 58q0 3 -1 11t-1 11v115q0 4 -1 11t-1 11q-5 97 -3 135v52q-4 34 0 63q0 11 -1 44.5 t-1 49.5q-2 43 -2 136zM565 14h-2q1 0 2 1t2 1z" />
<glyph unicode="v" horiz-adv-x="872" d="M274 696l-2 2q7 -14 21 -67l4 -25l2 -8l8 -29q8 -54 25 -108l12 -47l10 -37l6 -27v2q43 -158 62 -280h10q1 0 4 1t4 1l2 2q0 8 2 10l9 25q4 19 8 26q0 1 4 17l10 26q0 12 6 21q13 41 19 75q0 1 1 6.5t1 6.5h2l4 18l6 27q2 2 2 18l1 1q1 1 1 5q0 18 4 23v2q5 15 15.5 57 t19.5 60l45 192q8 35 9.5 51t9.5 45l16 64l6 29l6 37q1 6 2 11l1.5 7.5t0.5 3.5q0 11 13 67.5t18 61.5q25 75 25 94q2 0 2 6q0 1 1 3t1 6q1 21 3.5 34t11.5 25t24 12q14 0 24 -10q11 -11 13 -19t-5 -26q0 -10 -8 -18v-9q-2 -2 -2 -10q-1 -2 -1 -8t-1 -18t-4 -25l-10 -41 q-2 -3 -9 -32t-13 -57t-5 -28l-4 -20l-6 -33q-2 -33 -14 -68q0 -3 -1 -6t-1 -4l-11 -53v-14q-2 -7 -4 -7q-1 0 -1.5 -1t-1.5 -6l-3 -15q0 -3 -1 -5t-1 -5q-1 0 -4 -9q2 2 2 0l-10 -43q-26 -94 -33 -129q-1 -6 -2 -11l-1.5 -7.5t-0.5 -3.5l-43 -176l-17 -53h2l-28 -109 l-8 -29l-15 -49q0 -4 -1 -7l-1 -3q-2 -2 -2 -6h-2h-2v-6q0 -19 -2 -21v8q0 6 -2 -1l-2 -13l-8 -14q0 -10 -21 -25q-13 -8 -37 -8h-10q-4 0 -6 1q-1 1 -2 1h-14l-54 4q-4 19 -17 86.5t-18 92t-16 73.5t-20.5 85.5t-20.5 74.5l-6 26l-12 52l-12 53q-4 17 -8.5 35.5t-10.5 40.5 t-10 36l-4 31l-8 25v-2q-16 61 -21 96l-8 33l-6 32l2 -4l-4 11q2 2 -1 13t-7 17q0 1 -1.5 3t-1.5 3l3 -8q-19 42 -29 94q-2 2 -2 23l-1 2q-1 2 -1 6v10q0 15 -2 17q0 1 -1 5t-1 7h-2q0 1 -1 7t-1 7v2q-3 0 -3 3l-1 1q-1 1 -1 5v22q-6 18 -6 19h-2q0 1 -1 7t-1 7v6q0 1 -1 6 t-1 6l-4 5q-15 15 12 51q37 4 48.5 -11t13.5 -45v-8h2q0 -4 2 -4v-2l10 -22q0 -9 2 -11l2 -18q4 -16 4 -19h2v-26q0 -6 2 -8q7 -60 27 -121l10 -35l6 -16q5 -15 9.5 -34t7.5 -26q0 -14 2 -16q0 -1 1 -3t1 -3q13 -71 22 -101zM682 709v2l-3 -17l-1 -7v1q0 3 1 7t1 7v3 q0 2 2 4z" />
<glyph unicode="w" horiz-adv-x="1292" d="M662 1092l-5 14v-6q-2 -2 -2 -4l-6 -39q0 -3 -1 -6.5t-1 -6.5t-3 -32t-9 -81.5t-14 -113.5q-3 -13 -7.5 -38.5t-7.5 -37.5l-14 -63l-14 -74l-11 -61l-6 -23l-12 -57l-8 -51l-29 -142v2l-43 -186q-1 -5 -5 -16.5t-5 -16.5q-1 -36 -23.5 -50t-54.5 -3q-10 6 -14 2 q-1 0 -6 -1t-9 -1q-28 0 -37 6q-17 15 -26 41l2 -2q-4 20 -4 31q-2 0 -2 2v6l-1 2q-1 2 -1 6l-9 53v2q-2 2 -2 13q0 2 -2 4l-14 92l-8 57l-17 82l-8 33l-6 33l-6 28l-6 35l2 -2l-6 21v-2q-6 16 -15 61q-6 17 -10 68v10q0 1 -1 3t-1 3v4q-11 51 -14 92q-3 18 -9 31.5 t-10 26.5q0 14 -2 16q0 12 -2 18q0 3 -2 5q-8 16 -14 79l-17 89q-2 2 -2 14v6q-2 0 -2 4v12l-6 43l-2 2v23q0 1 -1 4t-1 4q0 2 -2 4q-7 11 -5.5 29.5t11.5 28.5l17 8q26 10 36.5 -5.5t10.5 -43.5v-15q0 -1 1 -1t1 -1l6 -41q5 -36 8 -41l8 -41q0 -6 6 -37.5t14.5 -71 t10.5 -48.5l4 -25q3 -20 9.5 -42t9.5 -48l16 -90q1 -4 6 -39q0 -3 1 -8t1 -8q3 -12 7 -34.5t7 -33.5l9 -37l8 -33l6 -36l8 -39l10 -68q3 -16 3 -25t1 -12q0 -3 1.5 -6t1.5 -6l8 -51l20 -113q3 -8 4 -28.5t4 -28.5v2v2h27l31 123l26 114l25 109v-2l1 1q1 1 1 5v23l18 79l9 29 q0 10 2 12q0 3 1 6.5t1 6.5l35 196l14 70q3 15 9 81.5t9 76.5q0 4 2 6v10l19 94v2l1 4q1 4 1 8l20 74l31 15l29 2l39 -15l18 -71l4 -25l4 -14q13 -69 27 -111l12 -119v2l10 -59l19 -96q5 -11 7 -19t2 -11.5t-0.5 -11.5t-0.5 -14q4 -39 14 -69q3 -38 9 -51l16 -86l4 -29v2 l18 -100l-2 2l9 -29l2 -18q0 -1 1 -4t1 -7q1 -7 5 -21l1 -9l12 -41q1 -6 17 -70v-4q0 -1 1 -3t1 -3h2q0 -9 4 -29q0 -3 1 -9t1 -9q0 -4 1 -6t1 -3v-10q2 -2 6 -2q15 92 55 264q17 68 29 148l41 244l16 122v-2q2 2 2 4q0 9 2 13v8l9 47l18 135l1 3q1 3 1 7q13 119 25 154v6 q0 1 1 3q4 12 6.5 17.5t12 11t23.5 5.5l6 -2l7 -1q7 -1 11 -1q5 -12 6.5 -20t1.5 -12t-1.5 -12t-2.5 -15q-2 0 -2 -2q-6 -24 -9.5 -49t-6 -52t-4.5 -41l-19 -139q0 -3 -1 -6t-1 -6l-6 -62q0 -3 -1 -8t-1 -6q-1 -5 -3.5 -13.5t-2.5 -17.5l-6 -33q-3 -27 -8.5 -50t-8.5 -42 q-4 -45 -10 -59l-24 -156h-2l-2 -3q-1 -3 -1 -7q-13 -92 -22 -135l-8 -29l-6 -31q-21 -77 -35 -153q0 -19 -2 -21l-19 -73l-39 -2h-18l-59 8q-9 26 -23 67q0 3 -1 9.5t-1 9.5l-4 20q-1 2 -2 7t-2 9t-2 5l-6 12q-11 18 -11 43l-18 94l-4 17q-21 100 -29 153l-10 64l-4 20 q-4 16 -4 21q-11 31 -15 63l-4 33q-8 75 -32 188q0 1 -1 5.5t-1 5.5l-7 24l-8 37q0 10 -5 54.5t-9 54.5q-1 4 -14 88z" />
<glyph unicode="x" horiz-adv-x="796" d="M596 121l-2 10v-2l-14 33l-13 35v-2q-7 15 -21 47t-21.5 48.5t-22 44t-31.5 54.5q-10 15 -20 34t-20.5 42t-16.5 35v-2l-23 41l-26 -60q-3 -6 -13.5 -28.5t-13.5 -28.5v2l-25 -53q-49 -122 -82 -183v2l-10 -24v2l-10 -25l-10 -20l-25 -51l-12 -29q-2 -2 -2 -4l-17 -33 q-19 -24 -51 -10q-3 5 -5.5 9.5t-4 8.5t-2.5 8t-1 7t0.5 7t1 6t2 5.5t2.5 5.5t2.5 5.5t2.5 4.5v-2q0 1 2 3.5t2 3.5q21 91 66 151q66 133 94 209l47 100q8 12 19.5 41t17.5 41l8 23l-8 16l-35 78q-63 147 -102 219q-4 8 -7.5 12.5t-5 6.5t-3.5 5t-5 10t-8 19l-18 39l-19 45 q-4 10 -9 21.5t-14 30t-16 32.5l-2 2q-9 12 -10 17t2 24q2 12 29 29q16 0 31 -15.5t24 -35.5l31 -68l12 -28l45 -103l14 -22l17 -33l41 -90l51 -111q37 89 79 181.5t62 138.5l4 6l39 80l56 80q28 0 55 -27l-23 -55l-28 -45l-13 -27l-6 -12v2l-10 -25l-4 -12 q-73 -148 -152 -346l-14 -39q39 -84 59 -113l17 -28l14 -27q9 -30 25 -49q8 -14 73 -146l15 -34l-2 2l18 -39l37 -93q0 -1 1 -4t1 -4l14 -22q11 -14 15 -29v-29q-20 -20 -37 -20q-21 0 -37 37l-4 8l2 -8l-6 12l-6 6z" />
<glyph unicode="y" horiz-adv-x="759" d="M653 1235l23 -18l2 -21l-10 -25l-6 -16l-21 -61l2 2q-9 -36 -25 -64v2l-32 -82l-21 -45q-48 -125 -71 -172l-54 -129q-2 -2 -2 -12l-4 -6q-1 -2 -3.5 -6t-2.5 -7l-4 -11v1q-3 -15 0 -30v-74q-2 -14 -2 -41q-2 -41 -2 -121v-121q0 -4 -1 -10.5t-1 -9.5v-21q-3 -27 0 -57 v-35q6 -25 -10 -41q-12 -12 -41 -12q-17 10 -21 19.5t-4 31.5q0 8 2 10q-2 2 -2 15v8q0 3 -1 6t-1 6l-1 2q-1 3 -1 8v6q-3 16 0 31q0 1 0.5 1.5t1 2t0.5 4.5q2 2 2 15q4 160 4 235q0 52 -4 162q-30 38 -47 84l-4 10v-4q-20 50 -37.5 98t-22.5 60l-38 115h2q-1 3 -2 6.5t-2 5 t-1 2.5v2l-6 14l-8 21l-31 67l-26 68l-6 18l-11 21v-2l-12 28v-2q-19 25 0 50l25 14q12 0 20 -4t11 -7.5t10 -13.5l4 -12l2 -4q21 -42 61 -152l33 -67l33 -80q8 -21 11 -42t11 -40l15 -39l22 -55q7 -27 23 -70q0 2 2 4v-2q39 98 76 168q14 31 32 78l35 92q36 79 49 125 l29 76q0 8 4 12q11 41 41 41z" />
<glyph unicode="z" horiz-adv-x="813" d="M686 72h4q18 0 41 -23v-33q-27 -18 -43 -18l-18 2q-14 2 -43 2h-95q-4 0 -7 -1l-3 -1h-63q-1 0 -5 1t-5 1q-2 2 -13 2h-8q-3 0 -7 -1t-7 -1h-11q-8 -2 -38 -2h-183v-2l-6 -1q-7 -1 -12 -1l-2 1q-2 1 -6 1q-11 4 -23 -2q-24 21 -24 59l2 2q-3 12 0 27q0 1 1 4t1 4 q21 37 24 53l6 21l19 43l16 35l15 24l20 43v-2l14 29l43 88l25 47v-2l16 43q77 143 145.5 297.5t106.5 218.5l-2 -2l17 33q6 10 20.5 39.5t24.5 46.5h-31q-5 0 -16.5 1t-16.5 1h-31q-8 0 -19 -1t-15 -1h-33q-4 0 -14 1t-15 1q-8 0 -18 -1t-13 -1h-39q-9 4 -36 4h-11 q-63 0 -102 2q-3 0 -6 -1t-6 -1h-47l-2 -2q-4 0 -11 1t-8 1l-4 2q-26 0 -37 14q-19 16 2 62q21 -5 74 0h80q2 -2 28 -2l4 -1q4 -1 7 -1h30q9 0 11 2q18 3 49 -2h51q113 0 160 2q10 -2 39 -2h20q31 0 62 -27q-2 -14 -2 -31v-34l-9 -15l-10 -16l-20 -29v2l-9 -18l-14 -33 l-18 -41q-29 -52 -78.5 -160t-77.5 -157q-21 -38 -22 -41q-3 -21 -9 -27q-46 -80 -51 -96l-24 -49l-23 -47l-37 -76l-8 -17q-29 -70 -53 -108v2l-6 -17l-9 -12q2 2 4 2l-6 -12l-8 -25l-8 -16q-4 -17 -8 -21q-4 -8 -10 -14l-5 -10l-6 -8h11q1 0 5 1t7 1q23 -2 74 -2h77 q90 0 129 -2q17 0 19 2h117q42 0 65 -2z" />
<glyph unicode="{" horiz-adv-x="468" d="M104 592l-10 12q-12 12 -12 33q2 7 20 25l17 8h2l8 8l23 18l8 2l4 2q10 10 37 70q15 34 24 80q3 93 -12 194l2 -4q-4 20 -4 21t-1 3t-1 3v6q-2 18 -2 66v35q-4 31 0 59q4 63 29 115q22 34 43 59q22 26 57 45l29 6l18 4q6 6 18 6q23 0 35 -28q-10 -23 -20.5 -31.5 t-30.5 -15.5q-1 0 -3 -1t-3 -1h2q-15 -3 -19 -7q-47 -21 -69 -94q-12 -32 -12 -55v-145q0 -3 1 -7.5t1 -7.5l4 -28q2 -2 2 -17q0 -3 1 -6t1 -6q10 -65 10 -123q0 -61 -18 -111q-27 -82 -60 -127l-22 -12l-17 -14q43 -37 66 -76q3 -3 6 -9t6 -9l19 -29l4 -31v-6q6 -6 6 -12 q8 -13 8 -41q2 -55 -8 -129q-2 -2 -2 -8q0 -1 -1 -3.5t-1 -3.5v-12q-2 -2 -2 -12q0 -4 -1 -7l-1 -3v-11q-11 -86 -11 -135q0 -62 15 -102q4 -5 13 -24l5 -9l23 -29q6 -15 22 -28q4 -4 -2 -4q4 0 6 -2l12 -5h-1l16 -12q13 -13 33 -20l4 -2q24 -9 29 -19q2 -6 2 -14 q0 -12 -9 -21q-10 -16 -43 -16l-14 10h-8l-21 15l-18 10l-17 12q-40 32 -69 74l-2 4l-19 25l-8 18q-24 53 -24 133q0 57 8 98q0 3 1 7.5t1 7.5l6 59v-8q0 8 2 20t2 15q10 78 10 121l-2 4l-1 4q-1 4 -1 8l-4 16l-6 23v10l-2 4q0 1 -1 4t-1 4l-6 7l-8 10l-9 16v-2 q-27 55 -82 76zM356 -102l-6 4q6 0 6 -4zM414 -141l-4 2q2 0 4 -2z" />
<glyph unicode="|" horiz-adv-x="247" d="M164 -96v-162v-2q0 -2 2 -4v-23v-15t-1.5 -13.5t-4.5 -10.5t-8 -7t-13 -3t-20 2q-36 2 -25 51q0 1 3 -1q7 -5 7 -1q-4 0 -6 2q-4 4 -4 7q-2 2 -2 16q-3 11 -3.5 24.5t0.5 32.5t1 25v131q0 102 -2 151q0 53 -2 84q0 154 2 234q2 49 2 156v71q0 49 -2 76q0 49 -2 74v131 q0 11 -1 32.5t-1 34.5v113q-2 23 -2 78t2 78q0 41 2 49v8q4 36 4 51v23l-2 16v12q0 11 1 16.5t9 13t23 11.5q36 0 39 -30q7 -27 2 -72l-1 -2q-1 -2 -1 -6v-10q-4 -208 -4 -328q0 -37 2 -62q4 -61 2 -98v2q-2 -45 2 -143v2q2 -31 2 -111q0 -55 -2 -86q-2 -18 -2 -55v-59 q-2 -14 -2 -35v-113q0 -8 1 -22t1 -21q0 -46 2 -159.5t2 -153.5z" />
<glyph unicode="}" horiz-adv-x="471" d="M385 643l2 -4q7 -16 -12 -35q-1 -3 -2.5 -5.5t-2.5 -4t-1 -2.5q-27 -7 -46 -25t-38 -51l-11 -14l-2 -6q-8 -10 -8 -11t-1 -4t-1 -4l-2 -4q0 -1 -1 -4t-1 -6l-6 -25q0 -8 -4 -12v-2q0 -4 -1 -8l-1 -4l-2 -4q0 -16 14 -144q0 -3 1 -10t1 -10q15 -39 11 -39l-5 -4 q0 -3 1 -7.5t1 -7.5q6 -46 6 -98q0 -81 -24 -133l-12 -18q-6 -6 -9 -15l-8 -6l-6 -18q-10 -18 -65 -66l-39 -27l4 5l-15 -13q-12 0 -14 -2l-20 -8q-29 0 -37 14q-9 9 -9 23q0 4 0.5 7t2 5.5t2.5 4.5t3.5 4t4 3t5 2.5t5 2.5t5.5 2.5t5 1.5l8 4q-2 0 0 2q23 6 35 18l13 4 l-9 -2q3 1 4.5 4t4.5 4q7 7 8 9v-2l2 4q16 10 28 26l-2 -2l11 19l12 18l-2 -2l16 31v-2q17 38 17 104q0 29 -13 131q-2 2 -3 4.5t-0.5 5t1 7t0.5 8.5q0 1 -1 4t-1 4v2q-2 2 -2 21q0 1 -1 4t-1 4v4q-11 70 -8 125q0 25 8 41q0 1 0.5 2.5t1.5 5t2 6.5q0 1 1 5t1 5l9 31l20 27 l6 16v-2q28 51 64 80q0 2 -2 2q-5 0 -7 2l-8 10q-3 1 -7 3.5t-7 4.5t-4 2q-37 42 -64 125h2q-18 50 -18 111q0 58 10 123q0 3 1 5t1 5q3 7 4 15t1 17.5t1 14.5q0 3 1 7.5t1 7.5q2 16 2 55v92l-16 53q-18 74 -63 94l-19 7h-4q-2 0 -2 2q-2 1 -10.5 4.5t-11 4.5t-9 5.5t-9.5 9 t-7.5 12t-7.5 17.5q28 22 37 22q10 0 20 -6l21 -4h8q20 -5 24 -8q25 -14 54 -43q4 -5 38 -59q30 -62 33 -115q4 -31 0 -59v-35q0 -47 -2 -70q-2 -2 -2 -8q0 -3 -1 -8.5t-1 -8.5q-14 -66 -14 -196q5 -23 24 -76q17 -53 72 -94l10 -8q2 -2 8 -2q3 0 5 -2q4 -4 6 -4q0 -3 8 -11 z" />
<glyph unicode="~" horiz-adv-x="1052" d="M301 541h-18q-1 0 -2 -1t-5 -1v-2h-10q-6 -4 -13 -10t-9 -7l-11 -8l-16 -18q-9 -7 -16 -23q0 -13 -25 -47h-35q-2 2 -6 5.5t-5.5 5t-3 5.5t-1.5 9q-3 49 33 88l18 18q28 28 66 49l37 12q9 0 21.5 1.5t20.5 1.5t15 -3l1 -1q1 -1 5 -1q44 -3 84 -18l35 -8l39 -10q4 0 6 -2 q1 -1 2 -1q2 -2 -2 -2l24 -10v2l68 -20h-2q24 -6 43 -6q138 4 195 73l14 21l-2 -2q39 51 74 24q8 -9 10.5 -17t-3 -17t-10 -14t-16.5 -17q-5 -12 -12 -19l-4 -10l-13 -12h2q-39 -42 -98 -58t-139 -22q-23 0 -55 4q-10 2 -24.5 4.5t-24.5 4.5t-17 5l-22 9l-56 18l2 -2l-20 6 q-62 23 -119 23zM903 596q0 -4 -2 -6q0 4 2 6z" />
<glyph unicode="&#xa1;" horiz-adv-x="350" d="M135 381v68q2 23 2 57v205q0 1 1 4t1 6t1 8t1 6q2 2 2 21v8q-4 40 17 57q6 6 20 6q35 0 35 -45v-32q0 -3 -1 -6.5t-1 -6.5v-16q-4 -21 -4 -92v-58q0 -7 1 -25.5t0.5 -32t-3.5 -24.5v-55q0 -31 2 -47q0 -3 1 -6t1 -6q0 -31 2 -45v-49q0 -27 -2 -35v-273q4 -38 -4 -92 l-41 4q-29 15 -25 68v375q0 3 -1 4t-1 4v12q0 19 -2 21q0 3 -1 6t-1 6zM158 1184q33 18 46 -5t7 -51v-24q6 -30 -7 -51.5t-48 -3.5q-19 19 -19 55v31q0 33 21 49z" />
<glyph unicode="&#xa2;" horiz-adv-x="788" d="M160 258l-13 29v-2q-9 17 -12 47v22q0 7 -1 21t-1 22q0 13 -2 15q0 3 -1 7t-1 7q0 1 -1 4t-1 4v29q0 1 -1 4t-1 6v84q0 11 -1 29t-1 30q0 102 8 170v23l6 68q0 3 1 6t1 6q0 1 1 2t1 2v2l4 25q3 29 13 49v-2q12 29 36 49.5t62 42.5l16 10q-2 0 2 4l9 2l36 19q25 6 37 6v22 q0 36 4 82v6q0 3 1 6.5t1 6.5q0 20 7 39q22 16 39 16q5 -9 9 -19t6.5 -17.5t4 -19.5t2.5 -17.5t1.5 -19.5t0.5 -18v-19.5v-17.5v-12q1 -4 3 -7t1.5 -3.5t-2.5 -5.5q42 -2 76 -17q42 -17 88 -63q40 -40 57 -98q0 -3 1 -7.5t1 -7.5l7 -24v-8q0 4 -5 4q5 -11 5.5 -39.5 t-5.5 -42.5q-22 -19 -43 -13q-17 10 -20.5 20.5t-3.5 37.5q-1 3 -1.5 6.5t-1 10t-1.5 11.5l2 -4q-4 20 -4 21q-7 42 -39 86q-41 35 -84 49h-4q-2 0 -4 2q-21 8 -64 8q-28 0 -43 -6l-41 -20q-9 -9 -18 -9l-6 -2l10 2q-45 -23 -64 -55q-6 -14 -9.5 -31.5t-6 -45t-4.5 -38.5 q0 -5 -1 -17.5t-1 -16.5q-2 -2 -2 -13q-8 -73 -8 -168q0 -79 10 -192v-14l4 -56q0 -16 2 -18q0 -2 2 -2q14 -52 56.5 -93.5t90.5 -45.5q3 -3 15 -3q1 0 4 -1t6 -1h12q53 -6 97.5 30t62.5 93l6 23q0 1 1 4t1 4q11 18 11 23l10 28q0 1 4 21l-2 -2q8 21 16 25q7 3 19 3 q10 0 41 -18q0 -40 -4 -45l-9 -31q-7 -7 -10 -29q-17 -49 -76 -131q-1 -3 -3.5 -7t-2.5 -5l-22 -16l-11 -6l-14 -11q-32 -8 -33 -8h-6q-2 -2 -8 -2q-2 0 -4 -2q-24 -5 -35 -16v4q-4 -14 2 -39q3 -31 0 -58q0 -18 -2 -20q-4 -49 -39 -49l-22 2q-15 37 -11 65v11q0 1 0.5 1.5 t1 2t0.5 4.5v63q0 3 -1 9.5t-1 9.5q-112 11 -196 139z" />
<glyph unicode="&#xa3;" horiz-adv-x="1085" d="M328 127q-25 0 -27 -2q-73 0 -100 -19q-12 -12 -21 -28l-2 -4q-1 -3 -5.5 -7.5t-4.5 -5.5l-4 -6l-10 -43q-2 -9 -3 -11.5l-4 -10t-6.5 -10.5t-9.5 -8t-15.5 -8t-21.5 -5q-21 43 -6 82v8q16 38 23 49h-2q29 51 64 73.5t89 27.5q4 29 4 131q0 8 -1 24t-1 23v94q0 16 -1 45 t-0.5 49t3.5 43h-69q-10 -2 -45 -2h-7q-26 0 -45 19q-9 19 0 41q6 14 35 14h133q2 14 2 37q0 3 2 45.5t-2 48.5q-11 84 -8 154q3 77 43 145q5 11 23 29l10 12q34 40 84 63l29 11l26 10q28 4 49 4q30 0 72 -10l20 -8q-2 2 0 2q128 -56 177 -162l2 -2q0 -1 1 -7.5t1 -7.5 l4 -10l-2 6q18 -42 18 -137q-20 0 -22 -2h-19q-12 0 -26 14q-5 33 -21 95q-2 0 -2 4q0 2 -2 4q-6 1 -7 4.5t-1 15.5q-47 67 -117 105l-12 6h4q-46 16 -72 16h-14q-71 -17 -96 -39l-31 -32l-8 -11h2q-9 -9 -25 -36v2q-12 -37 -12 -105q0 -65 6 -100q3 -17 3 -34t-1.5 -42 t-1.5 -45v-43h21q94 0 141 6h10l2 1q2 1 6 1q13 0 15 2q47 0 59 -4q1 0 4 -1t4 -1q3 -3 12.5 -6t12.5 -6q8 -10 7 -24t-11 -21q-11 -11 -27 -11q-14 0 -16 2h-17q-3 3 0 3q-9 0 -12 -3q-3 0 -7 -1t-7 -1t-6 -1t-7 -1h-4q-10 -2 -39 -2q-4 0 -9.5 -1t-8.5 -1h-16 q-29 0 -31 -2h-78q-3 -26 -3.5 -50t0.5 -57t1 -48q0 -65 -2 -144.5t-2 -107.5h12l2 -1q3 -1 8 -1h15q47 -7 121 -37l10 -8l16 -9q101 -79 182 -79q58 0 105 47l10 8l17 10l-7 -2q34 28 58 80q0 10 2 12q3 21 18 33q9 6 21 6q14 0 30 -16q9 -27 0 -62q-34 -75 -112 -135 l-15 -4l9 2l-11 -8q-65 -45 -125 -45q-89 0 -202 80l-27 12q-51 29 -90 37q-9 4 -29 4q-2 2 -26 2z" />
<glyph unicode="&#xa4;" horiz-adv-x="1185" d="M983 930l-25 -27l-34 -37l-43 -43h2l-33 -30h4q2 0 2 2l14 -37q0 -4 2 -6q0 -1 1 -3.5t2 -6.5t2 -7q10 -52 10 -90q7 -83 -19 -205q-3 -27 -24 -61l10 -6l29 -29l28 -31l23 -30l24 -23l68 -67h2q2 -2 6 -5.5t6 -5.5t4.5 -6t3.5 -9.5t1 -12.5q-6 -33 -37 -33q-20 0 -43 26 l-4 7q-54 38 -86 79l-27 31l-23 25l-20 22l-16 13l-7 -7q-8 -5 -20 -15.5t-23.5 -19t-27.5 -14.5q-24 -6 -51 -8v-2h-5l-14 -4h-8q-28 -4 -29 -4q-34 0 -61 12h2l-17 4q-10 0 -14 4q-1 0 -6 1t-6 1l-2 2l-17 7q-10 5 -28 12t-29.5 12.5t-19.5 11.5l-21 15l-27 -23l-6 -10 l-10 -10l-31 -35l-34 -33l-7 -2l-24 -24q-5 -14 -19 -17l-18 -16q-14 -16 -23.5 -22.5t-25.5 -6.5t-41 31q6 18 29 41l6 6l24 20l29 29l10 8l10 11l27 22l10 10l6 11l13 12q9 3 12 12l20 21l33 30q-42 90 -51 209q-9 100 33 174q-33 30 -94 111q-12 18 -25 31l-22 24l-11 12 l4 -6l-6 9l-10 8l-8 12l-8 6q-21 21 -21 39q0 15 6 21v2q22 16 31 16q11 0 19 -4.5t11.5 -8.5t10.5 -14l10 -16l-2 6l39 -41h-2l16 -18l31 -35l-2 2l14 -18q7 -8 20.5 -25t24.5 -29.5t23 -23.5q43 43 119 80l16 4l4 2q53 16 84 16q84 0 187 -70q8 0 20 -12l2 -2 q42 38 117 117l14 16l21 19l16 14l4 6q25 25 43 25q27 -9 31 -27q7 -19 -27 -49l-24 -27zM385 551v-4l8 -27l15 -63l6 -17q0 1 1 0.5t3 -2.5q0 2 2 2l2 -18v-4l8 -10l8 -23q27 -24 74 -39q6 -6 8 -6q1 -1 4 -1t6 -1q62 -16 82 -16q36 0 80 14q24 12 51 39t45 57v-4 q11 25 21 82q6 31 6 88l-2 10q0 80 -8 111l-8 26v-2q-24 63 -87 95.5t-137 27.5q-8 -1 -36 -8l-41 -20q-51 -26 -82 -74q-39 -59 -39 -137q0 -24 10 -76z" />
<glyph unicode="&#xa5;" horiz-adv-x="1026" d="M799 1090l-2 -3l-2 -4q-20 -64 -56 -122l-4 -7h-2l-12 -30q-24 -48 -117 -201l-6 -8l-23 -35v2l-12 -18h12q31 -4 48 -2h32q18 0 121 -5h8q1 0 4.5 -1t4.5 -1h32q1 0 2 0.5t2.5 1t4.5 0.5h20q27 0 39 -12q10 -10 10 -24t-1.5 -20.5t-10.5 -11.5t-29 -5h-45q-4 0 -12 1 t-12 1h-86q-3 0 -8.5 1t-8.5 1h-80q-9 0 -32.5 -1t-30.5 1v-37q0 -95 2 -152q0 -8 1 -16.5t1 -17.5h12q45 0 70 2h112q65 0 86 -5h3q29 0 57 -22q0 -53 -51 -53l-6 1q-5 1 -9 1q-2 0 -2 2q-27 2 -80 2h-92q-27 -2 -96 -2h-2v-86q0 -27 2 -41q0 -41 2 -64q0 -4 1 -11.5 t1 -10.5q5 -61 -2 -86q-19 -19 -33 -19t-22.5 4.5t-12 13.5t-4 15.5t-0.5 18.5v8q-4 46 -4 90q-6 55 -6 166h-10q-5 0 -14 -1t-13 -1h-67q-31 -2 -99 -2q-32 0 -98 4q-29 4 -49 24q-3 22 6 49h107q27 -2 73 -2h17q39 0 55 2q8 0 46 -1t46 1q0 3 -1 11.5t-1 11.5v45 q0 53 -2 84v74q-18 -1 -40.5 -1t-54 0.5t-52.5 0.5h-86q-5 0 -10 -0.5t-7.5 -0.5t-5.5 1h-33q-23 0 -35 12q-21 21 0 59q5 1 17 4t20 3h19l2 -2h63q14 -2 51 -2h39q3 0 9.5 1t9.5 1l78 4l-2 2v2q-7 7 -7 12q0 11 -10 21q-12 12 -12 26q-2 2 -2 10l-29 66q-7 7 -14 27l-29 71 h2q-5 11 -12 32t-15 39.5t-18 35.5q-18 33 -43 108l-4 15l2 -9l-12 29l-12 33q-4 4 -9 20q-12 21 0 43q15 15 33 15t27 -15q10 -10 18 -34l12 -35v2l11 -33l8 -23l4 -14l-2 8l8 -16q0 -4 1 -7l1 -3q0 -2 2 -2l13 -25v2l24 -51l12 -33l9 -20q0 -2 10 -19l14 -43q0 -1 1 -5 t1 -5q4 -9 13 -32l12 -27l4 -15l4 -6l-2 8l8 -16l8 -27q3 -11 13 -20q0 -4 1 -8l1 -4v-5l10 -16l4 -8l14 26q46 64 88 144q70 130 111 219v-2l29 80q0 6 8 14l2 2q0 3 3.5 9t4.5 8q2 2 2 6q17 39 19 43q16 16 32 16t41 -31q-9 -43 -24 -63l-8 -16l-9 -13l4 4 q-13 -25 -28 -65l2 4q0 -1 -2 -7t-2 -7z" />
<glyph unicode="&#xa6;" horiz-adv-x="94" d="M16 -57q0 69 -2 102q-4 80 -2 129v51q5 93 37 131q1 0 6 1t8 1q19 -10 23 -22t4 -39v-8q0 -26 -4 -72v-108q0 -64 4 -162q0 -3 -1 -8.5t-1 -8.5v-12q-2 -2 -2 -24v-72l1 -4q1 -4 1 -8q0 -25 2 -27v-25q4 -46 4 -67q0 -12 -0.5 -17.5t-9.5 -15t-27 -12.5q-17 0 -28 14 q-9 12 -9 61q0 1 1.5 4t1.5 7q0 12 -5 32q-4 12 -4 35q-4 49 0 95v24q0 4 1 12.5t1 12.5zM12 938v8q0 45 -2 72q0 4 -1 12t-1 12q-9 117 -6 232v12q0 3 1 6t1 6q0 21 2 29v41q0 2 1 11t1 14q0 35 12 49q14 19 50 10q11 -48 8 -59v-9q0 -4 -1 -11t-1 -11v-23q-2 -39 -2 -108 v-23q0 -65 4 -86v-14q4 -54 4 -90v-21q0 -4 1 -12.5t1 -13.5v-66q0 -4 1 -10t1 -10q3 -41 0 -90q-9 -41 -37 -41q-14 0 -22 8q-16 22 -13 78v6l1 2q1 2 1 6v8q-2 16 -2 58v12q0 1 -1 3t-1 3z" />
<glyph unicode="&#xa7;" horiz-adv-x="743" d="M414 -254q-4 -2 -35 -2q-12 0 -14 2q-106 12 -162 68q-8 8 -13 20v-4q-15 27 -28 66v-2q-7 17 -9 37.5t7 37.5l-2 -6q9 21 41 21q28 -16 28 -47q3 -3 3.5 -5t-0.5 -5t-1 -5l21 -45l2 -4v-6l8 -8q33 -33 100 -45h29q36 4 70 25.5t55 51.5q2 0 2 3q0 8 2 10l4 10v2l6 23 l7 38q0 51 -11 78l-20 51q-16 35 -43 66q-45 53 -51 57l-27 25q-9 8 -31 22l-16 17q-15 15 -70 45l-33 22l-24 23q-48 42 -66 111l-1 5q-1 5 -1 9q0 54 18.5 116t43.5 99l16 16q28 35 70 54l-4 2q-17 10 -25 20q-2 2 -10 2l-23 25v-2q-18 9 -39 47q-9 9 -12 24l2 -2l-6 15 l-10 20q-32 97 -19 172q5 29 23 58q28 68 99.5 102t144.5 22l55 -18l45 -29q56 -50 80 -102q14 -33 0 -59q-16 -19 -35 -19q-31 9 -31 39l2 -2q-12 37 -41 70h2q-32 28 -57 39q-10 0 -29 8q-52 17 -101 -9t-73 -77l-12 -37q-11 -69 18 -139q0 -1 1.5 -4.5t1.5 -4.5 q15 -34 36 -55l17 -12l16 -17l37 -26q10 -8 16 -13l17 -12v2q29 -17 71 -59l19 -12h-2q29 -17 57 -45l27 -27l16 -21q17 -25 27 -69t8 -78q-4 -33 -16 -61l2 8q0 -1 -1 -3t-1 -3q-14 -43 -31 -71.5t-47 -53.5q-43 -30 -58 -35l5 -2l67 -64l27 -39l12 -20l6 -16l-2 2 q30 -53 39 -82q8 -23 8 -70q0 -42 -6 -72l-8 -28q0 -4 -8 -23l-2 -4q-34 -93 -170 -127zM322 731l-13 -6q-28 -17 -45 -39q-51 -61 -51 -160q0 -19 20 -65q25 -32 27 -33l21 -10l16 -15q4 -4 12 -8q49 -30 70 -35q3 0 6 -1t4 -1q2 -2 19 -2q9 0 30 6q51 51 56 58h-2 q17 30 30 98q1 3 -8 55q-11 44 -47 80h2q-6 8 -16 16.5t-17 14t-20.5 14.5t-18.5 13q-13 13 -43 30h-6z" />
<glyph unicode="&#xa8;" horiz-adv-x="405" d="M2 1454v23q0 10 0.5 17t2 17t5.5 15.5t10 10t16.5 3t24.5 -7.5q19 -19 19 -55v-29q0 -32 -19 -49q-14 -6 -24.5 -7.5t-16.5 3t-10 10t-5.5 15.5t-2 17t-0.5 17zM328 1454v23q0 10 0.5 17t2 17t5.5 15.5t10 10t16.5 3t24.5 -7.5q19 -19 19 -55v-29q0 -32 -19 -49 q-14 -6 -24.5 -7.5t-16.5 3t-10 10t-5.5 15.5t-2 17t-0.5 17z" />
<glyph unicode="&#xa9;" horiz-adv-x="1058" d="M975 889v-58q3 -50 -4 -81l-8 -29q-3 -3 -2 -3.5t0 -2.5q0 -3 -1 -9l-2 -6l-4 -6q-2 -2 -2 -4t-2 -2l-4 -10l-4 -12v2q-26 -77 -65 -121l-23 -25l-27 -24q-71 -54 -139 -76l-12 -6l2 2q-59 -23 -129 -23q-44 0 -60 2q-18 0 -30 4q-3 0 -6.5 1t-6.5 1q-8 1 -10 0t-10 1 t-23 8l3 -2q-8 3 -26.5 8t-27.5 8l-51 25l-12 8h2l1 1l-11 5q-43 28 -70 63l-21 25l-2 4q-1 3 -5 6t-5 6l-4 6l-18 25l-11 18l-4 5l-2 2q-46 85 -55 196q-3 18 0 33q0 24 4 33l-2 -2q18 111 51 170q14 32 66 88l14 16l16 21l21 16l10 6q23 18 53 35q4 3 12 6t13 6h-4 q99 51 229 41l2 -2q1 0 3 -1t3 -1h13l24 -6q49 -11 77 -19t69.5 -28t68.5 -47l25 -23l6 -8l6 -4q3 -4 12.5 -16t12.5 -16.5t10 -14t10 -15t7 -13t6 -15.5l12 -27q32 -72 39 -139v-2q0 -2 2 -4zM899 754q8 33 8 92q-2 6 -2 22q0 1 -1 4.5t-1 4.5v6q-9 74 -43 137l-4 10l-6 17 l2 -7l-31 45l-2 2l-20 27q-22 27 -59.5 47.5t-67.5 29.5t-76 19l-35 11h-18q-3 0 -5 1t-3 1q-98 3 -193 -56q-26 -15 -29 -18l-16 -8l-14 -15q-117 -105 -129 -254v-30q-3 -120 75 -224l17 -20l33 -43q13 -19 34 -31q55 -40 152 -55q28 -4 47 -4q2 -2 23 -2q51 0 104 18 l20 4h5q67 24 100 52l18 18l6 2l15 14q41 27 80 127l-2 -2q2 5 7 26.5t11 31.5zM608 995q-28 25 -88 25q-20 0 -22 -2q-7 -2 -21 -4q-14 -6 -22.5 -15.5t-12 -27.5t-4.5 -26.5t-2 -33.5q0 -4 -1 -10.5t-1 -9.5q0 -51 1.5 -84.5t3 -47.5t1.5 -18q-5 -32 18 -53.5t58 -17.5 q2 -2 27 -2q36 0 57 12l4 6l-2 -2l12 16l9 13q10 19 26 28q20 5 33 0q13 -13 14.5 -25t-3 -19.5t-15.5 -22.5l2 4l-12 -16q-37 -68 -140 -64h-26q-57 5 -95 43t-34 96q-4 20 -4 25q-4 16 -4 22q-3 21 -3 56v32q0 3 1.5 9.5t1.5 9.5q3 34 7 58t14 54t30 50t49 30q16 4 29 4 h16l2 1q2 2 6 2q78 0 113 -27l10 -8q12 -4 23 -15q20 -25 25.5 -44t-3.5 -52q-28 0 -36.5 4.5t-16.5 22.5l-12 12q-7 4 -13 12zM899 750v4v-5v1z" />
<glyph unicode="&#xaa;" horiz-adv-x="675" d="M541 592l22 -25l4 -2q11 -6 15.5 -8.5t8.5 -11t1 -21.5q-19 -22 -35 -22q-29 0 -47 18l-18 23l-19 18l-45 -24h2q-79 -47 -125 -52q-10 -2 -39 -2q-59 -7 -116 39h2q-19 19 -25 29v-2q-45 77 -45 147q0 39 24 99l11 20l16 23v-2q30 47 76 71q38 16 78 19q10 0 12 2l10 -4 l2 2q4 4 6 4q30 8 66 4h12q27 0 43 -2q0 18 -6 39q-4 4 -4 22q0 1 -1 4t-1 4v7q-4 60 -14 90v-2q-39 90 -123 82q-42 -3 -78 -25h-2q-17 -13 -29 -33v-4q-4 -53 -47 -53q-23 10 -26.5 21.5t2.5 33.5q2 2 2 0q0 3 -1 6.5t-0.5 5.5t3.5 5q16 50 67.5 78.5t112.5 33.5 q114 6 176 -96q18 -31 29 -121q0 -3 1 -5t1 -5q0 -2 -2 -2q6 -14 6 -25q4 -12 4 -69v-21q-2 -9 2 -35v-47l-1 -3q-1 -4 -1 -9v-27l-2 -2q0 -3 -1 -5t-1 -5v-49q0 -26 1 -40t8.5 -36.5t21.5 -42.5q0 -2 -3 -2zM438 625l-2 14q0 20 -4 29q-7 27 -4 80v30l1 2q1 2 1 6 q0 21 2 23q9 24 6 51q-10 2 -32 2h-15q-1 0 -3 1t-3 1h-37q-2 -2 -20 -2l-21 -4q-77 -12 -94 -31q-21 -21 -31 -43l-8 -12v2q-2 -2 -2 -4q-16 -43 -16 -72q0 -66 37 -112l16 -17v2q13 -13 43 -16q2 -2 20 -2q73 2 166 72z" />
<glyph unicode="&#xab;" horiz-adv-x="1110" d="M195 436l-70 70l-2 59q16 10 47 45l18 19q23 29 37 37l11 10l69 61l33 31q31 31 49 45l100 88l39 -4l15 -14l-3 -9q-3 -9 -3.5 -16t2.5 -12l-91 -76l-10 -12l-59 -53l-12 -13l-93 -82l-6 -8l-10 -10l-10 -8l-13 -15q-5 -9 -18 -22l-14 -15l10 -8q57 -56 127 -106l78 -66 l24 -20l4 -4l41 -33q8 -8 11 -11.5t7.5 -11t4 -15t-5.5 -15.5q-17 -17 -39 -17q-3 0 -19 4q-3 2 -22.5 20.5t-30.5 26.5l-31 23l-34 33l-17 12l2 -2l-35 31l-40 28zM647 442l-69 70v57q10 3 16 19l49 49v-2q16 26 35 37l10 10l70 59l33 33q31 31 49 45q49 38 100 88l33 -18 l14 -15l-1 -4q-2 -5 -2 -9t3 -7q-72 -68 -86 -78l-12 -12l-60 -53l-12 -13l-90 -82l-18 -18q-8 -4 -11 -10l-12 -13q-5 -9 -18 -22l-15 -16l11 -7q57 -57 127 -106l77 -66q3 -1 8 -5t12 -10.5t13 -10.5l37 -31q30 -30 16 -53q-16 -19 -36 -19q-14 0 -17 7l-55 45l-33 24 l-35 31l-47 43l-41 29z" />
<glyph unicode="&#xac;" horiz-adv-x="1007" d="M782 547v59q0 78 -4 101q-30 0 -80 4q-20 0 -26 2h-150q-3 0 -8 1t-8 1q-56 2 -156 -2h2q-31 -2 -98 -2q-55 0 -78 2l-4 -2h-8q-17 0 -27 10q-14 8 -14 37q12 17 21.5 22.5t29.5 5.5h16q50 -4 64 -4q22 0 76 4q8 0 25 1t24 1q122 5 166 3h22q3 0 5.5 -1.5t5.5 -1.5 q21 0 24 3h35q29 0 41 -3l2 -2h27q46 -4 69 -4h23q4 0 20.5 1t20.5 1q16 -55 16 -139v-135v-51q2 -2 2 -15q4 -28 4 -32q4 -31 -10 -56q-14 -14 -39 -14q-39 17 -27 53v11q-2 6 -2 22v14q-4 68 -2 105z" />
<glyph unicode="&#xad;" horiz-adv-x="698" d="M317 500h-153q-21 0 -37 16q-9 22 0 41q18 18 53 18q2 1 4 3h60q3 -3 26 -3h76q119 0 150 -4h39q27 0 36 -30q9 -12 -8 -29q-9 -18 -49 -18h-25q-1 0 -2 1t-2 1h-12q-14 2 -37 2h-28q-60 0 -91 2z" />
<glyph unicode="&#xae;" horiz-adv-x="897" d="M897 848q-4 -21 -4 -51q3 -50 -4 -82l-8 -29q-3 -3 -2 -3.5t0 -2.5q0 -4 -1 -9l-1 -5l-5 -7q-2 -2 -2 -4t-2 -2l-4 -10l-4 -12v2q-26 -77 -65 -121l-23 -25l-27 -24q-71 -54 -139 -76l-12 -6l2 2q-59 -23 -129 -23q-43 0 -59 2q-18 0 -33 5q-1 0 -4 1t-6 1h-8t-6.5 -0.5 t-10 1.5t-18.5 7l2 -2q-8 3 -26.5 8t-27.5 8l-51 25l-12 8h2l1 1q-5 3 -11 5q-41 27 -70 64l-20 24l-3 4q-1 3 -5 6.5t-5 6.5l-4 6l-18 24l-11 19l-4 4l-2 2q-46 85 -55 196q-3 18 0 33q0 24 4 33l-2 -2q18 111 51 170q16 36 64 88l16 16l17 21l20 16l10 6q20 16 54 35 q4 3 12 6t12 6h-4q99 51 229 41l2 -2q1 0 3.5 -1t3.5 -1h12l22 -6q49 -11 78.5 -19t70.5 -28t68 -47l25 -23l6 -8l6 -4q3 -4 12.5 -16t12.5 -16.5t10 -14t10 -15t7 -13t6 -15.5l12 -27q13 -23 25.5 -80t19.5 -71zM817 719q8 33 8 92q-2 6 -2 23q0 1 -1 4t-1 4v6 q-9 74 -43 137l-4 10l-6 17l2 -6l-31 45l-2 2l-20 26q-22 27 -59.5 47.5t-68 30t-75.5 19.5l-35 10h-18q-3 0 -5 1t-3 1q-99 3 -193 -55q-2 -1 -5 -2t-3.5 -1.5t-1.5 0.5l-19 -16l-28 -20q-119 -106 -131 -256v-31q-3 -119 75 -223l17 -21l33 -43q13 -19 34 -31 q55 -40 152 -55q28 -4 47 -4q2 -2 23 -2q51 0 104 18l21 5h2q57 19 102 51l18 18l7 2l14 15q46 30 74 112v-2l6 17l-2 -2q4 18 12 32q0 11 2 13q2 4 4 12zM606 963l4 -15q17 -54 -3.5 -105t-69.5 -87q2 0 4 -2q4 -15 8 -19l16 -28q2 -6 2 -12t3.5 -15.5t15.5 -30.5l30 -80 h-26q-22 -9 -43 0l-15 27l-4 16l-12 23q-20 46 -22 55q-5 5 -5 8q-3 8 -12 17l-10 26h-18q-4 0 -11.5 -1t-11.5 -1h-20q-22 0 -31 -4q2 0 2 -22v-51q4 -48 -8 -76q-43 -58 -62 8v82l1 1q1 1 1 5q0 56 4 170q4 28 4 51q0 1 1 4t2 9l2 12v14q-3 9 -3 27q0 12 5 37q0 18 14 32 q18 11 43 11q8 2 35 2h26q111 0 152 -64v2q3 -5 6 -13t6 -13zM381 809h45q26 0 40 1t32.5 8.5t29.5 21.5q17 24 17 55q0 21 -19 59l-16 13q-12 9 -43 12q-25 0 -33 2q-27 0 -43 -2v-4q-2 -2 -2 -21q0 -28 -2 -36q0 -2 0.5 -5.5t1 -6.5t-0.5 -7.5t-3 -7.5v-17q-4 -36 -4 -65z M817 719l-2 -8q0 1 1 2t1 2v4z" />
<glyph unicode="&#xb0;" horiz-adv-x="423" d="M68 901l-17 21q-7 7 -10 18q-26 18 -37 70q0 2 -2 4v4v10q-12 94 47 174t150 80q24 0 34 -2l25 -6q67 -12 113.5 -65.5t52.5 -125.5q0 -32 -2 -34q0 -2 1 -4.5t0.5 -4.5t-3.5 -6q0 -30 -10 -47l2 2q-75 -140 -205 -143h-31q-38 5 -62.5 16.5t-45.5 40.5v-2zM117 1171 l-4 -8q-45 -65 -37 -129q0 -10 2 -12q-1 -4 -2 -4q15 -38 47 -70t65 -33h27l1 1l5 2q38 6 66.5 31.5t54.5 68.5q0 6 4 10q0 1 1 4t1 4l1 2q1 2 1 6q0 19 2 21q4 54 -30.5 94t-90.5 51h-24q-72 -4 -90 -39z" />
<glyph unicode="&#xb1;" horiz-adv-x="1001" d="M453 283v84q0 3 1 9.5t1 10.5q4 73 2 117q-16 0 -66 4h-39q-4 0 -14 1t-14 1q-78 4 -109 4q-3 0 -6 -1t-6 -1h-13l-34 2q-21 21 -21 39v31q29 4 86 4h27q5 0 15.5 -1t15.5 -1h59q78 -4 119 -4q-4 94 -4 135q0 33 4 119v24q0 47 26 64h4q9 0 11 2q25 0 32 -27 q4 -75 -4 -135v-33q0 -3 -1 -9t-1 -9q0 -59 2 -86q4 -28 4 -47q90 3 193 -7q3 0 9.5 -1t10.5 -1h29q14 -2 33 -2q3 0 10 -1t10 -1h27q40 -37 6 -63q-8 -8 -27 -8q-16 0 -22 2h-25q-4 0 -13 1t-13 1q-39 0 -53 2h2l-175 2v-17q0 -7 -1 -21.5t-1 -21.5l-4 -116l-10 -35 q-17 -10 -63 -10zM123 41l2 12q2 3 4.5 6t4.5 5t5.5 3.5t5 2.5t6 2t6 1.5t7 0.5h7h8.5h9h13q14 2 51 2h59q23 -2 60 -2h43q3 0 7.5 1t8.5 1h80q80 0 113 -2q1 0 2 -1t2 -1h18q3 0 7 1t7 1h33q14 2 51 2q31 0 41 -2h19l24 -4q37 0 52 -29v-16q-7 -15 -15.5 -21.5t-13.5 -7 t-21 -0.5h-18q-3 0 -6 1t-6 1h-15q-2 0 -4 2q-4 0 -7 -1t-4.5 -0.5t-4.5 3.5h-16q-3 0 -6.5 -1t-6.5 -1h-24q-3 0 -6 -1l-3 -1h-102q-23 2 -53 2q-33 0 -49 -2h-41q-57 0 -80 2h-41q-3 0 -9.5 1t-9.5 1q-28 0 -38 2h-46q-36 0 -51 -4l-5 -1q-5 -1 -9 -1h-10q-14 4 -29 20 q-6 9 -6 23z" />
<glyph unicode="&#xb2;" horiz-adv-x="573" d="M274 801l25 30q7 2 14 19l37 37q26 31 53 90q0 7 7 18q2 7 4 17l-2 -2l6 32q-4 38 -37.5 74.5t-73.5 57.5h-24q-38 0 -50 -5q-33 -14 -51 -32q-17 -17 -26 -66q0 -10 2 -12v-10q0 -37 -15 -52q-10 -10 -30 -10q-15 7 -21.5 15t-7 12.5t-0.5 17.5v6q-6 98 49 150 q53 42 141 57q2 2 17 2q1 0 1.5 -0.5t2 -1t4.5 -0.5h16q75 -13 130.5 -79.5t43.5 -145.5v2q-2 0 -2 -4q0 -19 -6 -25q2 0 2 -4q-23 -76 -59 -123l-8 -8h2l-2 -3q-2 -3 -4.5 -5.5t-5.5 -3.5l-19 -27l-117 -147q-5 -5 -7 -7.5t-1 -2.5l-6 -9q-5 -5 -8 -14q-60 -126 -66 -201 h54h86l2 1q2 1 6 1h90l2 1q2 1 6 1q38 0 49 -20q22 -22 6 -47q-19 -13 -37 -13h-8q-11 0 -14 3h-27q-18 0 -39 -3q-14 -2 -51 -2q-98 5 -125 5h-18l-2 -1q-2 -2 -6 -2q-31 0 -50 27q-9 11 0 25q0 3 1.5 6t1.5 6q10 142 81 254l-2 -2q7 17 23 33l25 34l24 33z" />
<glyph unicode="&#xb3;" horiz-adv-x="579" d="M387 801l-2 -2l6 -4q51 -26 68 -64l4 -10l-2 6l22 -45q13 -69 15 -102v-35q-15 -133 -111 -185l-29 -14l-26 -6l2 2q-18 -6 -43 -6h-6q-31 0 -39 2q-11 0 -15 4q-1 0 -4 1t-4 1l-4 4h-2q-37 9 -53 23l-27 28q-5 5 -9.5 10.5t-8 12t-6 11t-4.5 12.5t-3.5 11.5t-3 12.5 t-2 11t-2.5 12.5t-2 11.5t-1 6t-1 6q0 21 -2 23q0 10 -2 12q0 1 -1 2t-1 2l-1 3q-1 4 -1 9q0 33 23 43q38 14 53 -26q0 -21 2 -23l4 -37q0 -2 0.5 -14.5t1 -15t1.5 -12.5t3 -14.5t5.5 -11.5t8.5 -12t11 -10l18 -16l-4 2q29 -19 72 -19q4 0 14.5 2t19.5 3l17 4l6 4 q70 46 80 131q2 2 2 26q0 41 -10 86q-4 13 -6 15l-13 28l2 -6q-8 10 -37 39l-6 2q-10 0 -14 4l-23 17q-3 0 -7 1t-5 1q-21 0 -49 22q16 39 43 51l8 3q72 27 84 112q0 4 1 8l1 4q2 2 2 13v20q0 1 1 1q1 1 1 5v17v2q0 2 2 4v41q-11 79 -61 102q-16 8 -51 8q-39 0 -58 -8 q-2 -2 -4 0q-2 -2 -3.5 -4t-2.5 -3t-3 -2t-5 -1q-24 -20 -37 -51v4l-14 -51q-2 -6 -2 -29v-12q0 -13 -13 -41q-3 0 -12.5 -1t-13.5 -1q-13 0 -25 12q-10 17 -10 35q-7 42 18 98l29 58l14 14l15 12l28 21q45 26 103 26q69 0 117.5 -38.5t60.5 -110.5q0 -4 2.5 -25t3.5 -36 t-2 -31q-2 0 -2 -7q0 -3 -1 -10t-1 -10q-1 -6 -3 -25t-4 -28.5t-5 -24t-7.5 -26t-11.5 -21.5q-5 -8 -30 -33l-13 -12q-8 0 -8 -8z" />
<glyph unicode="&#xb4;" horiz-adv-x="157" d="M121 1573q17 0 37 -23l-2 -14q-10 -41 -50 -94l-16 -27q-3 -15 -12 -24q-4 -4 -10 -13.5t-12.5 -13.5t-18.5 -4q-15 0 -37 22q0 23 16 52l7 6q2 -2 2 0v2q0 4 2 6l8 12l6 13l10 18q8 8 8 14l19 27q1 1 2 4q13 31 31 36q5 1 10 1z" />
<glyph unicode="&#xb5;" horiz-adv-x="901" d="M748 330q4 -62 4 -105l4 -125q0 -7 1 -20.5t1 -20.5q0 -32 -4 -82v-34q0 -3 -1 -7l-1 -4v-8q0 -2 2 -2q0 -18 -0.5 -24t-3.5 -17.5t-11 -16.5t-22 -7h-3q-9 0 -14 1t-12.5 7.5t-13.5 19.5v31h2v31q0 3 1 8t1 8q6 31 6 80q0 34 -4 88q-58 -76 -96 -96q-17 -10 -29 -10 q-1 0 -4 -1t-4 -1q-8 0 -15 -7h-6q-37 -19 -80 -22h-8q-29 0 -59 6q-25 5 -90 35q-40 24 -64 55q0 -49 4 -151v2q2 -10 2 -60q2 -16 2 -61v-64q0 -67 -4 -90l-28 -14l-29 2l-16 22q2 18 2 68v57q0 50 -4 148q-2 49 -2 139v92q4 86 2 125q-4 176 -4 248v164q0 20 -3 41 q0 31 -2 33v59q0 3 1 9.5t1 10.5q5 58 3 78v8q-15 45 26 54q18 11 30.5 -4.5t14.5 -36.5q2 -8 2 -35v-125q0 -9 -1 -28t-1 -25q2 -41 2 -146v-35q0 -7 -1 -19t-1 -19q0 -29 4 -107v-98q0 -58 4 -76q0 -14 7 -31v-2h2l2 -2v2q2 -2 2 -12l4 -14l2 -4l6 -9l27 -39l12 -18 q49 -44 139 -59q2 2 23 2q2 0 4 2q62 6 104 39t76 92q5 7 18 37v-2l7 24q0 5 2 21t2 20h6q0 3 -1 6t-1 6v17q-4 39 -4 205q0 18 -1 52t-1 50v145q0 51 -2 82v66v2q0 18 0.5 27.5t2 25.5t5.5 22.5t11 11t18.5 -1.5t27.5 -22q8 -5 8 -34v-39q0 -5 1 -14t1 -13v-76q0 -5 1 -14 t1 -14q2 -35 2 -117q0 -55 -2 -86v-53q0 -35 4 -129v-64q0 -3 1.5 -7t1.5 -7zM238 223h-2v2z" />
<glyph unicode="&#xb6;" horiz-adv-x="1062" d="M125 840v49q-4 105 12 160q3 8 7.5 17.5t13 23.5t14.5 26q36 52 80 80q49 18 82 23q3 0 8 1t8 1l17 4l24 4h2q4 0 6 2q18 6 23 6q14 2 39 2l12 -4l8 2q6 2 27 2l16 -4q2 -2 6 -2h19q22 0 24 2h170q2 -2 5 -2l3 -1q3 -1 7 -1h18q2 -2 6 -2h17q34 -3 86 0q9 -3 13.5 -58 t4.5 -86q4 -93 2 -139v-74v-69v-189q0 -34 2 -57q0 -13 4 -63l7 -95v-114q0 -19 1 -58t1 -59q0 -19 -1 -45t-1 -47v-135q0 -70 2 -109v-147q0 -18 -1 -26.5t-9 -17.5t-23 -12q-26 0 -35 15q-18 23 -8 49v-2q2 18 2 57q0 49 -2 74q0 31 -2 33q0 115 2 174q2 41 -2 143v84 q3 40 0 74q0 20 -4 86q0 3 -1 11.5t-1 12.5v21q-7 86 -7 223v14q0 3 1 8.5t1 8.5v51l1 2q2 2 2 6q0 28 -3 62v135q3 34 3 67q0 15 -5 60v-2q-6 30 -6 57h-16q-4 2 -23 2h-8q-1 0 -4 1t-4 1q-3 0 -8 -1.5t-8 -1t-7 4.5h-16q-3 0 -6 1t-6 1h-51q-3 0 -6.5 1t-6.5 1 q-47 0 -82 -6l-30 6q-5 -12 0 -45v-12q0 -102 8 -178q6 -54 10 -176q0 -3 -1 -5.5t-1 -5.5v-10q-3 -6 0 -16l2 -2q0 -2 1 -8.5t0.5 -12.5t-3.5 -12v-14q-3 -27 0 -54v-41q-3 -126 10 -264q6 -92 6 -246v-53q-2 -31 -2 -90q0 -144 2 -199v-16q-3 -9 0 -18q3 -31 -18 -52h-6 q-4 -4 -14 -4q-18 0 -25 11q-12 12 -12 43q3 22 0 53v383q2 65 -6 151q0 3 -1.5 11t-1.5 12v18q-10 113 -10 207v33h-14q-3 0 -6 -1t-6 -1h-2q-1 0 -2.5 -1t-2.5 -1l-5 -1q-5 -1 -9 -1q-24 0 -29 4h-6q-1 0 -5 1t-5 1l-33 6q-44 -10 -98 41q-7 3 -17.5 9t-17.5 9l-8 9 q-18 14 -33 41l-49 122q0 1 -1 3.5t-1 3.5v-2q-2 2 -2 36q0 1 -1 4t-1 7zM467 1085l-4 80h-29h-2q-1 0 -2 -1t-2 -1q-2 0 -11.5 -2t-17.5 -2q-1 0 -3 -1t-3 -1q-4 -4 -12 -4q-5 -1 -11.5 -2t-10 -1.5t-5.5 -0.5q-3 0 -5 -1t-5 -1q-32 -4 -49 -10l-10 -7l-17 -8l-4 -6l-4 -4 l-4 -4l-20 -25q-33 -44 -37 -172q2 -6 2 -24q0 -51 6 -74q17 -65 18 -68v-2q0 -4 2 -4v2q30 -58 35 -65q9 -9 31 -17.5t31 -17.5q1 -9 13 -9t15 -3q67 -13 88 -13q37 0 39 2v76q0 27 2 29q0 1 1 1q1 1 1 5q0 29 -2 43l-1 4q-1 5 -1 10v27q0 3 -1 7t-1 7v27l-4 88q0 3 -1 7 t-1 7v25q-4 28 -4 37v67z" />
<glyph unicode="&#xb7;" horiz-adv-x="454" d="M254 741l25 -16q22 -9 30 -23q3 -4 8.5 -18t8.5 -18l4 -9l2 -34q-2 1 -3.5 -2.5t-2.5 -8.5t-1.5 -10t-1 -8.5t-1.5 -3.5l-15 -29l-28 -16q-43 -15 -62 -15q-43 0 -65 35q-42 50 -23 103q0 4 1 9l1 5q14 18 14 27l23 12q44 27 86 20zM260 655l-18 17q-2 2 -4 2q-5 0 -7 2 q-16 0 -26 -10l-4 -2q4 4 4 8l-12 -17q-3 -17 2 -30l8 -19q10 -10 14 -10q17 0 19 2l22 16l6 25z" />
<glyph unicode="&#xb8;" horiz-adv-x="278" d="M43 -313h27q17 -3 18 -2q3 0 6 -1t6 -1h17q6 -3 14 0q11 0 27 5t22 11q31 52 23 80l2 -2q-12 31 -27 45.5t-45 25.5q-6 1 -11 2t-7.5 2t-3.5 1q-37 0 -44.5 6.5t-7.5 46.5q0 1 1 3t1 3v12v14v15t0.5 14t1.5 14.5t3 12t5.5 10.5t8.5 6q7 7 35 -2q10 -10 14.5 -37.5 t-0.5 -44.5l-1 -2q-1 -2 -1 -6q64 -5 106 -43.5t43 -107.5q3 -70 -47 -111q-36 -39 -94 -39h-14q-8 -1 -17.5 -1t-20.5 0.5t-15 0.5q-5 1 -11 2t-9.5 1.5t-6.5 0.5l-21 2q-18 18 -19.5 27t7.5 18q6 19 35 19z" />
<glyph unicode="&#xb9;" horiz-adv-x="458" d="M252 958q0 86 6 168q0 2 -1 13t1 20l-31 -12l-22 -10l-47 -15h-4q-4 -4 -11 -4q-2 -2 -6 -2q-9 -6 -22 -6q-27 0 -33 33q9 34 33 37l35 12q1 0 3 1t3 1l12 4l-2 -2l22 10l17 6q57 23 102 25q23 -18 29 -20l-4 -103q-4 -46 -4 -59q0 -3 -1 -8.5t-1 -8.5v-43 q-6 -31 -2 -100q0 -4 1 -12t1 -11v-16q0 -3 1 -7t1 -7q4 -54 4 -99v-38q-6 -95 -6 -191v-74l-2 -2q0 -43 -39 -59q-19 0 -29 16q-9 15 -4 49v129q0 117 4 148v88q-4 86 -4 149z" />
<glyph unicode="&#xba;" horiz-adv-x="669" d="M541 1012l6 -29v-33q0 -24 -2 -30v-11q0 -37 -2 -51q0 -3 -1 -9t-1 -9q0 -20 2 -53.5t2 -49.5q-3 -17 -13 -49l-6 -12q-15 -34 -59 -88l-10 -10q-33 -29 -51 -35q-23 -6 -70 -6q-15 0 -33.5 3.5t-28.5 7l-30 10.5l-19 7q-55 28 -78 68q-7 11 -10 33l-6 24q0 3 -0.5 6.5 t-1.5 9.5t-2 11q-4 12 -4 63v21q6 72 6 172q-2 0 -2 2v4l8 86v-2l2 6v4l4 14q0 23 11 41q18 38 54.5 66.5t82.5 38.5q2 2 30 2l3 2h18q46 0 70 -8h-4q2 -2 10 -2q3 -1 7 -4t7 -4l8 -5l27 -20q35 -29 54.5 -80.5t21.5 -101.5zM197 836q0 -4 0.5 -8.5t1 -7t-0.5 -5t-3 -4.5 q-3 -35 0 -66q5 -85 30 -104q36 -28 99 -37q27 -5 63 4q12 4 29 21l6 6q25 25 43 65q0 13 6 19q6 12 6 24q0 21 -2 23v145q2 2 2 17v39q-2 6 -2 34q-1 4 -3 22.5t-3 24.5t-4 20.5t-7 22.5t-11.5 18t-16.5 17l-12 19q-10 8 -23 14t-16 8q-2 2 -33 2h-33q-29 -3 -57 -22 q-30 -23 -41 -43l-6 -29l-2 -2v-4l-4 -16q0 -5 -4 -25v2q-2 -2 -2 -10v-45q4 -31 2 -53v-48q-2 -14 -2 -38z" />
<glyph unicode="&#xbb;" horiz-adv-x="1093" d="M524 516l-78 -76l-34 -32l-43 -31q-5 -5 -15 -13t-18 -15t-14 -13l-43 -41l-23 -14l-55 -39q-11 -11 -23 -11q-11 0 -26 17q-7 18 -5 26t13 19l10 10l37 27l24 22l37 31l47 41q108 87 138 115l-13 12l-22 24q-10 10 -10 13l-9 10l-18 20l-94 84l-11 13q-3 3 -23.5 19.5 t-33.5 29.5q-22 16 -31.5 23.5t-28 27t-36.5 45.5q8 8 8 19l41 20q51 -51 90 -80l49 -45l33 -33l62 -51l20 -18q9 -9 26.5 -28t31 -32t28.5 -24q3 -10 12 -15v-57zM969 510l-74 -76l-39 -33l-43 -30q-39 -34 -47 -39l-43 -43l-23 -13l-55 -43q-6 -6 -20 -6q-12 0 -29 15 q-11 28 12 47l8 8l35 27q19 20 27 22l35 33l47 39q117 98 137 117l-33 34q-2 2 -2 4h-4q-2 0 -2 2v3l-10 14l-21 20l-92 84l-12 13q-28 28 -57 49q-7 7 -23 21t-34.5 32.5t-39.5 42.5q11 11 11 18l38 23q32 -34 91 -82l-2 2q21 -12 51 -47l35 -31l59 -53l20 -18 q20 -14 33 -37l21 -23q15 -19 47 -41z" />
<glyph unicode="&#xbc;" horiz-adv-x="1335" d="M1100 135v15h-129q-3 0 -9.5 1t-9.5 1q-16 0 -114 -5q-22 6 -29 23q-4 17 -4 43q-3 16 0 35q12 25 49 121v-2l16 39q6 20 9 22q2 2 2 12l18 49l-2 -6q0 1 1 2t1 2t6 19l4 12q0 6 4 10l21 50l12 26q0 8 8 21l-2 -7l29 68q0 4 2 6q1 3 3 5t3 5l4 7q3 9 8 14l11 22l14 29 q0 1 1 3t1 3q0 2 2 2q11 18 16 25t20.5 13.5t39.5 6.5l4 1q3 1 8 1q12 0 21 -5t14.5 -14.5t8.5 -18.5t4 -23.5t1.5 -23t0 -22.5t-0.5 -17v-27q0 -64 4 -174v-23q0 -4 1.5 -11t1.5 -11v-45q0 -8 1 -22t1 -21q0 -21 -5 -123v-25h7l3 1q3 1 7 1h33q24 0 30 -17.5t-5 -35.5 t-27 -18h-19h-29v-62q-2 -16 -2 -72q3 -27 -10 -40q-9 -9 -26 -9q-18 0 -41 23q8 63 8 141zM455 -33l-33 -2q-51 12 -23 60l4 2v4q19 82 70 190l4 15v-3l6 21l9 20l8 23q2 0 2 2t2 4t2 6q0 17 14 31l6 10l17 39q1 3 5 16l5 16q-1 -1 -2 -3l-2 -4l8 26q0 9 4 13v2l8 18v-2 l76 205l23 51l12 29l12 30v-2l23 56l39 100l22 57q0 7 6 13l4 14l13 29v-2l4 14q0 12 6 18l6 15l21 49l10 22l-2 -6q0 1 2 3t2 3l8 25q23 45 37 70q21 0 39 -11l20 -20l-55 -133q-4 -7 -7 -15.5t-6 -18t-5 -15.5l-19 -47v2l-8 -19l-21 -51l-71 -178v2l-6 -19 q-2 -6 -5.5 -15.5t-6 -16t-3.5 -7.5v5l-10 -31l-29 -62q0 -3 -2 -11t-2 -11q-17 -52 -30 -76v4l-31 -82l-4 -10l-19 -57l-6 -9q4 4 4 3t-1 -3l-3 -6q-1 -2 -3.5 -6.5t-2.5 -7.5l-10 -18l2 2q-1 -4 -5 -13.5t-5 -13.5q-2 -7 -11 -28.5t-12 -34.5l-39 -99q-23 -56 -47 -125z M252 975q0 95 8 168v33l-33 -13l-20 -10l-47 -14h-4q-4 -4 -13 -4q-2 -2 -6 -2q-11 -7 -20 -7q-29 0 -35 33q9 34 35 37l33 12q1 0 4 1t4 1q10 3 10 2l20 11l19 6h-2q54 22 102 24q18 -12 21.5 -29.5t3.5 -93.5q-4 -46 -4 -59q0 -3 -1 -8t-1 -8v-43q-2 -31 -2 -101 q0 -4 1 -11.5t1 -10.5v-17q0 -3 1 -7t1 -7q4 -54 4 -98v-39q-6 -95 -6 -191v-73l-2 -2q0 -15 -1.5 -23.5t-10.5 -19t-27 -17.5q-17 0 -27 17q-11 15 -6 49v129q0 100 6 147v17q-2 16 -2 71q-4 86 -4 150zM1094 719v35h-2q0 -1 -1.5 -4t-4 -10t-5.5 -15q2 2 2 0l-67 -137 l-12 -29q-10 -15 -17 -47l-8 -16l-18 -50l-19 -40l2 2l-16 -41l-4 -15q-11 -34 -17 -45l-28 -80v-6q18 0 32 2h97l2 -1q2 -1 6 -1h82v8q0 3 1 8.5t1 8.5v59q0 3 1 10t1 11v26q-2 18 -2 66q0 19 -4 65q0 1 -1 7t-1 10v135q-2 14 -2 51v16q2 2 2 17z" />
<glyph unicode="&#xbd;" horiz-adv-x="1413" d="M1112 436l27 33q8 3 14 18l39 39q33 42 51 92q0 11 6 17l4 14l-2 -2l6 33q-4 41 -35 76t-75 55h-27q-26 0 -57 -10q-28 -12 -43 -27q-19 -22 -25 -67q0 -11 2 -13v-8q0 -37 -14 -51q-10 -10 -31 -10q-5 2 -8.5 4t-6.5 4t-5 4.5t-3.5 4t-2.5 4.5l-1.5 4.5t-0.5 4.5v4.5 v5.5v5v6q-6 97 49 149q50 45 139 56q2 2 18 2l3 -1q3 -1 6 -1h16q74 -13 128.5 -78t43.5 -144q-2 0 -2 -4q0 -18 -6 -24q2 0 2 -4q-11 -63 -57 -123l-9 -8h2l-12 -13l-22 -30l-113 -144q-5 -5 -7 -7.5t-1 -2.5l-6 -8q-2 -2 -2 -6q-66 -131 -72 -211h139h2q2 0 4 2h93 q1 0 3 1t3 1q40 0 49 -21l7 -9q8 -9 8 -11.5t-1.5 -10.5t-9.5 -16q-17 -10 -33 -10h-10q-12 0 -12 2h-27q-25 0 -39 -2t-51 -2q-78 4 -125 4h-18l-3 -1q-3 -1 -6 -1q-31 0 -47 23q-10 16 -2 26q0 3 1 6t1 6q9 139 82 256h-2q18 24 25 31q5 7 21.5 31.5t25.5 34.5 q10 10 12 22zM438 -33l-32 -2q-49 13 -21 60l4 2v4q12 58 66 190l6 15v-3l6 21l8 20l8 23q2 0 2 2t2 4t2 6q0 15 13 31l6 10q9 23 23 64t22 59v-2q68 187 76 205l20 51l13 29l14 30v-2l22 56l39 100l21 57q0 7 6 13l18 43v-2l4 14q0 11 7 18l6 15l18 49l12 22l-2 -6q0 1 2 3 t2 3l9 25q23 51 39 70q18 0 36 -11l23 -20l-57 -133q-11 -21 -21 -49l-16 -47v2l-8 -19l-93 -233q-19 -51 -20 -52v5l-12 -31l-27 -62q0 -3 -2 -11t-2 -11q-15 -48 -31 -76v4l-31 -84q-14 -32 -20 -65l-4 -6l-1 -7q0 -1 -1 -2q-1 -2 -3.5 -6.5t-2.5 -7.5l-13 -23l-10 -26 l-20 -57l-41 -99q-35 -88 -47 -125zM252 954q0 95 8 168v33l-31 -12l-22 -10l-47 -15h-4q-4 -4 -13 -4q-2 -2 -6 -2q-6 -6 -20 -6q-13 0 -19 6.5t-16 34.5q6 10 10.5 15t12 8.5t8.5 3.5l6 2h-2l33 12q1 0 4 1t4 1l12 4l-2 -2l20 10l19 6h-2q48 19 102 27l25 -25q0 5 6 2 l-4 -102q-4 -46 -4 -59q0 -3 -1 -8.5t-1 -8.5v-43q-6 -29 -2 -100q0 -4 1 -11.5t1 -11.5v-16q0 -3 1 -7t1 -7q4 -54 4 -99v-39q-6 -94 -6 -190v-74l-2 -2q0 -43 -39 -59q-19 0 -29 16q-11 15 -6 49v129q0 101 6 148v16q-2 16 -2 72q-4 86 -4 149z" />
<glyph unicode="&#xbe;" horiz-adv-x="1433" d="M1198 133v14h-131q-3 0 -8 1.5t-8 1.5q-25 0 -113 -5q-18 3 -27 15q-6 2 -18 2q10 31 10 49q-3 16 0 35q10 21 20.5 47t23 59.5t20.5 53.5v-3q5 21 10 27l6 16l16 41q0 3 1.5 6t3 7t2.5 6l4 12l2 8l18 49l14 27q0 6 9 21l-2 -7l26 68q0 4 2 6q1 3 3 5t3 5l7 7q3 9 8 14 l10 22l16 37q13 26 27 35.5t47 9.5q4 0 6 1q1 1 2 1h6q19 0 30.5 -11.5t15.5 -34t5 -35.5t1 -36v-4.5v-3.5v-26q0 -119 2 -174v-23q0 -4 1 -11t1 -11v-45q0 -8 1 -22t1 -21q0 -41 -4 -123v-25h6l3 1q3 1 7 1h33q25 0 31.5 -17.5t-4.5 -35.5t-27 -18h-19h-30v-62 q-2 -14 -2 -72q2 -22 -9 -41q-8 -8 -28 -8q-16 0 -39 23q8 63 8 141zM406 811l-23 -23l8 -6q19 -11 27.5 -16.5t20 -18.5t18.5 -28l24 -49v2q14 -43 17 -105v-35q-14 -130 -111 -182l-33 -16l-24 -6l2 2q-18 -6 -41 -6h-8q-31 0 -39 2q-11 0 -15 4q-1 0 -4 1t-4 1l-4 4h-2 q-6 2 -16 4.5t-14.5 4t-10.5 5t-12 8.5l-25 31q-32 32 -43 105q0 1 -1 6t-1 6q0 18 -2 20q0 11 -2 13v6l-1 3q-1 4 -1 9q0 32 20 43q40 16 54 -29q0 -18 2 -20l4 -39q0 -3 0.5 -12.5t1 -13t1 -11.5t2 -12t3.5 -10.5t5 -11t7.5 -9.5t10.5 -10l18 -16l-4 2q31 -17 72 -17 q4 0 8.5 0.5t11.5 1.5l14 2l19 4l6 4q32 20 52.5 55t25.5 74q2 2 2 27q0 30 -10 88q-1 2 -1 5t-1 4.5t-4 2.5l-11 29v-6q-3 5 -37 39l-6 2q-8 0 -12 4l-25 16q-7 0 -12 5q-11 0 -47 20q10 29 21.5 40t27.5 13q70 27 86 113q0 1 1 5t1 5q2 2 2 19v38q0 1 1 3t1 6v37 q-3 78 -59 104q-42 10 -51 10q-18 0 -60 -10q-2 -2 -4 0q-2 -2 -3.5 -4t-2.5 -3t-3 -2t-5 -1q-20 -17 -37 -49v2q-2 -7 -7.5 -25.5t-6.5 -26.5q-2 -6 -2 -26v-12q0 -16 -13 -41q-3 0 -12.5 -1t-13.5 -1q-11 0 -25 10q-8 13 -8 37q-8 45 16 98l31 57l12 13l15 12l30 22 q48 25 103 25q64 0 108 -38.5t60.5 -92.5t11.5 -111q-2 0 -2 -6q0 -3 -1 -10t-1 -10q-1 -6 -3 -25t-4 -28.5t-5 -24t-7.5 -26t-11.5 -21.5q-9 -15 -30 -31zM549 -33l-33 -2q-48 12 -20 60l2 2v4q22 85 55 157l18 48v-3l7 21l8 20l8 23q2 0 2 2t2 4t2 6q0 19 12 31l6 10 l19 39q0 1 10 31q0 1 1 3t1 3l2 10q0 1 4 17v2l9 18v-2q7 20 22 63t28 78.5t25 63.5l21 51l12 29l14 30v-2l23 62l41 94l-2 -2l20 61v-2q0 7 6 13l19 43v-2l4 14q0 12 6 18l4 15l21 49l12 22l-2 -6q0 1 2 3t2 3l8 25q23 51 39 70q19 0 37 -11l23 -20l-58 -133 q-7 -13 -20 -49l-17 -47v2l-8 -19l-92 -233q-19 -51 -20 -52v5l-13 -31l-26 -62q0 -3 -2 -11t-2 -11q-13 -40 -33 -76v4l-27 -82l-4 -10q-25 -64 -25 -72l-2.5 -5t-2.5 -5.5t-1 -5.5v2l-12 -23l-10 -26l-23 -57l-39 -99q-34 -86 -41 -112zM1192 750l-6 -11l-8 -16q2 2 2 0 l-68 -137l-10 -29q-19 -38 -23 -53l-2 -6l-16 -47l-19 -48l2 3l-18 -41l-8 -25l-6 -12v4l-6 -27l-31 -80v-6q21 0 35 2h96q1 0 3 -1t3 -1h84v10q0 1 1 6t1 9v59q0 3 1 10t1 11v26q-2 18 -2 66q0 19 -4 65q0 3 -1 8.5t-1 8.5v135q-2 14 -2 49v18q2 2 2 17v33zM649 428l-2 -8 l-2 -2l-2 -8q0 12 6 18z" />
<glyph unicode="&#xbf;" horiz-adv-x="796" d="M221 -53l-10 12l-18 18q-29 29 -35 43l-6 15l-9 12q-3 5 -5 9.5t-2 7.5v7t-1 7q0 3 -1 7t-1 7l-2 4l-1 2q-1 2 -1 6q-11 62 0 95v-4q19 145 135 286l15 19q0 -4 8 8q9 12 10 14q0 2 2 4q0 -3 1 1q2 3 3 10l19 45v-2l8 20q37 82 37 148v8q0 29 8 43q16 16 41 16q2 0 4 -2 q22 -11 24.5 -33t-4.5 -53q0 -3 -1 -8t-1 -8q-8 -58 -37 -129l-6 -13q-2 -2 -2 -8l-8 -18q-7 -12 -16 -32.5t-13 -25.5q-2 0 -2 2l-14 -28l-10 -10l-17 -23q-4 -6 -15.5 -21t-19.5 -27t-14 -26q-39 -58 -61 -153q-10 -40 0 -80v-13q0 -1 1 -3t1 -3l8 -24l8 -8q16 -44 57 -69 t89 -30q2 -2 14 -2q1 0 1 -1q1 -1 5 -1h31l18 4q6 0 8 2l25 6h-2q125 66 133 199q-6 30 6 55.5t45 14.5q23 -23 23 -68v-10q0 -42 -15 -100l-2 -2q0 8 -8 -7q-2 -4 -6 -14q-6 -13 -8 -16q-1 -3 -3 -6t-3.5 -5.5t-1.5 -3.5l-9 -12l3 2q-21 -23 -31 -34t-29 -24.5t-39 -21.5 l-35 -16l-16 -4l-16 -8q-23 0 -25 -2l-20 -3h-23q-30 0 -33 3h2q-2 2 -8 2q-6 2 -16 4h-4l-19 4q-50 12 -88 43zM369 1108v25q0 12 0.5 19.5t3.5 18.5t9.5 14t17.5 6t28 -5q18 -14 18 -53v-31q0 -31 -18 -49q-14 -6 -24.5 -7t-16.5 3.5t-10 10.5t-5.5 16t-2 16.5t-0.5 15.5z " />
<glyph unicode="&#xc0;" horiz-adv-x="933" d="M801 111v-7q7 -11 10 -43q0 -1 1 -4t1 -4q3 -22 -2 -30q-7 -17 -22.5 -20.5t-32.5 7.5q-8 9 -12 15t-5 8.5t-1.5 5.5t-2.5 6l-2 2q-4 20 -4 21l-4 12l-6 31q0 1 -1 5t-1 5v12q-1 1 -1.5 4t-1 7t-1.5 6l-4 26v-6q-19 56 -33 131q-107 0 -170 -6q-96 -8 -215 -8h-41 l-14 -66l-19 -94q0 -3 -1 -12.5t-1 -12.5h-4v-10q-2 -2 -2 -16l-6 -53q-9 -24 -37 -27q-22 -3 -43 24v15v2q0 1 1 3t1 3l6 43q4 48 8 57v13l19 86l20 108l23 86l8 31l22 90l19 84l49 229l6 33q0 1 1 4t1 4q9 60 35 133h-2l12 43l19 72q0 34 13 60t44 22h47l47 -8l49 -164 l2 -18l5 -9v5l45 -183l-2 2l12 -41l26 -90l27 -98v2q3 -11 12.5 -38.5t14.5 -49.5l16 -78l4 -20q0 -5 4 -25l4 -29l7 -37q17 -69 20 -81l23 -121q0 -22 10 -49zM270 383l-6 -16h43q119 0 182 6q68 8 177 8q-22 120 -101 385q-8 23 -18.5 69t-11.5 50v-2l-23 92l-16 57l-2 17 l-7 18l-8 18l-22 74h-8q-1 -18 -6 -38.5t-5 -22.5l-10 -21q-2 -2 -2 -4l-4 -14v-6l-12 -56l-7 -26q-55 -206 -73 -338l-6 -19l-25 -125q-13 -55 -29 -106zM369 1589q6 0 10.5 -2t7.5 -4t7.5 -7.5t5.5 -7.5t5 -9.5t5 -8.5l8 -10l12 -18l10 -21l17 -28l4 -11l2 -2l10 -16l2 -2 q14 -18 14 -47q-21 -21 -36 -21q-12 0 -21.5 6t-14.5 14t-14 23q0 2 -2 4l-2 6l-16 31q-41 71 -51 94l-2 15q22 22 39 22z" />
<glyph unicode="&#xc1;" d="M801 111v-7q7 -11 10 -43q0 -1 1 -4t1 -4q3 -22 -2 -30q-7 -17 -22.5 -20.5t-32.5 7.5q-8 9 -12 15t-5 8.5t-1.5 5.5t-2.5 6l-2 2q-4 20 -4 21l-4 12l-6 31q0 1 -1 5t-1 5v12q-1 1 -1.5 4t-1 7t-1.5 6l-4 26v-6q-19 56 -33 131q-107 0 -170 -6q-96 -8 -215 -8h-41 l-14 -66l-19 -94q0 -3 -1 -12.5t-1 -12.5h-4v-10q-2 -2 -2 -16l-6 -53q-9 -24 -37 -27q-22 -3 -43 24v15v2q0 1 1 3t1 3l6 43q4 48 8 57v13l19 86l20 108l23 86l8 31l22 90l19 107q9 44 25.5 107t23.5 93l6 33q0 1 1 4t1 4q9 60 35 133h-2l12 43l19 72q0 34 13 60t44 22h47 l47 -8l49 -164l2 -19l5 -8v4l45 -182l-2 2l12 -41l26 -90l27 -70v3q15 -52 27 -111l16 -78l4 -20q0 -5 4 -25l4 -29l7 -37q17 -69 20 -81l23 -121q0 -22 10 -49zM270 383l-6 -16h43q119 0 182 6q68 8 179 8q-20 101 -103 379q-8 23 -18.5 69t-11.5 50v-2l-23 92l-16 57 l-2 16l-7 19l-8 18l-22 74h-8q-1 -18 -6 -38.5t-5 -22.5l-10 -21q-2 -2 -2 -4l-4 -14v-6l-12 -56l-7 -26q-6 -23 -21.5 -79t-21.5 -81t-15 -67.5t-15 -82.5l-6 -41q-21 -109 -25 -125q-13 -55 -29 -106zM582 1581q14 0 36 -22l-2 -15q-19 -54 -49 -94l-18 -29v2l-12 -24 q-4 -5 -9 -15t-11.5 -14t-20.5 -4t-37 23q0 25 16 51l6 6q0 1 0.5 1.5t1.5 3t2 5.5l9 12l6 13l12 18q8 8 8 14l17 27q6 13 9.5 19.5t13.5 14t22 7.5z" />
<glyph unicode="&#xc2;" d="M801 111v-7q7 -11 10 -43q0 -1 1 -4t1 -4q3 -22 -2 -30q-7 -17 -22.5 -20.5t-32.5 7.5q-8 9 -12 15t-5 8.5t-1.5 5.5t-2.5 6l-2 2q-4 20 -4 21l-4 12l-6 31q0 1 -1 5t-1 5v12q-1 1 -1.5 4t-1 7t-1.5 6l-4 26v-6q-19 56 -33 131q-107 0 -170 -6q-96 -8 -215 -8h-41 l-14 -66l-19 -94q0 -3 -1 -12.5t-1 -12.5h-4v-10q-2 -2 -2 -16l-6 -53q-9 -24 -37 -27q-22 -3 -43 24v15v2q0 1 1 3t1 3l6 43q4 48 8 57v13l19 86l20 108l23 86l8 31l41 176l49 229l6 33q0 1 1 4t1 4q9 62 35 134h-2l12 43l19 71q0 34 13 60t44 22h47l47 -8l49 -164l2 -18 l5 -9v5l45 -183l-2 2l12 -41l26 -90l27 -98v2q15 -53 27 -111l16 -57l4 -20q0 -5 4 -25l4 -29l7 -37q17 -69 20 -81l23 -121q0 -22 10 -49zM270 383l-6 -16h43q119 0 182 6q68 8 177 8q-23 125 -101 387q-8 23 -18.5 69t-11.5 50v-2l-23 92l-16 57l-2 17l-7 18l-8 18l-22 74 h-8q-1 -18 -6 -38.5t-5 -22.5l-10 -21q-2 -2 -2 -4l-4 -14v-6l-12 -56l-7 -26q-55 -206 -73 -338l-6 -41l-25 -105q-13 -55 -29 -106zM328 1378l-6 4q-23 7 -23 35q0 11 12 31q6 14 21 20l4 5l18 20l6 6l7 8l12 19l18 22q13 18 45 43h54v-2q26 -14 32 -30v2l3 -7h-1 q0 -4 2 -4l9 -6l14 -18l16 -21q4 -9 23 -28v-4l16 -23l15 -12q19 -11 26 -31q0 -64 -55 -39q-24 18 -31 25q-6 10 -14 19.5t-18.5 20t-14.5 15.5l-18 25l-21 26l-16 21q0 -7 -6 -13l-6 -12l-11 -8l-8 -14l-18 -25l-39 -39q-6 -6 -6 -12q-19 -19 -41 -19z" />
<glyph unicode="&#xc3;" d="M801 111v-7q7 -11 10 -43q0 -1 1 -4t1 -4q3 -22 -2 -30q-7 -17 -22.5 -20.5t-32.5 7.5q-8 9 -12 15t-5 8.5t-1.5 5.5t-2.5 6l-2 2q-4 20 -4 21l-4 12l-6 31q0 1 -1 5t-1 5v12q-1 1 -1.5 4t-1 7t-1.5 6l-4 26v-6q-19 56 -33 131q-107 0 -170 -6q-96 -8 -215 -8h-41 l-14 -66l-19 -94q0 -3 -1 -12.5t-1 -12.5h-4v-10q-2 -2 -2 -16l-6 -53q-9 -24 -37 -27q-22 -3 -43 24v15v2q0 1 1 3t1 3l6 43q4 48 8 57v13l19 86l20 108l23 86l8 31l41 172l49 229l6 33q0 1 1 4t1 4q9 60 35 133h-2l12 43l19 72q0 34 13 60t44 22h47l47 -8l49 -164l2 -18 l5 -9v4l45 -182l-2 2l12 -41l26 -90l27 -98v2q3 -12 12.5 -38t14.5 -48l16 -78l4 -20q0 -5 4 -25l4 -29l7 -37q17 -69 20 -81l23 -121q0 -22 10 -49zM270 383l-6 -16h43q119 0 182 6q68 8 177 8q-21 115 -101 383q-8 23 -18.5 69t-11.5 50v-2l-23 92l-16 57l-17 53l-22 74 h-8q-1 -18 -6 -38.5t-5 -22.5q-7 -11 -9 -15.5t-3.5 -14t-3.5 -15.5l-12 -56l-7 -26q-55 -206 -73 -338l-6 -41l-25 -101q-13 -55 -29 -106zM254 1372l-12 2q-27 19 -13 72q16 55 72 88q43 16 72 16q32 0 45 -8q11 -4 55 -29l8 -6l23 -14q3 -7 16 -10h-4q2 -2 6 -2 q18 -8 45 -11h8q1 0 3 -1t6 -1q21 0 37 17t28.5 41t16.5 28q13 0 18 -1.5t29 -14.5q1 -50 -32 -90t-81 -51q-2 -2 -20 -2q-35 0 -105 26q-12 11 -16 13q-6 0 -23 12l-39 24q-2 1 -14.5 5t-15.5 4q-29 0 -49 -19.5t-25 -50.5q0 -37 -39 -37z" />
<glyph unicode="&#xc4;" d="M801 111v-7q7 -11 10 -43q0 -1 1 -4t1 -4q3 -22 -2 -30q-7 -17 -22.5 -20.5t-32.5 7.5q-8 9 -12 15t-5 8.5t-1.5 5.5t-2.5 6l-2 2q-4 20 -4 21l-4 12l-6 31q0 1 -1 5t-1 5v12q-1 1 -1.5 4t-1 7t-1.5 6l-4 26v-6q-19 56 -33 131q-107 0 -170 -6q-96 -8 -215 -8h-41 l-14 -66l-19 -94q0 -3 -1 -12.5t-1 -12.5h-4v-10q-2 -2 -2 -16l-6 -53q-9 -24 -37 -27q-22 -3 -43 24v15v2q0 1 1 3t1 3l6 43q4 48 8 57v13l19 86l20 108l23 86l8 31l22 90l19 107q9 44 25.5 107t23.5 93l6 33q0 1 1 4t1 4q9 60 35 133h-2l12 43l19 72q0 34 13 60t44 22h47 l47 -8l49 -164l2 -19l5 -8v4l45 -182l-2 2l12 -41l26 -90l27 -70v3q15 -52 27 -111l16 -78l4 -20q0 -5 4 -25l4 -29l7 -37q17 -69 20 -81l23 -121q0 -22 10 -49zM270 383l-6 -16h43q119 0 182 6q68 8 177 8q-19 104 -101 379q-8 23 -18.5 69t-11.5 50v-2l-23 92l-16 57 l-2 16l-15 37l-22 74h-8q-1 -18 -6 -38.5t-5 -22.5q-9 -17 -12.5 -29.5t-15.5 -71.5l-7 -26q-6 -23 -21.5 -79t-21.5 -81t-15 -67.5t-15 -82.5l-6 -41l-25 -125q-13 -55 -29 -106zM604 1442v24q0 11 1 19.5t4 20.5t9.5 16t18.5 7t29 -7q16 -18 16 -56v-30q0 -32 -16 -50 q-17 -10 -29 -7.5t-18.5 6.5t-9.5 16t-4 20.5t-1 20.5zM276 1442v24q0 12 1 20.5t4 20.5t9.5 16t17.5 6.5t28 -7.5q18 -18 18 -56v-30q0 -32 -18 -50q-17 -10 -28 -7.5t-17.5 6.5t-9.5 16t-4 20.5t-1 20.5z" />
<glyph unicode="&#xc5;" d="M801 111v-7q3 -4 4 -9.5t2.5 -15t3.5 -18.5q0 -1 1 -4t1 -4q3 -22 -2 -30q-7 -17 -22.5 -20.5t-32.5 7.5q-8 9 -12 15t-5 8.5t-1.5 5.5t-2.5 6l-2 2q-4 20 -4 21l-4 12l-6 31q0 1 -1 5t-1 5v12q-1 1 -1.5 4t-1 7t-1.5 6l-4 26v-6q-19 56 -33 131q-107 0 -170 -6 q-96 -8 -215 -8h-41l-17 -66l-16 -94q0 -3 -1 -12.5t-1 -12.5h-4v-10q-2 -2 -2 -16l-6 -53q-9 -24 -37 -27q-22 -3 -43 24v15v2q0 1 1 3t1 3l6 43q4 48 8 57v13l19 86l20 108l23 86l8 31l22 90l19 107q9 44 26 109.5t23 94.5l6 33v8q11 53 37 133h-2l12 43l19 72q0 34 13 60 t44 22h47l45 -8l51 -164l2 -18l5 -9v4l45 -182l-2 2l12 -41l26 -65l27 -99v3q15 -52 27 -111l16 -78l4 -20q0 -3 1 -12.5t1 -12.5l6 -29l7 -37q17 -69 20 -81l23 -121q0 -22 10 -49zM270 383l-6 -16h41q121 0 184 6q68 8 177 8q-33 177 -101 407q-20 55 -30 95v-2l-23 92 l-16 57l-2 17l-7 18l-8 18l-22 74h-8q-1 -18 -6 -38.5t-5 -22.5l-10 -21q-2 -2 -2 -4l-4 -14v-6l-12 -56l-7 -26q-5 -21 -17 -65t-18 -65.5t-14 -56t-13.5 -64.5t-10.5 -63l-6 -41l-25 -125q-13 -55 -29 -106zM600 1513h-2q17 -57 3 -97t-48 -68q-43 -37 -100 -37 q-39 0 -72 20l-12 8l4 -4q-3 2 -13.5 8t-15.5 11q-37 32 -49 96q-4 18 0 35q6 43 33 78l10 10q32 32 88 49q26 0 35 4q4 -1 9 -2l7.5 -1.5t3.5 -0.5q21 0 43 -18l-2 4q54 -28 78 -95zM532 1493q-15 35 -40 49q-8 8 -17 8q-12 0 -14 2q-2 -2 -21 -2q-42 -11 -51 -22l-6 -10 q-12 -17 -16 -39v-25q3 -24 22 -51q0 -4 6 -4q5 -3 12.5 -5t10.5 -5l-4 4q21 -11 48 -9t48 15q41 41 22 94z" />
<glyph unicode="&#xc6;" horiz-adv-x="1392" d="M659 252v29h-196q-5 -1 -139 -7q-10 0 -27 -1t-23 -1h-18q-5 -10 -8.5 -33.5t-5.5 -31.5q0 -3 -1 -6t-1 -6l-19 -80q-2 -2 -2 -4q0 -1 -1 -3t-1 -6l-18 -71q0 -1 -1 -4t-1 -4q0 -14 -1.5 -21.5t-9 -16.5t-22.5 -16q-27 0 -33 15q-8 8 -8 41q0 1 1 4t1 4q3 28 18 78 q2 2 2 10q0 22 2 24l7 23q1 7 5 22.5t5 22.5l6 27q5 24 10 36v7l8 24q0 1 1 4t1 4q1 2 1 7t2 9.5t6 8.5l20 82q0 2 -1 4.5t-0.5 4.5t3.5 5q0 7 6 17l-2 -4l8 32l21 78l22 94l13 62l12 55q3 14 7 39t7 39l1 3q1 3 1 7l9 51l8 47l16 97q0 1 2 6t2 6t1 3t1 3q2 2 2 16l9 21v18 h2q2 2 2 4q0 9 2 13q0 5 10 22q0 3 1 8l1 5q0 21 3 32.5t14.5 15.5t16.5 4.5t27 0.5q229 0 478 12h284q34 0 43 -4q21 0 32 -10t1 -33q-6 -29 -45 -29q-25 0 -31 2q-2 0 -4.5 -1t-4.5 -0.5t-5 3.5q-17 0 -23 -2q-4 0 -12.5 -1t-11.5 -1h-45q-5 0 -13 -1t-12.5 -0.5t-9.5 3.5 h-41q-3 0 -8 -1t-8 -1q-14 2 -43 2h-39q-3 0 -10.5 -1t-10.5 -1h-88q-38 0 -63 -2h-13v-247q0 -26 -1 -79.5t-0.5 -91t3.5 -77.5h162q4 0 13 1t14 1q3 0 7 -1t7 -1h53q3 0 7.5 -1t7.5 -1h41q3 0 6 1t4 1h31q6 2 22 2q31 0 43 -15q13 -10 13 -49q-50 -16 -66 -16h-131 q-14 2 -41 2h-92q-7 0 -49 1t-52 -1q-1 -22 3 -82v-94l-7 -72q-8 -55 -8 -125q0 -19 4 -51v-8q2 -23 2 -76h131q82 0 109 -2h37q63 -6 180 -6h41q24 0 45 -21v-10q6 -11 2 -18q-2 -10 -6 -15.5t-11.5 -7.5t-10.5 -2h-13h-12q-18 2 -45 2h-66q-23 2 -61 2q-4 0 -10 1t-9 1 h-14q-29 0 -35 2h-157q-55 0 -80 -2h-19q-16 0 -18 -2q-1 0 -1.5 -0.5t-2 -1t-4.5 -0.5h-11q-10 0 -26 8q-10 10 -10 47q2 2 2 -2q2 35 -2 117q-3 35 -3 76zM666 1151v8h-211q0 -1 -1 -4t-1 -4q-2 -6 -2 -16q0 -5 -2 -5q-7 -17 -11 -51q-11 -46 -24 -112q-47 -281 -131 -619 q78 0 141 8h22q3 0 11 1t12 1h39q3 0 6 -1t6 -1h12l3 -1q3 -1 6 -1h39q8 2 38 2q28 4 50 4q4 39 4 191v47q-2 31 -2 104v154q0 5 -1 15.5t-1 15.5v155l-1 4q-1 4 -1 9v14q0 25 2 33v43q0 1 -1 1q-1 1 -1 5z" />
<glyph unicode="&#xc7;" horiz-adv-x="831" d="M352 -338h27q17 -3 18 -2q3 0 7.5 -1t7.5 -1h12q10 -3 20 0q33 0 45 12q16 14 25.5 37.5t-0.5 44.5v-2q-10 29 -23 43t-38 25q-30 6 -37 6q-36 0 -42.5 7t-6.5 48q0 1 0.5 1.5t1 2t0.5 4.5v111q-99 18 -156 78l-14 16l-13 14q-14 18 -16 35l-2 2l-10 17q-6 10 -9 18.5 t-4.5 20t-3.5 18.5l-4 29v26q-6 24 -6 50v20q-4 70 -4 123q0 51 2 74v4q-2 6 -2 22v21q-4 78 -4 94v22q0 3 1 11t1 12v72q2 31 2 82q0 75 6 108l2 4q0 11 2 19l-2 -2l17 55q0 2 2 4q0 8 2 10q0 6 4 10v3q57 102 145 127q4 0 6 2q4 0 8 4q64 18 152 12q69 -11 127 -55 q18 -13 31 -31l16 -19q38 -53 47 -147v-37q0 -1 1 -3t1 -3q0 -66 -63 -55q-14 25 -17 47v26q-4 60 -12 84q-5 8 -12.5 22t-14 24.5t-12.5 17.5q-21 21 -65 41h2q-34 12 -74 12q-36 0 -74 -12h-4q-2 -2 -8 -2q-30 -7 -58 -30t-42 -50h-2l-13 -31v2q0 -1 -1 -3t-1 -3l-4 -18 l-4 -19h-2v-6q-10 -35 -6 -96v-12q0 -51 -2 -74v-68q0 -4 -1 -13t-1 -13v-23q0 -26 2 -50.5t2 -47.5v-86q-2 -33 -2 -92q0 -45 2 -68v-20q0 -32 8 -45q0 -22 4 -50q0 -14 2 -16l6 -18l9 -19v2l16 -28l10 -15l-2 2q18 -32 59 -46t103 -19h4q2 2 10 2q25 4 49 12l21 4l14 4 q2 0 4 2l21 8h4q6 0 8 2q-1 0 -1 2t1 3q27 9 55 63v-2l9 12l4 21q0 10 4 14v2q2 2 2 6q2 14 2 41v25q0 31 2 41q6 20 24 29t34 0.5t16 -31.5v-115q0 -34 -19 -67v2l-8 -15q-44 -79 -100 -98h2l-15 -6q-42 -18 -69 -23q-1 0 -4 -1t-4 -1l-27 -4l-19 -4h-4q0 -81 -2 -106 q63 -5 105.5 -45t46.5 -109q1 -29 -13.5 -61.5t-33.5 -53.5q-36 -36 -99 -39h-16q-10 -1 -49 2q-3 0 -8 1t-8 1q-2 2 -15 2l-28 2q-13 20 -14.5 31t9.5 21q14 16 35 16zM223 1030l2 4q0 -2 -2 -4z" />
<glyph unicode="&#xc8;" horiz-adv-x="870" d="M664 1210h53q22 0 35 -8q16 -10 16 -35q-3 -16 -10 -23t-13.5 -8t-21.5 -1h-57q-38 0 -54 2h2q-82 4 -118 4h-31q-5 0 -15.5 1t-15.5 1q-16 2 -49 2h-23q-4 0 -12 1t-12 1h-27q-3 0 -7 1t-7 1h-37q-8 -2 -35 -2h-2v-14q-2 -31 -2 -95q0 -49 4 -151q0 -13 1 -40t1 -40 q3 -28 0 -53v-58q0 -7 1 -19.5t1 -19.5h15l178 -4h63q16 2 56 2h47v-2h7.5h8.5t7.5 -0.5t8 -2t6.5 -3.5t6.5 -5.5t4.5 -8.5q9 -19 0 -41q-13 -19 -41 -19l-5 1q-5 1 -9 1l-2 3q-16 2 -52 2q-32 0 -55 -2h-121q-5 0 -15 1t-15 1q-46 0 -62 2h-29v-56q0 -4 -1 -7l-1 -3v-27 q-4 -28 -4 -38v-31q0 -4 1 -7l1 -3q-2 -31 -2 -86q0 -7 -1 -22.5t-1 -22.5v-39q0 -23 2 -25v-20v-121h86q4 0 12.5 1t12.5 1h33q3 0 6 1t4 1h96q125 0 197 -2q2 -2 14 -2l2 -1q2 -1 6 -1h13q27 0 45 -21q6 -14 6 -22q-9 -31 -56 -31h-8q-3 0 -6.5 1t-7.5 1l-2 1q-2 1 -6 1 q-78 4 -131 4q-46 0 -148 -4h-76q-14 -2 -55 -2h-26q-4 0 -6 -1t-3 -1h-20q-34 0 -43 12q-12 20 -12 66v35q0 3 -1 8t-1 8v115q0 41 4 139q0 21 -2 27q0 1 -1 4t-1 4v20q0 34 4 80v6l1 3q1 3 1 7q0 3 1 6.5t1 6.5q2 16 -2 59v27q-6 31 -6 102q2 44 -3 168q-4 78 -4 129 q0 59 2 82v45q0 1 0.5 1.5t1 2t0.5 4.5q-4 38 22 50.5t67 5.5h12q8 2 26 2h33q82 -4 117 -4q113 0 190 -7q14 -2 50 -2zM395 1589q26 0 43 -39l8 -10l21 -37l18 -30l4 -11l3 -2l10 -16l2 -2q14 -14 14 -47q-21 -21 -37 -21q-13 0 -22.5 7t-13.5 13.5t-13 24.5q0 2 -2 4l-2 7 l-16 28q-24 33 -52 94l-2 17q20 20 37 20z" />
<glyph unicode="&#xc9;" horiz-adv-x="870" d="M664 1208h53q22 0 35 -8q16 -10 16 -35q-3 -16 -10 -23t-13.5 -8t-21.5 -1h-57q-38 0 -54 2h2q-82 4 -118 4h-31q-5 0 -15.5 1t-15.5 1q-16 2 -49 2h-23q-4 0 -12 1t-12 1h-27q-3 0 -7 1t-7 1h-37q-8 -2 -35 -2h-2v-15q-2 -31 -2 -94q0 -49 4 -151q0 -13 1 -40t1 -40 q3 -28 0 -53v-58q0 -7 1 -19.5t1 -19.5h15l178 -4h63q16 2 56 2h47v-2h7.5h8.5t7.5 -0.5t8 -2t6.5 -3.5t6.5 -5.5t4.5 -8.5q9 -19 0 -41q-13 -19 -41 -19l-5 1q-5 1 -9 1l-2 2q-24 3 -52 3q-20 0 -55 -3h-121q-5 0 -15 1.5t-15 1.5q-46 0 -62 2h-29v-56q0 -4 -1 -7l-1 -3 v-27q-4 -28 -4 -38v-31q0 -4 1 -7l1 -3q-2 -31 -2 -86q0 -7 -1 -23t-1 -23v-38q0 -23 2 -25v-20q0 -21 -0.5 -46t-0.5 -41.5t1 -33.5h86q4 0 12.5 1t12.5 1h33q3 0 6 1t4 1h96q125 0 197 -2q2 -2 14 -2l2 -1q2 -1 6 -1h13q27 0 45 -21q6 -14 6 -22q-9 -31 -56 -31h-8 q-3 0 -6.5 1t-7.5 1l-2 1q-2 1 -6 1q-78 4 -131 4q-46 0 -148 -4h-76q-14 -2 -55 -2h-26q-4 0 -6 -1t-3 -1h-20q-34 0 -43 12q-12 20 -12 66v35q0 3 -1 8t-1 8v115q0 41 4 139q0 21 -2 27q0 1 -1 4t-1 4v20q0 34 4 80v6l1 3q1 3 1 7q0 3 1 6.5t1 6.5q2 16 -2 59v27 q-6 31 -6 102q2 44 -3 168q-4 78 -4 129q0 59 2 82v45q0 1 0.5 1.5t1 2t0.5 4.5q-4 38 22 50.5t67 5.5h12q8 2 26 2h33q82 -4 117 -4q113 0 190 -7q14 -2 50 -2zM451 1587q16 0 36 -20l-2 -17q-9 -25 -49 -94l-18 -26q-3 -16 -12 -25q-4 -4 -10 -14.5t-12.5 -14.5t-18.5 -4 q-14 0 -37 23q0 29 16 51l6 6q0 1 0.5 1.5t1.5 3t2 5.5l8 13l17 32q8 8 8 13l19 26q14 41 45 41z" />
<glyph unicode="&#xca;" horiz-adv-x="870" d="M664 1208h53q22 0 35 -8q16 -10 16 -35q-3 -16 -10 -23t-13.5 -8t-21.5 -1h-57q-38 0 -54 2h2q-82 4 -118 4h-31q-5 0 -15.5 1t-15.5 1q-16 2 -49 2h-23q-4 0 -12 1t-12 1h-27q-3 0 -7 1t-7 1h-37q-8 -2 -35 -2h-2v-15q-2 -31 -2 -94q0 -49 4 -151q0 -13 1 -40t1 -40 q3 -28 0 -53v-58q0 -7 1 -19.5t1 -19.5h15l178 -4h63q16 2 56 2h47v-2h7.5h8.5t7.5 -0.5t8 -2t6.5 -3.5t6.5 -5.5t4.5 -8.5q9 -19 0 -41q-13 -19 -41 -19l-5 1q-5 1 -9 1l-2 2q-24 3 -52 3q-20 0 -55 -3h-121q-5 0 -15 1.5t-15 1.5q-46 0 -62 2h-29v-56q0 -4 -1 -7l-1 -3 v-27q-4 -28 -4 -38v-31q0 -4 1 -7l1 -3q-2 -31 -2 -86q0 -7 -1 -23t-1 -23v-38q0 -23 2 -25v-20q0 -21 -0.5 -46t-0.5 -41.5t1 -33.5h86q4 0 12.5 1t12.5 1h33q3 0 6 1t4 1h96q125 0 197 -2q2 -2 14 -2l2 -1q2 -1 6 -1h13q27 0 45 -21q6 -14 6 -22q-9 -31 -56 -31h-8 q-3 0 -6.5 1t-7.5 1l-2 1q-2 1 -6 1q-78 4 -131 4q-46 0 -148 -4h-76q-14 -2 -55 -2h-26q-4 0 -6 -1t-3 -1h-20q-34 0 -43 12q-12 20 -12 66v35q0 3 -1 8t-1 8v115q0 41 4 139q0 21 -2 27q0 1 -1 4t-1 4v20q0 34 4 80v6l1 3q1 3 1 7q0 3 1 6.5t1 6.5q2 16 -2 59v27 q-6 31 -6 102q2 44 -3 168q-4 78 -4 129q0 59 2 82v45q0 1 0.5 1.5t1 2t0.5 4.5q-4 38 22 50.5t67 5.5h12q8 2 26 2h33q82 -4 117 -4q113 0 190 -7q14 -2 50 -2zM276 1376l-6 4q-24 6 -24 37q0 15 14 29q6 14 21 20l4 4l18 23l4 6l19 25l20 22q21 30 43 43h55v-2 q26 -15 33 -31v3l3 -7h-1q0 -4 2 -4l8 -6l15 -18l16 -19q2 -11 21 -30v-5l18 -22l14 -10q16 -10 25 -33q0 -33 -15 -41t-38 2q-21 13 -31 25q-16 26 -49 55l-16 24l-21 29l-16 19q0 -8 -6 -11l-9 -12l-10 -10l-8 -15l-17 -24l-40 -39q-7 -7 -7 -12q-16 -19 -39 -19z" />
<glyph unicode="&#xcb;" horiz-adv-x="870" d="M664 1212h53q22 0 35 -8q16 -10 16 -35q-3 -16 -10 -23t-13.5 -8t-21.5 -1h-57q-38 0 -54 2h2q-82 4 -118 4h-31q-5 0 -15.5 1t-15.5 1q-16 2 -49 2h-23q-4 0 -12 1t-12 1h-27q-3 0 -7 1t-7 1h-37q-8 -2 -35 -2h-2v-14q-2 -31 -2 -97q0 -47 4 -149q0 -13 1 -40t1 -40 q3 -28 0 -53v-58q0 -7 1 -19.5t1 -19.5h15l178 -4h63q16 2 56 2h47v-2h7.5h8.5t7.5 -0.5t8 -2t6.5 -3.5t6.5 -5.5t4.5 -8.5q9 -21 0 -41q-13 -19 -41 -19l-5 1q-5 2 -9 2l-2 2q-16 2 -52 2q-32 0 -55 -2h-121q-5 0 -15 1t-15 1q-46 0 -62 2h-29v-56q0 -4 -1 -7l-1 -3v-26 q-4 -28 -4 -39v-31q0 -4 1 -7l1 -3q-2 -31 -2 -86q0 -7 -1 -22.5t-1 -22.5v-39q0 -23 2 -25v-20q0 -21 -0.5 -46t-0.5 -41.5t1 -33.5h86q4 0 12.5 1t12.5 1h33q3 0 6 1t4 1h96q125 0 197 -2q2 -2 14 -2l2 -1q2 -1 6 -1h13q27 0 45 -21q6 -14 6 -22q-9 -31 -56 -31h-8 q-3 0 -6.5 1t-7.5 1l-2 1q-2 1 -6 1q-78 4 -131 4q-46 0 -148 -4h-76q-14 -2 -55 -2h-26q-4 0 -6 -1t-3 -1h-20q-34 0 -43 12q-12 20 -12 66v35q0 3 -1 8t-1 8v115q0 41 4 139q0 21 -2 27q0 1 -1 4t-1 4v20q0 34 4 80v6l1 4q1 4 1 7q0 1 1 5t1 7q2 16 -2 59v27q-6 31 -6 102 q2 44 -3 168q-4 78 -4 129q0 59 2 82v45q0 1 0.5 1.5t1 2t0.5 4.5q-4 38 22 50.5t67 5.5h12q8 2 26 2h33q82 -4 117 -4q113 0 190 -7q14 -2 50 -2zM553 1452v25q0 10 0.5 17t2 17t5.5 15.5t10 10t16.5 3t24.5 -7.5q19 -19 19 -55v-31q0 -30 -19 -49q-14 -6 -24.5 -7.5 t-16.5 3t-10 10t-5.5 15.5t-2 17t-0.5 17zM225 1452v25q0 12 1 20.5t4 20.5t9.5 15.5t17.5 6t28 -7.5q18 -18 18 -55v-31q0 -31 -18 -49q-17 -10 -28 -7.5t-17.5 6t-9.5 15.5t-4 20.5t-1 20.5z" />
<glyph unicode="&#xcc;" horiz-adv-x="397" d="M211 475v2q0 3 -1 7.5t-1 7.5v43q-4 62 -4 110v107q2 49 2 145v111q0 7 1 22.5t1 22.5q0 4 1 12t1 12v76q-2 14 -2 41q0 2 -0.5 4t-1 3.5t0.5 4.5t3 6q6 39 31 50q2 -2 12 -2h20q9 -26 9 -48v-168q-2 -47 -2 -137v-35q0 -4 -1 -10.5t-1 -9.5v-68q0 -4 -1.5 -12t-1.5 -12 v-21q3 -21 3 -51q0 -111 6 -219v-209q0 -3 -1 -6t-1 -6v-12q0 -20 4 -66v2q11 -47 2 -115v-26q5 -19 -1.5 -31.5t-33.5 -22.5q-14 0 -37 23v45q2 43 -2 133q-4 36 -4 60v20l1 2q1 2 1 6v123q0 55 -2 86zM141 1610q6 0 10.5 -2t7.5 -4t7.5 -7.5t5.5 -7.5t5 -9.5t5 -8.5l8 -10 l13 -19l10 -20l18 -29l5 -10l2 -2l8 -17l2 -2q14 -18 14 -47q-20 -20 -35 -20q-13 0 -22.5 6.5t-14.5 13.5t-14 23q0 2 -2 4l-2 6l-14 31q-33 44 -54 94l-2 14q23 23 39 23z" />
<glyph unicode="&#xcd;" horiz-adv-x="391" d="M109 475v2q0 3 -1.5 7.5t-1.5 7.5v43q-4 62 -4 110v107q2 49 2 145v111q0 7 1 22.5t1 22.5q0 4 1.5 12t1.5 12v76q-3 21 -3 41q0 13 3 18q6 39 30 50l13 -1q14 -1 20 -1q8 -23 8 -48v-168q-2 -47 -2 -137v-35q0 -4 -1 -10.5t-1 -9.5v-68q0 -4 -1 -12t-1 -12v-21 q2 -14 2 -51q0 -111 6 -219v-209q0 -3 -1 -6t-1 -6v-12q0 -20 4 -66v2q11 -47 2 -115v-26q7 -16 1 -30t-33 -24q-16 0 -39 23v45q2 43 -2 133q-4 36 -4 60v20l1 2q1 2 1 6v123q0 55 -2 86zM250 1610q16 0 39 -23l-2 -14q-18 -49 -51 -94l-17 -29v2l-12 -25q-4 -4 -8.5 -11.5 t-7 -11t-9.5 -6.5t-18 -3q-13 0 -35 22q0 25 16 51l7 7q0 1 0.5 1.5t1.5 3t2 5.5l12 24l12 19q8 8 8 14l19 27q18 41 43 41z" />
<glyph unicode="&#xce;" horiz-adv-x="557" d="M242 475v2q0 3 -1 7.5t-1 7.5v43q-4 62 -4 110v107q2 49 2 145v111q0 7 1 22.5t1 22.5q0 4 1 12t1 12v76q-2 14 -2 41q0 2 -0.5 4t-1 3.5t0.5 4.5t3 6q0 41 32 50l12 -1q13 -1 19 -1q8 -23 8 -48v-168q-2 -47 -2 -137v-35q0 -4 -1 -10.5t-1 -9.5v-68q0 -4 -1 -12t-1 -12 v-21q2 -14 2 -51q0 -111 6 -219v-209q0 -3 -1 -6t-1 -6v-12q0 -20 4 -66v2q11 -47 2 -115v-26q5 -20 -1 -32t-33 -22q-14 0 -37 23v45q2 43 -2 133q-4 36 -4 60v20l1 2q1 2 1 6v123q0 55 -2 86zM133 1399l-6 4q-25 6 -25 35q0 11 15 30l18 21l4 4l19 20l6 7l6 8l12 18l21 23 q12 22 43 43h53v-2q29 -16 35 -31v2q5 -5 2 -6q0 -4 2 -4l8 -6l12 -19l17 -20q5 -12 22 -29v-4l19 -23l12 -12q20 -12 27 -31q0 -34 -17 -42.5t-37 4.5q-20 12 -32 24q-12 20 -47 55l-19 25l-20 27l-15 20q0 -6 -6 -12l-8 -12l-10 -9l-8 -14l-19 -25l-39 -38q-6 -6 -6 -13 q-18 -18 -39 -18z" />
<glyph unicode="&#xcf;" horiz-adv-x="530" d="M225 475v2q0 3 -1 7.5t-1 7.5v43q-4 62 -4 110v107q2 49 2 145v111q0 7 1 22.5t1 22.5q0 4 1 12t1 12v76q-2 14 -2 41q0 2 -0.5 4t-1 3.5t0.5 4.5t3 6q6 40 29 50l14 -1q15 -1 21 -1q8 -23 8 -48v-168q-2 -47 -2 -137v-35q0 -4 -1 -10.5t-1 -9.5v-68q0 -4 -1 -12t-1 -12 v-21q2 -14 2 -51q0 -111 6 -219v-209q0 -3 -1 -6t-1 -6v-12q0 -20 4 -66v2q11 -47 2 -115v-26q5 -19 -1.5 -31.5t-33.5 -22.5q-14 0 -37 23v45q2 43 -2 133q-4 36 -4 60v20l1 2q1 2 1 6v123q0 55 -2 86zM63 1470v25q0 12 1 20.5t4 20.5t9.5 15.5t17.5 6t28 -7.5 q18 -18 18 -55v-31q0 -31 -18 -49q-17 -10 -28 -7.5t-17.5 6t-9.5 15.5t-4 20.5t-1 20.5zM393 1470v25q0 12 1 20.5t4 20.5t9.5 15.5t17.5 6t28 -7.5q16 -18 16 -55v-31q0 -31 -16 -49q-17 -10 -28 -7.5t-17.5 6t-9.5 15.5t-4 20.5t-1 20.5z" />
<glyph unicode="&#xd0;" horiz-adv-x="921" d="M715 1153l18 -23q29 -44 43.5 -86.5t20.5 -115.5v-33q-2 -2 -2 -23q-2 -31 -2 -81v-246q0 -55 2 -86q4 -80 2 -125q-2 -2 -2 -23v-28q0 -3 -1 -7t-1 -8q0 -3 1.5 -6.5t1 -6t-4.5 -5.5q-5 -69 -45 -133t-101 -88l6 4l-10 -6l-8 -7q-2 -2 -6 -2q-4 -4 -15 -4l-28 -4 q-8 -2 -29 -2q-16 -4 -35 -4q-31 -2 -100 -2h-35q-3 0 -7 1t-7 1h-29q-16 2 -66 2l-20 2l-6 2q-27 8 -27 41v19q0 7 1 34.5t1 45.5t-1 49.5t-1 38.5v194q0 4 1 15t1 18q0 33 -4 115q-2 0 -4.5 -0.5l-5 -1t-6 0.5t-6.5 3h-37q-31 -4 -51 -2q-27 0 -41 14l6 -4q-19 13 -13 55 q30 10 41 10l13 2q12 0 14 -2h53q8 2 37 2v166q-2 31 -2 109q0 35 -2 51q-4 53 -2 84q0 23 -2 37v78q0 2 -2 4q-6 23 8 37q7 7 23.5 12.5t27.5 3.5l-2 2q49 0 72 6h47q67 0 119 -8q69 -9 115 -31l30 -14h-2l27 -12l10 -4l8 -7zM717 877q2 14 2 38v23q-12 128 -74 174 q-6 0 -10 4h2q7 0 -4 5l-15 5q-4 0 -8 4l-16 9q-84 35 -203 35q-3 0 -6 -1.5t-6 -1.5h-35q-2 -2 -16 -2q-6 -2 -33 -2h-8v-10q0 -65 6 -127v-31q4 -66 4 -90v-252q47 0 65 -2h37q2 0 6 0.5t9.5 0.5t11.5 -1l2 1q2 1 6 1h12q37 0 43 -30q3 -17 -10 -31q-13 -16 -47 -16 q-12 0 -14 2h-12q-3 0 -6.5 -1t-6.5 -1h-14q-3 0 -8 -0.5t-10 -0.5t-9 1q-16 2 -53 2v-160q0 -46 -6.5 -163t-3.5 -181h53h121q3 0 8.5 -1t9.5 -1h43l2 1q2 1 6 1q26 0 56 10l10 2q53 24 84 65.5t31 94.5q0 3 1 7t1 7q2 2 2 17q2 19 -2 61v154q0 44 2 67v25q0 21 -2 35v59 q2 10 2 76q-4 63 0 119z" />
<glyph unicode="&#xd1;" horiz-adv-x="966" d="M150 63l-5 52q0 3 -1 8t-1 8v35q0 24 4 70q3 24 3 47v14q0 41 6 90q4 28 4 47q2 20 -2 62l-1 3q-1 3 -1 7v106q0 4 1 11.5t1 11.5v57q-8 156 -8 357v38q0 121 4 152q25 21 48 23.5t41 -11.5t33 -33t26.5 -47t18 -48t11.5 -40v2l20 -47q3 -6 10 -21t12.5 -27.5t8.5 -20.5 v2q4 -9 15.5 -34.5t21 -48.5t16.5 -44v2l78 -182l18 -37l27 -64l31 -82q6 -17 28 -69l31 -74l4 -10l-2 8l4 -10l7 -19q10 -13 12 -20q1 -1 2 -3.5l2 -5t2 -2.5l16 -40l15 -37l16 -35v2l4 -10q3 -12 6 -15l6 -14v221q0 27 -2 41v39q0 24 -4 70q-2 41 -2 129v18q0 4 -1 12.5 t-1 12.5v61q-2 14 -2 53q-2 58 10 156q2 23 2 72v37q0 3 1 8t1 8q3 3 3 25v63q-4 67 2 100q18 21 30 21q8 0 31 -10q11 -26 8 -50v3q-2 -2 -2 -7l4 -49q0 -3 1 -8t1 -8v-35q0 -24 -4 -70q-2 -16 -2 -49v-14q0 -39 -6 -86q-4 -32 -4 -49q-3 -44 0 -84v-74q0 -69 2 -100 q8 -164 8 -357v-39q0 -116 -4 -147q-20 -43 -82 -23q0 -2 -20 -2l-78 174l-21 48q-3 9 -14 34.5t-14 34.5v-2q-42 86 -54 127v-2q-4 11 -15.5 35t-16.5 39l-31 76l-12 30l-19 39q-42 85 -59 144q0 -4 -2 1l-2 9q-12 36 -29 63l-27 70l-4 12l2 -8l-6 14l-8 19l-10 24l-2 2 l-19 41l-14 37l-14 35v-2l-4 10q-3 11 -7 15l-6 14v-109v-112q0 -25 2 -39v-41q0 -24 4 -70v-78q0 -6 -1 -14t-1 -10v-45q0 -4 1 -12t1 -11v-63q2 -14 2 -53q3 -76 -6 -156q-2 -18 -2 -72q0 -3 -1 -7t-1 -7v-39q-2 -2 -2 -25v-63q5 -70 -4 -103q-18 -18 -33 -18 q-18 0 -28 10q-12 23 -9 47zM270 1397l-12 2q-26 18 -12 71q7 26 27 50.5t44 38.5q43 16 72 16q32 0 45 -8q11 -4 55 -29l9 -6l22 -14q4 -8 17 -11h-5q2 -2 5 -2q14 -6 47 -10h8l2 -1q2 -1 6 -1q20 0 33 12.5t26.5 37.5t22.5 36q13 0 18 -1.5t29 -14.5q1 -50 -32 -90.5 t-81 -51.5q-2 -2 -20 -2q-31 0 -104 27q-10 10 -17 12q-7 0 -22 12l-39 25q-3 1 -10 3t-12.5 3.5t-8.5 1.5q-29 0 -49 -19t-25 -50q0 -37 -39 -37z" />
<glyph unicode="&#xd2;" horiz-adv-x="862" d="M731 287q0 -2 2 -4q0 -2 2 -2q-3 -9 -8 -26l-6 -21v2l-4 -27l-6 -31q-40 -138 -238 -170l2 2q-9 -4 -29 -4q-3 0 -5 -1t-5 -1h-6q-110 -7 -195.5 65.5t-97.5 182.5v-2q-4 28 -4 31q-6 35 -6 110v29q0 4 1 14t1 17v100q0 22 -2 24q-2 27 -2 80q0 1 -1 4t-1 7v57q0 3 1 5 t1 5q0 29 2 39v12q0 3 1 9.5t1 9.5q0 27 2 37v34q2 16 2 50q5 91 10 120l4 15v4q0 3 1.5 7t1.5 5q2 2 2 8q6 25 30 78q15 21 33 39q8 10 33 25l31 18l47 14q13 5 36 5q23 6 87 6l3 -1q3 -1 7 -1q5 0 33 -4q2 0 22 -5q2 -2 12 -2l41 -14q64 -27 92 -65q66 -96 58 -172v-99 q0 -96 8 -172q8 -65 8 -196q2 -10 2 -39v-47q0 -3 1 -7l1 -4q0 -10 2 -12l-4 -76q-4 -46 -4 -65zM621 168l4 4l2 4q3 3 5 3l1 3q0 1 1 4t2.5 7t2.5 6l-2 -2l8 30q2 23 2 60q0 7 1 19t1 16q0 68 8 104l-1 2q-1 2 -1 6v125l-6 119q-4 37 -4 176v78q-2 8 -2 31q-3 18 0 43 q8 44 -37 112l-4 4q-6 6 -18.5 20.5t-22.5 23t-24 14.5q-2 2 -7 2q-24 6 -38 6h-97q-3 0 -6 -1t-6 -1h-10q-38 0 -68 -12l-14 -9l-4 -4q-12 -9 -27 -24q-34 -58 -45 -99l-4 -39q-6 -33 -6 -96v-51q0 -3 -1 -6t-1 -6v-27q0 -33 -2 -43v-20q0 -25 -2 -33v-37q0 -58 6 -113 v-145q0 -5 1 -14t1 -13v-20q0 -63 4 -84q0 -20 4 -29q5 -82 72.5 -138t148.5 -44h-2q2 2 39 2q96 12 148 86zM315 1712q11 0 20 -7.5t12 -12.5t11 -19l7 -10l12 -18l10 -21l19 -29l4 -10l2 -2l10 -16l2 -2q12 -20 12 -47q-18 -21 -35 -21q-13 0 -22.5 7t-13 12.5t-13.5 23.5 q0 2 -2 4l-2 6l-16 31q-38 51 -51 94l-2 15q19 22 36 22z" />
<glyph unicode="&#xd3;" horiz-adv-x="862" d="M731 287q0 -2 2 -4q0 -2 2 -2q-3 -9 -8 -26l-6 -21v2l-4 -27l-6 -31q-40 -138 -238 -170l2 2q-9 -4 -29 -4q-3 0 -5 -1t-5 -1h-6q-110 -7 -195.5 65.5t-97.5 182.5v-2q-4 28 -4 31q-6 35 -6 110v29q0 4 1 14t1 17v100q0 22 -2 24q-2 27 -2 80q0 1 -1 4t-1 7v57q0 3 1 5 t1 5q0 29 2 39v12q0 3 1 9.5t1 9.5q0 27 2 37v34q2 16 2 50q5 91 10 120l4 15v4q0 3 1.5 7t1.5 5q2 2 2 8q6 25 30 78q15 21 33 39q8 10 33 25l31 18l47 14q13 5 36 5q23 6 87 6l3 -1q3 -1 7 -1q5 0 33 -4q2 0 22 -5q2 -2 12 -2l41 -14q64 -27 92 -65q66 -96 58 -172v-99 q0 -96 8 -172q8 -65 8 -196q2 -10 2 -39v-47q0 -3 1 -7l1 -4q0 -10 2 -12l-4 -76q-4 -46 -4 -65zM621 168l4 4l2 4q3 3 5 3l1 3q0 1 1 4t2.5 7t2.5 6l-2 -2l8 30q2 23 2 60q0 7 1 19t1 16q0 68 8 104l-1 2q-1 2 -1 6v125l-6 119q-4 37 -4 176v78q-2 8 -2 31q-3 18 0 43 q8 44 -37 112l-4 4q-6 6 -18.5 20.5t-22.5 23t-24 14.5q-2 2 -7 2q-24 6 -38 6h-97q-3 0 -6 -1t-6 -1h-10q-38 0 -68 -12l-14 -9l-4 -4q-12 -9 -27 -24q-34 -58 -45 -99l-4 -39q-6 -33 -6 -96v-51q0 -3 -1 -6t-1 -6v-27q0 -33 -2 -43v-20q0 -25 -2 -33v-37q0 -58 6 -113 v-145q0 -5 1 -14t1 -13v-20q0 -63 4 -84q0 -20 4 -29q5 -82 72.5 -138t148.5 -44h-2q2 2 39 2q96 12 148 86zM528 1610q16 0 39 -23l-2 -14q-18 -49 -51 -94l-16 -29v2l-13 -25q-4 -4 -8.5 -11.5t-7 -11t-9.5 -6.5t-18 -3q-12 0 -34 22q0 25 16 51l6 7q0 8 2 10l8 12l6 12 l13 19q8 8 8 14l18 27q1 1 2 4q13 31 31 36q5 1 10 1z" />
<glyph unicode="&#xd4;" horiz-adv-x="862" d="M731 287q0 -2 2 -4q0 -2 2 -2q-3 -9 -8 -26l-6 -21v2l-4 -27l-6 -31q-40 -138 -238 -170l2 2q-9 -4 -29 -4q-3 0 -5 -1t-5 -1h-6q-110 -7 -195.5 65.5t-97.5 182.5v-2q-4 28 -4 31q-6 35 -6 110v29q0 4 1 14t1 17v100q0 22 -2 24q-2 27 -2 80q0 1 -1 4t-1 7v57q0 3 1 5 t1 5q0 29 2 39v12q0 3 1 9.5t1 9.5q0 27 2 37v34q2 16 2 50q5 91 10 120l4 15v4q0 3 1.5 7t1.5 5q2 2 2 8q6 25 30 78q15 21 33 39q8 10 33 25l31 18l47 14q13 5 36 5q23 6 87 6l3 -1q3 -1 7 -1q5 0 33 -4q2 0 22 -5q2 -2 12 -2l41 -14q64 -27 92 -65q66 -96 58 -172v-99 q0 -96 8 -172q8 -65 8 -196q2 -10 2 -39v-47q0 -3 1 -7l1 -4q0 -10 2 -12l-4 -76q-4 -46 -4 -65zM621 168l4 4l2 4q3 3 5 3l1 3q0 1 1 4t2.5 7t2.5 6l-2 -2l8 30q2 23 2 60q0 7 1 19t1 16q0 68 8 104l-1 2q-1 2 -1 6v125l-6 119q-4 37 -4 176v78q-2 8 -2 31q-3 18 0 43 q8 44 -37 112l-4 4q-6 6 -18.5 20.5t-22.5 23t-24 14.5q-2 2 -7 2q-24 6 -38 6h-97q-3 0 -6 -1t-6 -1h-10q-38 0 -68 -12l-14 -9l-4 -4q-12 -9 -27 -24q-34 -58 -45 -99l-4 -39q-6 -33 -6 -96v-51q0 -3 -1 -6t-1 -6v-27q0 -33 -2 -43v-20q0 -25 -2 -33v-37q0 -58 6 -113 v-145q0 -5 1 -14t1 -13v-20q0 -63 4 -84q0 -20 4 -29q5 -82 72.5 -138t148.5 -44h-2q2 2 39 2q96 12 148 86zM276 1399l-6 4q-24 6 -24 35q0 12 14 30q6 15 21 21l4 4l16 20l6 7l6 8l13 18l20 23q19 26 43 43h53v-2q29 -16 35 -31v2q5 -5 2 -6q0 -4 2 -4l8 -6l13 -19l16 -20 q5 -10 23 -29v-4l18 -23l14 -12q19 -14 25 -31q0 -62 -53 -38q-23 13 -33 24q-12 20 -47 55l-19 25l-18 27l-16 20q0 -6 -6 -12l-9 -12l-10 -9l-8 -14l-19 -25l-38 -38q-7 -7 -7 -13q-18 -18 -39 -18z" />
<glyph unicode="&#xd5;" horiz-adv-x="862" d="M731 287q0 -2 2 -4q0 -2 2 -2q-3 -9 -8 -26l-6 -21v2l-6 -27l-4 -31q-40 -138 -238 -170l2 2q-9 -4 -29 -4q-3 0 -5 -1t-5 -1h-8q-108 -8 -193.5 65t-97.5 183v-2q-4 28 -4 31q-6 35 -6 110v29q0 4 1 14t1 17v100q0 22 -2 24q-2 27 -2 80q0 1 -1 4t-1 7v57q0 3 1 5t1 5 q0 29 2 39v12q0 3 1 9.5t1 9.5q0 27 2 37v34q2 16 2 50q5 91 10 120l4 15v4q0 3 1.5 7t1.5 5q2 2 2 8q6 25 30 78l31 39q10 10 35 25l31 18l47 14q13 5 36 5q23 6 87 6l3 -1q3 -1 7 -1q5 0 33 -4q2 0 22 -5q2 -2 12 -2l41 -14q64 -27 92 -65q64 -94 56 -172v-7q0 -1 1 -3 t1 -3v-86q0 -96 8 -172q8 -65 8 -196q2 -10 2 -39v-47q0 -3 1 -7l1 -4q0 -10 2 -12l-4 -76q-4 -46 -4 -65zM621 168l4 4l2 4q3 3 5 3l1 3q0 1 1 4t2.5 7t2.5 6l-2 -2l6 30q4 15 4 60q0 7 1 19t1 16q0 68 8 104l-1 2q-1 2 -1 6v125l-6 119q-6 55 -6 176v109q-3 18 0 43 q8 44 -37 112l-4 4q-6 6 -18.5 20.5t-22.5 23t-24 14.5q-2 2 -7 2q-24 6 -38 6h-97q-3 0 -6 -1t-6 -1h-10q-38 0 -68 -12l-14 -9l-6 -4l-25 -24q-34 -58 -45 -99l-4 -39q-6 -33 -6 -96v-51q0 -3 -1 -6t-1 -6v-27q0 -33 -2 -43v-20q0 -25 -2 -33v-37q0 -58 6 -113v-145 q0 -5 1 -14t1 -13v-20q0 -63 4 -84q0 -15 2 -29q4 -81 73.5 -137.5t149.5 -44.5h-2q2 2 39 2q96 12 148 86zM203 1397l-13 2q-27 19 -14 71q25 61 72 89q37 16 71 16q33 0 46 -8q42 -18 57 -29l6 -6l23 -14q13 -13 18 -13q12 -5 45 -10h8l2 -1q2 -1 6 -1q26 0 41 12 q15 7 20 15t6.5 21t4.5 20q3 9 12 18q5 0 10.5 1t8.5 0.5t8 -3.5q3 -1 5.5 -3t6 -5.5t6.5 -5.5q1 -50 -30.5 -90.5t-79.5 -51.5q-6 -2 -23 -2q-34 0 -102 27q-10 10 -16 12q-8 0 -25 12l-37 25q-32 8 -33 8q-27 0 -48 -19.5t-25 -49.5q0 -37 -37 -37z" />
<glyph unicode="&#xd6;" horiz-adv-x="862" d="M731 287q0 -2 2 -4q0 -2 2 -2q-3 -9 -8 -26l-6 -21v2l-4 -27l-6 -31q-40 -138 -238 -170l2 2q-9 -4 -29 -4q-3 0 -5 -1t-5 -1h-6q-110 -7 -195.5 65.5t-97.5 182.5v-2q-4 28 -4 31q-6 35 -6 110v29q0 4 1 14t1 17v100q0 22 -2 24q-2 27 -2 80q0 1 -1 4t-1 7v57q0 3 1 5 t1 5q0 29 2 39v12q0 3 1 9.5t1 9.5q0 27 2 37v34q2 16 2 50q5 91 10 120l4 15v4q0 3 1.5 7t1.5 5q2 2 2 8q6 25 30 78q15 21 33 39q8 10 33 25l31 18l47 14q13 5 36 5q23 6 87 6l3 -1q3 -1 7 -1q5 0 33 -4q2 0 22 -5q2 -2 12 -2l41 -14q64 -27 92 -65q66 -96 58 -172v-99 q0 -96 8 -172q8 -65 8 -196q2 -10 2 -39v-47q0 -3 1 -7l1 -4q0 -10 2 -12l-4 -76q-4 -46 -4 -65zM621 168l4 4l2 4q3 3 5 3l1 3q0 1 1 4t2.5 7t2.5 6l-2 -2l8 30q2 23 2 60q0 7 1 19t1 16q0 68 8 104l-1 2q-1 2 -1 6v125l-6 119q-4 37 -4 176v78q-2 8 -2 31q-3 18 0 43 q8 44 -37 112l-4 4q-6 6 -18.5 20.5t-22.5 23t-24 14.5q-2 2 -7 2q-24 6 -38 6h-97q-3 0 -6 -1t-6 -1h-10q-38 0 -68 -12l-14 -9l-4 -4q-12 -9 -27 -24q-34 -58 -45 -99l-4 -39q-6 -33 -6 -96v-51q0 -3 -1 -6t-1 -6v-27q0 -33 -2 -43v-20q0 -25 -2 -33v-37q0 -58 6 -113 v-145q0 -5 1 -14t1 -13v-20q0 -63 4 -84q0 -20 4 -29q5 -82 72.5 -138t148.5 -44h-2q2 2 39 2q96 12 148 86zM223 1470v25q0 11 1 19.5t4 20.5t9.5 16t18.5 6.5t29 -7.5q16 -18 16 -55v-31q0 -31 -16 -49q-17 -10 -29 -7.5t-18.5 6t-9.5 16t-4 20.5t-1 20zM553 1470v25 q0 10 0.5 17t2 17t5.5 15.5t10 10t16.5 3t24.5 -7.5q19 -19 19 -55v-31q0 -30 -19 -49q-14 -6 -24.5 -7.5t-16.5 3t-10 10t-5.5 15.5t-2 17t-0.5 17z" />
<glyph unicode="&#xd7;" horiz-adv-x="786" d="M641 741l-6 -6l-10 -6l-25 -31l-16 -16l-97 -100l-38 -39l30 -29l19 -16l26 -29l27 -25q8 -8 20.5 -21.5t22.5 -23.5t20 -18l13 -10l-4 4q13 -7 19.5 -11.5t14 -15t7.5 -22.5q0 -6 -11 -31q-28 -21 -65 16q-66 49 -195 178q-5 -3 -26 -28l-7 -6q-1 -3 -3 -6t-3.5 -5.5 t-1.5 -3.5l-12 -10l-33 -29l-4 -6l-18 -14l-21 -19l-8 -10l-10 -16l-8 -6l-25 -27l-10 -10q-5 -7 -39 -21l-21 9q-2 0 -4 2l-14 12q0 1 -1 11t-1 13l29 27q15 15 18 19l39 43l4 4l47 45q8 4 19 18l24 25l-2 -4l12 20q2 2 9 6.5t10 9.5l10 9l-49 53l-27 29l-41 41 q-38 42 -63 61q-4 0 -5.5 1t-3 4t-3.5 5q-27 12 -27 37q0 2 0.5 4t1.5 4.5t1.5 4t2.5 4.5t3.5 4.5l5 5t5 5.5t6 6t7.5 7q57 -39 141 -123l98 -100l64 63q19 26 41 39l61 72l23 20q24 17 45 17q25 -20 30 -27q0 -22 -18 -37z" />
<glyph unicode="&#xd8;" horiz-adv-x="1038" d="M96 449l8 6q25 10 91 49l6 2l22 10v33v24q-2 23 -2 68q0 63 2 94t2 113q0 32 -4 102v11q0 3 -1 5t-1 5v20q0 91 26.5 154.5t102.5 101.5q6 6 21 6q2 0 4 2q18 11 28 11q6 1 11.5 2t8 1.5t3.5 0.5q23 6 76 6q51 0 110 -19q3 -1 6.5 -2t5.5 -1.5t3 -0.5l30 -10 q63 -29 95.5 -91t37.5 -138q3 -3 3 -23v-8q0 -1 1 -3t1 -3q10 -68 10 -131q0 2 2 2q6 0 8 2q21 17 84 45q0 2 2 2q6 0 8 2h-2q18 6 27 6q39 0 45 -59l-33 -15l-16 -4h4l-72 -39l-26 -16l6 2q-11 -11 -37 -22q2 -104 2 -303v-70q0 -76 -2 -107l-6 -22q-31 -127 -103 -189 q-9 -7 -37 -24q-67 -28 -116 -31q-28 -4 -45 -4q-53 0 -74 8q-8 0 -12 4h-2l-21 9h2q-52 18 -89.5 59t-47.5 94q-2 2 -2 19q0 1 -1 3t-1 3v8l-4 24v-2l-8 52q-3 15 -3 39q-2 14 -2 51q0 1 -1 4t-1 6v33q0 1 -1 2t-1 2v2v10l-110 -61h-4q-9 -9 -31 -2q-21 21 -21 43 q12 22 39 41zM731 797v18q-2 2 -2 23q0 48 -14 137l2 -2q-4 9 -4 31q0 3 -1 6t-1 6v12q-4 101 -68 135h2l-37 17q-66 16 -114 16q-32 0 -62 -6q-10 -1 -25 -4l-20 -4q-39 -13 -63.5 -53.5t-24.5 -79.5q-4 -12 -4 -56v-43q0 -4 1 -6q1 -1 1 -2v2q4 -27 4 -127v-258l16 8l15 6 l51 29l31 12l6 7q6 6 29 16h-3l15 8l24 12l27 13h-2l82 47l61 35l37 18l12 8q9 4 29 19zM303 469v-8q4 -21 4 -49v-19q0 -3 1 -9t1 -9v-41l21 -129q0 -25 2 -27q15 -59 61 -80l8 -4q3 -4 7 -4h6h4q34 -17 88 -14q20 0 22 2l6 1q6 1 9 1q38 3 75 22q12 4 15 7l16 10 q43 40 68 129v-6l1 1q1 1 1 5q0 2 -1 5t-0.5 5.5t3.5 5.5q0 17 2 19q0 6 4 10q0 8 2 10q6 32 2 96v308q-114 -71 -188 -107l-17 -8l-59 -35q-17 -12 -61 -31l-70 -32l-35 -15l-4 -6q3 3 6 -4z" />
<glyph unicode="&#xd9;" horiz-adv-x="839" d="M123 1149v41q0 43 12 62t49 -3q28 -20 13 -67v-56q0 -3 1 -8t1 -8v-72q0 -3 1 -8.5t1 -9.5v-178q0 -105 2 -168v2q4 -48 4 -207v-127q0 -4 -1 -10.5t-1 -9.5v-29q0 -3 1 -3t1 -3q15 -106 29 -129l4 -4l12 -15q74 -77 160 -69h55l3 1q3 1 7 1l17 2h2q1 0 2 1t2 1h4l24 10 l-2 -2l35 14h-2q12 9 27 33v-2l12 18l10 13l8 10l-2 -4q11 15 15 84v2q0 2 2 4v12q10 133 10 328v53q2 36 -2 94q-2 14 -2 52v43q0 65 -2 104v100q0 17 1 47.5t1 45.5v20q4 46 4 66q10 30 37 30q24 0 33 -28q4 -46 4 -58q0 -21 -4 -67q-2 -16 -2 -51v-17q0 -49 -2 -65 q0 -7 1 -29t1 -29q4 -46 4 -71q-2 -30 2 -91v-75q0 -7 1 -20.5t1 -20.5q0 -8 -1 -21t-1 -20v-144q0 -81 -10 -194v-6l-5 -31q-1 -9 -3.5 -24t-3.5 -23t-4.5 -18.5t-8.5 -18.5q-8 -8 -8 -6l-15 -19q-34 -53 -69 -69q-4 -4 -9 -6t-13 -4.5t-13 -4.5h-2q-2 0 -4 -2l-19 -6 q-1 0 -3 -1t-3 -1l-2 -1q-2 -1 -6 -1q-1 0 -3 -1t-3 -1q-3 0 -4.5 -1t-5.5 -1q-6 -2 -35 -2h-64q-116 -4 -180 66l-22 24q-26 26 -41 72l-2 2q-5 0 -7 1t-2.5 2.5t0 6.5t0.5 8q-10 33 -10 76q-2 6 -2 16q-5 20 0 78v13q2 23 2 61v18q0 40 -2 58q0 3 -1 11t-1 11v115 q0 4 -1 12.5t-1 12.5q-4 87 -2 135v51q-4 37 0 66q0 10 -1 44t-1 52q-2 41 -2 135zM311 1589q27 0 41 -39l8 -10l13 -18l10 -19l18 -30l5 -11l2 -2l10 -16l2 -2q12 -16 12 -47q-18 -21 -35 -21q-13 0 -22.5 7t-13.5 13.5t-13 24.5q0 2 -2 4l-2 7l-16 28q-40 54 -52 94l-2 17 q20 20 37 20zM549 18h-2q1 0 2 1t2 1z" />
<glyph unicode="&#xda;" horiz-adv-x="839" d="M123 1130v41q0 43 12 62.5t49 -2.5q28 -20 13 -68v-55q0 -3 1 -8t1 -8v-66q0 -3 1 -8.5t1 -9.5v-179q0 -104 2 -167v2q4 -48 4 -205v-129q0 -4 -1 -10t-1 -9v-30q0 -3 1 -3.5t1 -3.5q15 -106 29 -129l4 -4l12 -14q75 -78 160 -70h55l3 1q3 1 7 1l17 2q1 0 3 1t3 1h4 l24 11l-2 -2l35 14h-2q12 9 27 33v-2l12 18l10 12l8 11l-2 -4q11 15 15 84q0 1 1 3t1 3v12q10 100 10 328v53q2 36 -2 94v94q0 79 -4 105v102q0 22 4 84v21q0 11 1 32t1 33q10 31 37 31q23 0 33 -29q4 -46 4 -57q0 -22 -4 -68q0 -8 -1 -22t-1 -23v-16q0 -50 -2 -66 q0 -29 4 -57q0 -11 1 -34.5t1 -37.5q-2 -29 2 -90v-76q0 -7 1 -20.5t1 -20.5t-1 -20.5t-1 -20.5v-143q0 -81 -10 -194v-7l-5 -30q-2 -9 -4 -23.5t-3 -23t-4.5 -19t-8.5 -18.5q-8 -8 -8 -6l-15 -19q-34 -53 -69 -69q-4 -4 -9 -6t-14 -4.5t-14 -4.5q-2 0 -4 -2l-19 -6 q-1 0 -3 -1t-3 -1l-2 -1q-2 -1 -6 -1q-1 0 -3 -1t-3 -1q-3 0 -4.5 -1t-5.5 -1q-6 -2 -35 -2h-64q-116 -4 -180 65l-22 25q-26 26 -41 72l-2 2q-5 0 -7 1t-2.5 2.5t0 6.5t0.5 8q-6 16 -10 76q-2 6 -2 16q-5 20 0 78v12q2 23 2 62v18q0 40 -2 58q0 3 -1 11t-1 11v115 q0 4 -1 12t-1 12q-4 87 -2 135v52q-4 37 0 65q0 10 -1 44t-1 52q-2 41 -2 129zM524 1569q18 0 39 -21l-2 -16q-18 -49 -51 -94l-16 -27q-3 -15 -13 -25q-4 -4 -8.5 -11.5t-7 -11t-9.5 -6.5t-18 -3q-13 0 -35 22q0 27 17 51l4 7q0 1 0.5 1.5t1.5 3t2 5.5l8 12l6 12l13 21 q8 8 8 12l18 27q7 21 16 31t27 10zM549 6h-2q1 0 2 1t2 1z" />
<glyph unicode="&#xdb;" horiz-adv-x="839" d="M123 1126v41q0 43 12 62.5t49 -2.5q28 -20 13 -68v-55q0 -3 1 -8.5t1 -8.5v-71q0 -3 1 -9t1 -10v-178q0 -97 2 -160v3q4 -48 4 -197v-127q0 -4 -1 -10t-1 -9v-30q0 -3 1 -3t1 -3q15 -106 29 -129l4 -4l12 -15q74 -77 160 -69h55l3 1q3 1 7 1l17 2h2q1 0 2 1t2 1h4l24 10 l-2 -2l35 14h-2q12 9 27 33v-2l12 18l10 13l8 10l-2 -4q11 15 15 84q0 1 1 3t1 3v12q10 133 10 318v53q2 36 -2 94q-2 14 -2 43v43q0 66 -2 105v100q0 17 1 47t1 45v21q4 46 4 65q10 31 37 31q23 0 33 -29q4 -46 4 -57q0 -22 -4 -68q-2 -16 -2 -51v-16q0 -50 -2 -66 q0 -7 1 -28.5t1 -28.5q4 -46 4 -72q-2 -25 2 -82v-76q0 -7 1 -20.5t1 -20.5q0 -8 -1 -21t-1 -20v-133q0 -81 -10 -194v-6l-5 -31q-2 -9 -4 -23.5t-3 -23t-4.5 -19t-8.5 -18.5q-8 -8 -8 -6l-15 -19q-34 -53 -69 -69q-4 -4 -9 -6t-13 -4.5t-13 -4.5h-2q-2 0 -4 -2l-19 -6 q-1 0 -3 -1t-3 -1l-2 -1q-2 -1 -6 -1q-1 0 -3 -1t-3 -1q-3 0 -4.5 -1t-5.5 -1q-6 -2 -35 -2h-64q-116 -4 -180 65l-22 25q-26 26 -41 72l-2 2q-5 0 -7 1t-2.5 2.5t0 6.5t0.5 8q-10 33 -10 76q-2 6 -2 16q-5 20 0 78v12q2 23 2 62v18q0 40 -2 58q0 3 -1 6t-1 6v115q0 4 -1 12 t-1 12q-4 83 -2 127v51q-4 37 0 66q0 10 -1 44t-1 52q-2 41 -2 135zM272 1364l-6 4q-24 6 -24 37q0 15 14 29q6 14 20 20l3 4l18 23l6 6l19 24l20 23q15 26 43 43h53v-2q29 -13 35 -31v2q5 -5 2 -6q0 -4 2 -4l8 -6l13 -19l16 -18q12 -20 23 -31v-4l18 -22l12 -11 q20 -12 27 -32q0 -33 -16.5 -41.5t-36.5 4.5q-18 7 -33 22q-22 37 -47 56l-19 24l-20 29l-14 18q0 -3 -7 -10l-8 -12l-10 -10l-8 -15l-19 -24l-39 -39q-6 -6 -6 -13q-18 -18 -39 -18zM549 14h-2q1 0 2 1t2 1z" />
<glyph unicode="&#xdc;" horiz-adv-x="839" d="M123 1120v41q0 43 12 62.5t49 -2.5q28 -20 13 -68v-55q0 -3 1 -8.5t1 -8.5v-71q0 -3 1 -9t1 -10v-178q0 -80 2 -143v2q4 -48 4 -207v-127q0 -4 -1 -10t-1 -9v-30q0 -3 1 -3t1 -3q15 -106 29 -129l4 -4l12 -15q74 -77 160 -69h55l3 1q3 1 7 1l17 2h2q1 0 2 1t2 1h4l24 10 l-2 -2l35 14h-2q12 9 27 33v-2l12 18l10 13l8 10l-2 -4q11 15 15 84q0 1 1 3t1 3v12q10 133 10 328v53q2 36 -2 94q-2 14 -2 27v43q0 65 -2 104v101q0 17 1 47t1 45v20q4 46 4 66q10 31 37 31q23 0 33 -29q4 -46 4 -57q0 -22 -4 -68q-2 -16 -2 -51v-17q0 -49 -2 -65 q0 -7 1 -28.5t1 -28.5q4 -46 4 -72q-1 -18 2 -66v-75q0 -7 1 -20.5t1 -20.5q0 -8 -1 -21t-1 -20v-144q0 -81 -10 -194v-6l-5 -31q-2 -9 -4 -23.5t-3 -23t-4.5 -19t-8.5 -18.5q-8 -8 -8 -6l-15 -19q-34 -53 -69 -69q-4 -4 -9.5 -6t-14 -4.5t-13.5 -4.5q-2 0 -4 -2l-19 -6 q-1 0 -3 -1t-3 -1l-2 -1q-2 -1 -6 -1q-1 0 -3 -1t-3 -1q-3 0 -4.5 -1t-5.5 -1q-6 -2 -35 -2h-64q-116 -4 -180 65l-22 25q-26 26 -41 72l-2 2q-5 0 -7 1t-2.5 2.5t0 6.5t0.5 8q-10 33 -10 76q-2 6 -2 16q-5 20 0 78v12q2 23 2 62v18q0 40 -2 58q0 3 -1 11t-1 11v115 q0 4 -1 12.5t-1 12.5q-4 75 -2 110v51q-4 37 0 66q0 10 -1 44t-1 52q-2 41 -2 135zM219 1421v25q0 12 1 20.5t4 20.5t9.5 15.5t17.5 6t28 -7.5q18 -16 18 -55v-31q0 -31 -18 -49q-60 -28 -60 55zM549 1421v25q0 10 0.5 17t2 17t5.5 15.5t10 10t16.5 3t24.5 -7.5 q19 -17 19 -55v-31q0 -30 -19 -49q-14 -6 -24.5 -7t-16.5 3.5t-10 10.5t-5.5 16t-2 16.5t-0.5 15.5zM549 14h-2q1 0 2 1t2 1z" />
<glyph unicode="&#xdd;" horiz-adv-x="794" d="M688 1253l23 -18l2 -18l-11 -27l-6 -16l-12 -39q-4 -20 -4 -21q-4 -14 -6.5 -20t-8 -13t-10.5 -16v2l-32 -82l-21 -45q-41 -110 -94 -225l-53 -129q-2 -2 -2 -13l-4 -6q-1 -3 -4 -6t-3 -6l-4 -11v1q-3 -12 0 -31v-27q0 -1 1 -3t1 -3q0 -4 -1 -9.5t-1 -8.5v-23 q-2 -14 -2 -41q-2 -41 -2 -120v-121q0 -4 -1 -11t-1 -10v-20q-3 -24 0 -58v-32q6 -27 -10 -43q-13 -13 -41 -13q-12 7 -17.5 15t-6.5 15.5t-1 23.5q0 8 2 10q-2 2 -2 12v8q0 3 -1 6.5t-1 6.5l-1 2q-1 3 -1 8v6q-3 16 0 31q0 1 0.5 1.5t1 2t0.5 4.5q2 2 2 14q4 160 4 236 q0 54 -4 164q-18 20 -27 35.5t-20 45.5l-4 11v-4l-10 28q-1 5 -5 15.5t-5 11.5q-7 16 -19.5 50.5t-19.5 51.5l-39 115h2q-14 44 -35 84l-8 20l-37 101l-10 26l-6 17l-11 20v-2l-12 29v-2q-15 28 0 49l27 14q11 0 18.5 -3.5t10.5 -7t10 -13.5l4 -12l2 -5q17 -34 45 -108 l39 -100l33 -80q4 -12 47 -136l14 -36l22 -58q8 -34 25 -69v2q8 17 27.5 63t29.5 66l-2 -4l17 28q1 2 1 6t3 9q30 61 55 131l35 92q9 23 23.5 53.5t23.5 58.5l29 76q0 9 4 13q13 38 41 38zM504 1610q17 0 37 -23l-2 -14q-10 -41 -50 -94l-18 -29v2l-12 -25q-2 -3 -6 -11.5 t-6.5 -11t-10 -6t-18.5 -3.5q-16 0 -35 22q0 31 14 51l6 7q0 1 1 1.5t2 3t2 5.5l8 12l6 12l12 19q8 8 8 14l17 27q6 13 9.5 19.5t13.5 14t22 7.5z" />
<glyph unicode="&#xde;" horiz-adv-x="837" d="M147 1073v103q-9 39 13 55q22 21 37 6q19 -16 22 -33q3 -30 0 -57v-25q0 -48 6 -92v-10h84q101 0 166 -23h-2q2 -2 6 -2q44 -13 74 -34l27 -21q57 -49 89 -99.5t36 -121.5v-8q0 -1 1 -2t1 -2q9 -27 6 -54v-22q-2 -14 -2 -39v-55q0 -3 1 -6l1 -3q0 -31 -2 -45 q-33 -127 -197 -219q-1 0 -3 -1t-3 -1l-6 -4q-2 -2 -6 -2q-58 -14 -113 -14h-113q-14 -2 -45 -2v-13q0 -7 -1 -19.5t-1 -19.5l-4 -71v-21q-3 -9 0 -37q0 -10 0.5 -18.5t-7.5 -17t-24 -15.5q-18 0 -28 8t-12.5 18t-2.5 25q-3 28 0 56v6q0 1 1 4t1 6v78q5 127 5 139 q0 45 -2 70q-3 40 -3 78v24q0 76 5 98v21q4 148 4 205v80l-6 100q0 10 -1.5 26t-1.5 23zM483 326q63 24 107.5 76t48.5 116v39q-3 23 2 59q0 35 -2 43q0 23 -2 37q-3 127 -131 209q-4 4 -10 4l-13 9q-61 22 -127 30h-69q-29 0 -43 2h-15v-65q0 -62 -4 -238v2q-2 -57 -2 -164 v-178h43v1q1 1 6 1q10 2 43 2h47l4 -1q4 -1 7 -1q8 0 73 10l-2 -2l7 2q28 7 32 7z" />
<glyph unicode="&#xdf;" horiz-adv-x="882" d="M145 113v6q0 1 -1 3t-1 3v22q0 47 2 70v29q0 3 1 6t1 6v78q0 4 1.5 16t1.5 19v110q2 39 2 115q0 39 4 117q6 55 6 112q0 105 8 168q0 1 1 3t1 3q0 16 4 25l-2 -2l2 12l1.5 9t0.5 4q0 13 4 18q0 8 4 12v6q24 92 108 140t181 30l4 -2h27l47 -16l2 2q79 -22 137 -119 q4 -4 6 -8l2 -4l11 -39q8 -36 8 -76q0 -54 -8 -90l-6 -16v-15q-9 -62 -35 -104q-18 -24 -21 -27q-16 -17 -41 -34l13 -9l30 -14q109 -74 109 -270q0 -32 -4 -64v-33q0 -1 -1 -4t-1 -4v-28q-10 -145 -117 -244q-53 -38 -82 -47v2q-52 -18 -94 -6h4q-11 4 -23 16q-6 13 4.5 30 t24.5 17q51 -4 93 22t66.5 68t37 90t10.5 92v80q0 8 1 19.5t1 15.5q0 126 -62 176l-10 11q-12 12 -22 18q-49 40 -113 31q-15 0 -24 14.5t-9 28.5q11 14 22.5 21t16.5 8t17.5 0t13.5 -1h10q1 -1 3.5 -2t4.5 -2t2 -2q26 10 47.5 31t32.5 45q0 1 0.5 2.5t1.5 5t2 6.5l4 11 q9 9 15 57q10 65 10 96q0 55 -29 111l2 -2q-38 53 -88 71h-2q-1 0 -3 1t-3 1t-5 1.5t-5 1.5q-2 2 -14 2q-28 4 -47 4q-69 12 -126 -26.5t-69 -109.5v-22q-2 -2 -2 -12q-14 -63 -14 -187q0 -21 -5 -78q0 -3 -1 -6t-1 -6v-16q0 -4 -1 -11t-1 -10v-18q-4 -54 -4 -82 q2 -54 -2 -162v-53q0 -7 -1 -18t-1 -15v-82q0 -33 -2 -47q0 -3 -1 -7t-1 -7v-78q0 -3 1 -4t1 -4q4 -56 2 -94q-1 -2 -2.5 -8t-2.5 -8t-4 -6.5t-7 -5t-11 -2.5t-16 1q-15 5 -22 12q-13 26 -9 53v19l1 3q2 3 2 7q-3 3 -3 16q0 1 -1 3.5t-1 3.5z" />
<glyph unicode="&#xe0;" horiz-adv-x="929" d="M793 111v-9l12 -41q0 -1 1 -4t1 -4q0 -28 -2 -30q-10 -17 -26 -20.5t-29 7.5q-12 11 -15.5 15.5t-5 10.5t-2.5 9l-2 2q-4 20 -4 21l-4 10l-6 33q0 1 -1 5t-1 5v10q-1 1 -1.5 3.5t-1 6.5t-1.5 6l-3 27v-6q-16 47 -32 129q-107 0 -170 -6q-91 -8 -211 -8h-41l-15 -64 l-18 -92q0 -3 -1 -13.5t-1 -13.5h-4v-10q-2 -2 -2 -14l-6 -53q-9 -24 -35 -27q-22 -3 -43 24v13q0 1 1 4t1 6l6 41q4 48 8 57v13l17 84l22 108l21 86l8 31q20 77 22 88l19 104l47 209l6 33q0 1 1 4t1 4q10 48 37 131h-2l10 45v-2l19 72q0 31 14 57t43 25h47l45 -8l49 -164 l2 -19l4 -8v4l45 -180l-2 2l13 -39l26 -90l27 -80v2q17 -52 25 -108l16 -76l4 -23q0 -1 0.5 -3.5l1.5 -7.5t2 -11l6 -29l6 -37l19 -79l22 -121q0 -18 11 -47zM268 379l-6 -17h41q109 0 182 7q68 8 174 8q-25 132 -100 385l-29 117v-2l-24 92l-14 57l-3 14l-6 19l-8 18 l-22 74h-9q-1 -19 -6 -40l-4 -21l-10 -21q-2 -2 -2 -4l-4 -14v-7l-12 -55l-7 -24q-56 -213 -71 -318l-6 -39q-12 -62 -27 -123q-7 -43 -27 -106zM365 1591q24 0 41 -39l8 -10l12 -18l10 -19l17 -30l4 -11l2 -2l10 -14l2 -2q14 -18 14 -47q-21 -21 -36 -21q-12 0 -21.5 6 t-14.5 14t-14 23q0 2 -2 4v7l-16 28q-22 29 -51 94l-2 15q22 22 37 22z" />
<glyph unicode="&#xe1;" horiz-adv-x="931" d="M793 111v-9l12 -41q0 -1 1 -4t1 -4q3 -22 -2 -30q-10 -17 -26 -20.5t-29 7.5q-12 11 -15.5 15.5t-5 10.5t-2.5 9l-2 2q-4 20 -4 21l-4 10l-6 33q0 1 -1 5t-1 5v10q-2 2 -2 16l-5 27v-6q-16 47 -32 129q-109 0 -168 -6q-96 -8 -213 -8h-41l-15 -64l-18 -92q0 -3 -1 -13.5 t-1 -13.5h-4v-10q-2 -2 -2 -14l-6 -53q-9 -24 -35 -27q-22 -3 -43 24v13q0 1 1 4t1 6l6 41q4 48 8 57v13l17 84l22 108l21 86l8 31q20 77 22 88l19 104q9 47 27.5 120.5t21.5 84.5l4 33q0 1 1 4t1 4q10 48 37 131h-2l10 45v-2l19 72q0 31 14 57t43 25h47l45 -8l49 -164 l2 -19l4 -8v4l45 -180l-2 2l13 -39l26 -90l27 -76v2q15 -49 27 -108l14 -76l4 -23q0 -1 0.5 -3.5l1.5 -7.5t2 -11l6 -29l6 -37l19 -79l22 -121q0 -18 11 -47zM268 379l-6 -17h41q109 0 182 7q68 8 174 8q-23 121 -100 381l-29 116v-2l-24 93l-14 57l-3 14l-6 19l-8 18 l-22 74h-9q-1 -14 -3 -26t-4 -22t-3 -14l-10 -20q-2 -2 -2 -4l-4 -14v-7l-12 -55l-7 -24q-57 -215 -71 -314l-6 -39l-25 -123q-3 -16 -29 -106zM575 1591q18 0 37 -22l-2 -15q-11 -43 -49 -94l-16 -26q-3 -15 -13 -25q-4 -4 -9.5 -13.5t-12 -13.5t-18.5 -4q-14 0 -37 23 q0 22 16 51l6 6q2 -2 2 0v2q0 4 2 6l8 13l7 12l10 18q8 8 8 15l18 26q18 41 43 41z" />
<glyph unicode="&#xe2;" horiz-adv-x="929" d="M793 111v-9l12 -41q0 -1 1 -4t1 -4q0 -28 -2 -30q-10 -17 -26 -20.5t-29 7.5q-12 11 -15.5 15.5t-5 10.5t-2.5 9l-2 2q-4 20 -4 21l-4 10l-6 33q0 1 -1 5t-1 5v10q-1 1 -1.5 3.5t-1 6.5t-1.5 6l-3 27v-6q-16 47 -32 129q-107 0 -170 -6q-91 -8 -211 -8h-41l-15 -64 l-18 -92q0 -3 -1 -13.5t-1 -13.5h-4v-10q-2 -2 -2 -14l-6 -53q-9 -24 -35 -27q-22 -3 -43 24v13q0 1 1 4t1 6l6 41q4 48 8 57v13l17 84l22 108l21 86l8 31q20 77 22 88l19 84l47 227l6 33q0 1 1 4t1 4q10 48 37 131h-2l10 45v-2l19 72q0 31 14 57t43 25h47l45 -8l49 -164 l2 -19l4 -8v4l45 -180l-2 2l13 -39l26 -90l27 -98v2q3 -10 9 -27t9.5 -30t6.5 -31l16 -76l4 -23q0 -1 0.5 -3.5l1.5 -7.5t2 -11l6 -29l6 -37l19 -79l22 -121q0 -18 11 -47zM268 379l-6 -17h41q109 0 182 7q68 8 174 8q-24 127 -100 383l-29 117v-3l-24 93l-14 57l-3 14 l-6 19l-8 18l-22 74h-9q-1 -14 -3 -26t-4 -22t-3 -14l-10 -20q-2 -2 -2 -4l-4 -14v-7l-12 -55l-7 -24q-51 -193 -71 -336l-6 -19q-12 -62 -27 -123q-7 -43 -27 -106zM326 1382l-7 4q-24 6 -24 35q0 13 14 31q6 9 21 18l4 5l16 22l12 12l13 19l20 22q12 21 43 43h54v-2 q26 -14 32 -30l3 -5h-1q0 -4 2 -4l9 -6l28 -37q11 -18 23 -30v-4l16 -21l14 -12q20 -12 27 -33q0 -33 -16.5 -41.5t-36.5 4.5q-20 12 -33 25q-12 20 -47 55l-16 23l-21 28l-16 19q0 -7 -6 -13l-7 -10l-10 -10l-8 -14l-18 -23l-39 -41q-6 -6 -6 -10q-19 -19 -39 -19z" />
<glyph unicode="&#xe3;" horiz-adv-x="929" d="M793 111v-9l12 -41q0 -1 1 -4t1 -4q0 -28 -2 -30q-10 -17 -26 -20.5t-29 7.5q-12 11 -15.5 15.5t-5 10.5t-2.5 9l-2 2q-4 20 -4 21l-4 10l-6 33q0 1 -1 5t-1 5v10q-1 1 -1.5 3.5t-1 6.5t-1.5 6l-3 27v-6q-16 47 -32 129q-107 0 -170 -6q-91 -8 -211 -8h-41l-15 -64 l-18 -92q0 -3 -1 -13.5t-1 -13.5h-4v-10q-2 -2 -2 -14l-6 -53q-9 -24 -35 -27q-22 -3 -43 24v13q0 1 1 4t1 6l6 41q4 48 8 57v13l17 84l22 108l21 86l8 31q20 77 22 88l19 104l47 228l6 32q0 1 1 4.5t1 4.5q10 48 37 131h-2l10 45v-2l19 71q0 31 14 57t43 25h47l45 -8 l49 -164l2 -18l4 -8v4l45 -180l-2 2l13 -39l26 -90l27 -99v2q17 -52 25 -108l16 -76l4 -23q0 -1 0.5 -3.5l1.5 -7.5t2 -11l6 -29l6 -37l19 -79l22 -121q0 -18 11 -47zM268 379l-6 -17h41q109 0 182 7q68 8 174 8q-34 180 -100 403l-29 117v-2l-24 92l-14 57l-3 15l-6 18 l-8 19l-22 73h-9q-1 -19 -6 -40l-4 -21l-10 -21q-2 -2 -2 -4l-4 -14v-6l-12 -55l-7 -25q-51 -193 -71 -336l-6 -39q-12 -62 -27 -123q-7 -43 -27 -106zM254 1374l-12 2q-28 20 -15 72q24 60 72 88q37 16 72 16q32 0 45 -8q45 -20 57 -28l6 -7l23 -14q12 -12 18 -12 q13 -5 45 -10h8q1 0 3 -1.5t6 -1.5q25 0 41 13q15 7 20 15t6 20.5t4 19.5q3 8 13 18q4 0 7 0.5t5 0.5h4.5t4.5 -0.5t5 -2.5q1 0 19 -14q1 -50 -31 -90t-80 -51q-6 -2 -22 -2q-38 0 -103 26q-12 11 -16 13q-8 0 -25 12l-37 25l-32 8q-27 0 -48.5 -20t-25.5 -50q0 -37 -37 -37 z" />
<glyph unicode="&#xe4;" horiz-adv-x="929" d="M793 111v-9l12 -41q0 -1 1 -4t1 -4q0 -28 -2 -30q-10 -17 -26 -20.5t-29 7.5q-12 11 -15.5 15.5t-5 10.5t-2.5 9l-2 2q-4 20 -4 21l-4 10l-6 33q0 1 -1 5t-1 5v10q-1 1 -1.5 3.5t-1 6.5t-1.5 6l-3 27v-6q-16 47 -32 129q-107 0 -170 -6q-91 -8 -211 -8h-41l-15 -64 l-18 -92q0 -3 -1 -13.5t-1 -13.5h-4v-10q-2 -2 -2 -14l-6 -53q-9 -24 -35 -27q-22 -3 -43 24v13q0 1 1 4t1 6l6 41q4 48 8 57v13l17 84l22 108l21 86l8 31q20 77 22 88l19 104l47 203l6 33q0 1 1 4t1 4q10 48 37 131h-2l10 45v-2l19 72q0 31 14 57t43 25h47l45 -8l49 -164 l2 -19l4 -8v4l45 -180l-2 2l13 -39l26 -90l27 -74v2q17 -52 25 -108l16 -76l4 -23q0 -1 0.5 -3.5l1.5 -7.5t2 -11l6 -29l6 -37l19 -79l22 -121q0 -18 11 -47zM268 379l-6 -17h41q109 0 182 7q68 8 174 8q-22 116 -100 379l-29 116v-2l-24 93l-14 57l-3 14l-6 19l-8 18 l-22 74h-9q-1 -14 -3 -26t-4 -22t-3 -14l-10 -20q-2 -2 -2 -4l-4 -15v-6l-12 -55l-7 -25q-58 -219 -71 -311l-6 -39q-12 -62 -27 -123q-7 -43 -27 -106zM256 1454v23q0 10 0.5 17t2 17t5.5 15.5t10 10t16.5 3t24.5 -7.5q17 -19 17 -55v-29q0 -32 -17 -49q-14 -6 -24.5 -7.5 t-16.5 3t-10 10t-5.5 15.5t-2 17t-0.5 17zM582 1454v23q0 11 0.5 17t1.5 16.5t5 16t10 10t16 3t24 -7.5q18 -18 18 -55v-29q0 -33 -18 -49q-14 -6 -24 -7.5t-16 3t-10 10t-5 16t-1.5 16.5t-0.5 17z" />
<glyph unicode="&#xe5;" horiz-adv-x="929" d="M793 111v-9l12 -41v-8q3 -21 0 -30q-10 -17 -26 -20.5t-29 7.5q-12 11 -15.5 15.5t-5 10.5t-2.5 9l-2 2q-4 20 -4 21l-4 10l-6 33q0 1 -1 5t-1 5v10q-1 1 -1.5 3.5t-1 6.5t-1.5 6l-3 27v-6q-16 47 -32 129q-107 0 -170 -6q-91 -8 -211 -8h-41l-15 -64l-18 -92 q0 -3 -1 -13.5t-1 -13.5h-4v-10q-2 -2 -2 -14l-6 -53q-9 -24 -35 -27q-22 -3 -43 24v13q0 1 1 4t1 6l6 41q4 48 8 57v13l17 84l22 108l21 86l8 31q20 77 22 88l19 88l47 227l6 33q0 1 1 4t1 4q10 48 37 131h-2l10 45v-2l19 72q0 31 14 57t43 25h47l45 -8l49 -164l2 -19l4 -8 v4l45 -180l-2 2l13 -39l24 -90l29 -98v2q22 -73 25 -92l16 -76l4 -23q0 -1 0.5 -3.5l1.5 -7.5t2 -11l6 -29l6 -37l19 -79l22 -121q0 -18 11 -47zM268 379l-6 -17h41q109 0 182 7q68 8 174 8q-26 137 -100 387l-29 117v-2l-24 92l-14 57l-3 14l-6 19l-8 18l-22 74h-9 q-1 -19 -6 -40l-4 -21l-10 -21q-2 -2 -2 -4l-4 -14v-6l-12 -56l-7 -24q-51 -193 -71 -336l-6 -23q-12 -62 -27 -123q-7 -43 -27 -106zM610 1518h-2q17 -57 3 -97.5t-48 -68.5q-43 -37 -100 -37q-39 0 -72 20l-12 8l4 -4q-3 2 -13.5 8t-15.5 11q-37 32 -49 96q-4 18 0 35 q6 43 33 78l10 10q32 32 88 49q26 0 35 4q20 -4 21 -4q20 0 43 -18l-3 4q54 -28 78 -94zM543 1497q-15 35 -41 49q-8 8 -17 8q-12 0 -14 2q-2 -2 -20 -2q-43 -11 -52 -22l-6 -10q-12 -17 -16 -39v-25q3 -24 22 -51q0 -4 7 -4q5 -3 12 -5t10 -5l-4 4q21 -11 48 -9t48 15 q42 42 23 94z" />
<glyph unicode="&#xe6;" horiz-adv-x="1374" d="M651 244v30h-194q-18 -3 -42.5 -4t-53.5 -1t-44 -1q-8 0 -24.5 -1t-24.5 -1h-16q-5 -13 -8.5 -33.5t-5.5 -29.5q0 -3 -1 -9l-1 -6l-13 -55q0 -9 -6 -18l-12 -52l-6 -20v-4q0 -46 -33 -49q-24 0 -33 12q-11 14 -8 39q0 1 1 2t1 2q2 29 20 84q4 28 9.5 51t5.5 25l6 24 q7 34 10 41v6l8 23v-4q0 1 1 4t1 6q0 20 7 27l20 80q0 2 -1 4.5t-0.5 4.5t3.5 5q0 4 6 14l-2 -4l8 35l21 76l20 92l15 59v-2q1 7 6 24.5t6 24.5q12 55 14 86q0 1 1 4.5t1 4.5l9 63l8 51l18 97v2q0 2 2 4q0 2 2 4v8q0 1 1 6t1 8l6 21v18h2q3 3 3 4q0 9 2 13q0 10 12 22v8 q0 28 24 60q12 -4 37 -4q222 0 471 12h277q32 0 43 -4q49 -4 37 -41q-6 -31 -47 -31q-25 0 -33 2h-12h-21q-4 0 -13 -1t-12 -1h-45q-4 0 -11 -1t-12 -0.5t-11 3.5h-37q-3 0 -8.5 -1t-8.5 -1q-16 2 -45 2h-37q-4 0 -11.5 -1t-10.5 -1h-84q-45 0 -70 -2h-8v-248q0 -25 -1 -81 t-0.5 -95.5t3.5 -79.5h160q4 0 13.5 1t13.5 1q3 0 7 -1t7 -1h55q3 0 7.5 -1t7.5 -1h36q3 0 6.5 1t6.5 1h28q6 2 23 2q32 0 43 -14q12 -9 12 -49q-35 -14 -65 -14h-129q-14 2 -41 2h-90q-6 0 -48.5 1t-52.5 -1q-2 -26 2 -82v-92l-6 -72q-8 -52 -8 -123q0 -21 4 -57 q2 -23 2 -76h80h53q78 0 105 -2h39q63 -6 174 -6h41q26 0 45 -19q0 -1 1 -5t1 -5q5 -13 2 -20q-2 -9 -5 -14.5t-9 -7.5l-9 -3t-11 0h-9h-13q-18 2 -43 2h-65q-23 2 -62 2q-4 0 -9.5 1t-8.5 1h-10q-31 0 -39 2h-154q-57 0 -82 -2h-16q-8 0 -10 -2l-5 -1q-6 -1 -10 -1h-10 q-8 0 -26 10q-9 16 -9 47h2q3 35 -2 111q-2 23 -2 76zM657 1147v6h-211q0 -1 -1 -4t-1 -4l2 2q-2 -6 -2 -17q0 -4 -2 -4q-6 -14 -10 -51l-26 -108q-39 -268 -127 -627q36 0 90 4q9 0 27 1t24 1h20q3 0 10.5 1t10.5 1h41q3 0 5 -1t5 -1h12l2 -1q2 -1 6 -1h39q8 2 39 2 q28 4 49 4q3 89 3 189v301q0 4 -1.5 13.5t-1.5 14.5v172l-1 4q-1 4 -1 9v12q0 25 2 33v43q0 1 -1 1q-1 1 -1 5z" />
<glyph unicode="&#xe7;" horiz-adv-x="823" d="M350 -336h25q17 -3 18 -2q3 0 7.5 -1t7.5 -1h12q10 -3 20 0q33 0 43 10q46 36 27 82v-2q-11 28 -25 42.5t-36 25.5q-30 6 -31 6q-38 0 -45.5 7t-7.5 44q0 1 0.5 1.5t1 2t0.5 4.5v111q-111 20 -154 78l-16 14l-13 14q-14 23 -16 35l-2 2l-8 17q-14 36 -15 53l-4 29v28 q0 2 -2 4v-4q-6 21 -6 51v19q-4 66 -4 112q0 51 2 74v4q-2 2 -2 21v20q-4 78 -4 135v25q0 4 1 11.5t1 11.5v47q2 25 2 77q0 76 6 107l2 4q2 0 2 4q0 11 2 17l-2 -3l6 27q1 4 9 29l2 4q0 6 2 8q0 6 4 10v2q51 97 145 127q4 0 6 2h4q84 23 152 15q61 -7 125 -56q15 -11 31 -30 q3 -16 16 -19q22 -29 30 -59.5t13 -85.5v-33q0 -1 1 -3t1 -3q0 -11 -0.5 -18t-3.5 -18t-9.5 -14.5t-17.5 -8t-28 1.5q-15 27 -15 51l-1 2q-1 2 -1 6v18q-5 61 -12 78q-30 54 -39 64q-13 13 -63 39h2q-40 14 -74 14q-46 0 -62 -8q-9 -6 -16 -6q-2 -2 -14 -2q-67 -27 -92 -76 l-2 -2l-13 -31v2q0 -1 -1 -3t-1 -3l-4 -16q-2 -2 -2 -19q0 -1 -1 -5t-1 -7q-12 -27 -8 -90v-13q0 -53 -2 -71v-66q0 -3 -1 -12t-1 -14q0 -46 4 -140v-20v-2q0 -2 2 -4v-19q0 -3 -1 -6t-1 -6v-29q-2 -31 -2 -82q0 -42 2 -65v-12l1 -2q1 -2 1 -5q0 -30 8 -49q0 -33 2 -47 q0 -14 2 -16l6 -19l8 -16v2l17 -29l10 -14q40 -50 158 -61h4q2 2 12 2q37 8 45 10l23 4l14 4q2 0 4 2l19 8h4q6 0 8 2q-6 0 0 6q27 9 55 62v-2l8 12l4 17q0 1 1 3t2 6t2 7v2q2 2 2 6v68q0 36 4 47q8 16 25 23.5t31.5 -0.5t14.5 -31v-117q-2 -35 -20 -66v2l-4 -14 q-43 -76 -101 -96h3l-13 -10q-29 -12 -53 -17q-3 -6 -27 -6l-24 -4h2l-25 -4q3 -41 -2 -103q63 -6 104.5 -45t45.5 -108q1 -28 -12.5 -59t-34.5 -52q-36 -36 -97 -39h-16q-9 -1 -51 2q-3 0 -8 1l-5 1q-2 2 -14 2l-31 3q-10 33 -2 51q10 16 35 16zM221 1022l2 4q0 -2 -2 -4z " />
<glyph unicode="&#xe8;" horiz-adv-x="864" d="M657 1219h54q22 0 37 -9q14 -11 14 -36q-3 -15 -9.5 -22t-13.5 -8t-22 -1h-58q-35 0 -51 2h2q-82 4 -116 4h-31q-5 0 -15.5 1t-15.5 1q-16 2 -47 2h-25q-4 0 -11 1t-11 1h-27q-3 0 -8 1t-6 1h-37q-8 -2 -35 -2h-2v-14q-2 -31 -2 -94q0 -68 4 -170q0 -13 1 -38.5t1 -41.5 q3 -28 0 -52v-55q0 -7 1 -20.5t1 -20.5h17l174 -4h63q16 2 56 2h45v-2q21 0 31.5 -3t17.5 -15q9 -20 0 -41q-13 -19 -39 -19l-6 1q-6 1 -10 1l-3 2q-16 2 -49 2q-32 0 -55 -2h-121q-4 0 -13.5 1t-14.5 1q-46 0 -62 2h-29v-55q0 -4 -1 -7l-1 -3v-25q-4 -28 -4 -41v-28 q0 -4 1 -7l1 -3q-2 -31 -2 -84q0 -8 -1 -23.5t-1 -22.5v-40q0 -21 2 -23v-20v-119h86q4 0 12.5 1t12.5 1h332q2 -2 14 -2l2 -1q2 -1 6 -1h12q28 0 46 -21q6 -14 6 -24q-10 -29 -56 -29h-8q-3 0 -6.5 1t-7.5 1l-2 1q-2 1 -6 1q-78 4 -129 4q-48 0 -146 -4h-76q-16 -2 -55 -2 h-26q-4 0 -6 -1t-3 -1h-20q-32 0 -41 12q-14 14 -14 66v35q0 3 -1 8t-1 8v111q0 45 4 139q0 20 -2 26q0 1 -1 4.5t-1 4.5v20q0 32 4 78v6l1 3q1 3 1 7t1 8t1 5q2 15 -2 57v29q-6 31 -6 100q2 44 -3 168q-4 78 -4 145q0 59 2 82v45q0 1 1 3t1 3q-4 38 23.5 50.5t65.5 5.5 q2 -1 5.5 -0.5t6.5 0.5q8 2 26 2h31q86 -4 117 -4q146 0 188 -4q14 -2 47 -2zM395 1571q16 0 24 -9t17 -30l8 -10l11 -17l10 -20l18 -29l4 -10l2 -2l11 -17l2 -2q12 -20 12 -47q-17 -20 -35 -20q-13 0 -22.5 7t-13.5 13.5t-13 24.5q0 2 -2 4l-2 4l-16 31q-32 49 -52 92 l-2 16q21 21 39 21z" />
<glyph unicode="&#xe9;" horiz-adv-x="864" d="M657 1217h54q22 0 37 -9q14 -11 14 -37q-3 -15 -9.5 -21.5t-13 -7.5t-22.5 -1h-58q-35 0 -51 2h2q-82 4 -116 4h-31q-5 0 -15.5 1t-15.5 1q-16 2 -47 2h-25q-4 0 -11 1t-11 1h-27q-3 0 -8 1t-6 1h-37q-8 -2 -35 -2h-2v-14q-2 -31 -2 -95q0 -63 4 -165q0 -13 1 -38.5 t1 -41.5q3 -27 0 -51v-58q0 -4 1 -18t1 -21h17l174 -4h63q16 2 56 2h45v-2q21 0 31.5 -3t17.5 -15q9 -21 0 -41q-13 -19 -39 -19l-6 1q-6 1 -10 1l-3 2q-16 2 -49 2q-32 0 -55 -2h-121q-4 0 -13.5 1t-14.5 1q-38 0 -62 3h-29v-56q0 -4 -1 -7l-1 -3v-27q-4 -28 -4 -39v-28 q0 -4 1 -7l1 -3q-2 -31 -2 -84q0 -8 -1 -23t-1 -22v-41q0 -21 2 -23v-20q0 -21 -0.5 -45.5t-0.5 -40.5t1 -33h142q3 0 6 1t6 1h94q127 0 195 -2h14l2 -1q2 -1 6 -1h12q28 0 46 -21q6 -14 6 -24q-10 -29 -56 -29h-8q-3 0 -6.5 1t-7.5 1l-2 1q-2 1 -6 1q-78 4 -129 4 q-48 0 -146 -4h-76q-16 -2 -55 -2h-26q-4 0 -6 -1t-3 -1h-20q-32 0 -41 12q-14 14 -14 64v37q0 3 -1 7t-1 7v113q0 45 4 139q0 21 -2 27q0 1 -1 4t-1 4v20q0 32 4 78v6l1 3q1 3 1 7q0 3 1 6.5t1 6.5q2 15 -2 57v29q-6 31 -6 100q2 44 -3 168q-4 78 -4 141q0 59 2 82v45 q0 1 1 3t1 3q-4 38 23.5 50.5t65.5 5.5q2 -1 5.5 -0.5t6.5 0.5q8 2 26 2h31q86 -4 117 -4q146 0 188 -4q14 -2 47 -2zM449 1573q15 0 36 -21l-2 -16q-10 -24 -49 -92l-18 -29v2l-13 -24q-2 -3 -6 -11.5t-6.5 -11.5t-10 -6.5t-18.5 -3.5q-12 0 -34 22q0 26 16 52l4 6 q0 1 0.5 1.5t1.5 3t2 5.5l8 10l7 13l12 20q8 8 8 14l16 25q14 41 46 41z" />
<glyph unicode="&#xea;" horiz-adv-x="864" d="M657 1214h54q24 0 37 -8q14 -11 14 -35q-3 -16 -9.5 -23t-13 -8t-22.5 -1h-58q-35 0 -51 2h2q-82 4 -116 4h-31q-5 0 -15.5 1t-15.5 1q-16 2 -47 2h-25q-4 0 -11 1t-11 1h-27q-3 0 -8 1t-6 1h-37q-8 -2 -35 -2h-2v-14q-2 -31 -2 -95q0 -68 4 -170q0 -13 1 -38t1 -41 q3 -28 0 -52v-55q0 -7 1 -20.5t1 -20.5h17l174 -4h63q16 2 56 2h45v-2q21 0 31.5 -3t17.5 -15q9 -21 0 -41q-13 -19 -39 -19l-6 1q-6 1 -10 1l-3 2q-16 2 -49 2q-32 0 -55 -2h-121q-4 0 -13.5 1t-14.5 1q-46 0 -62 2h-29v-55q0 -4 -1 -7l-1 -3v-25q-4 -28 -4 -41v-28 q0 -4 1 -7t1 -4q-2 -31 -2 -84q0 -8 -1 -23t-1 -22v-41q0 -20 2 -22v-21v-118h86q4 0 12.5 1t12.5 1h31q3 0 6 1t6 1h94q127 0 195 -2q2 -2 14 -2l2 -1q2 -1 6 -1h12q28 0 46 -21q6 -14 6 -22q-9 -31 -56 -31h-8q-3 0 -6.5 1t-7.5 1l-2 1q-2 1 -6 1q-78 4 -129 4 q-48 0 -146 -4h-76q-16 -2 -55 -2h-26q-4 0 -6 -1t-3 -1h-20q-32 0 -41 12q-14 14 -14 66v34q0 3 -1 8.5t-1 8.5v110q0 46 4 140q0 20 -2 26q0 1 -1 4.5t-1 4.5v20q0 32 4 78v6l1 3q1 3 1 7q0 3 1 7.5t1 7.5q2 13 -2 55v29q-6 31 -6 100q2 44 -3 168q-4 78 -4 145q0 59 2 84 v43q0 1 0.5 1.5t1 2t0.5 4.5q-4 35 24 48t65 6h12q8 2 26 2h31q43 -2 117 -2q125 0 188 -6q21 -3 47 -3zM276 1358l-6 4q-24 6 -24 37q0 14 14 28q6 15 21 21l4 4l16 21l6 6l6 8l13 18l20 21q15 26 43 43h53v-2q26 -15 33 -31v2q5 -5 2 -6q0 -4 2 -4l8 -6l15 -17l14 -20 q9 -19 23 -29v-4l16 -22l14 -13q21 -13 27 -31q0 -33 -16.5 -41t-36.5 5q-27 16 -33 22q-12 20 -47 55l-17 25l-20 27l-16 20q0 -5 -7 -12l-6 -12l-10 -11l-8 -12l-19 -25l-38 -38q-7 -7 -7 -13q-18 -18 -39 -18z" />
<glyph unicode="&#xeb;" horiz-adv-x="864" d="M657 1217h54q22 0 37 -9q14 -11 14 -37q-3 -15 -9.5 -21.5t-13 -7.5t-22.5 -1h-58q-35 0 -51 2h2q-82 4 -116 4h-31q-5 0 -15.5 1t-15.5 1q-16 2 -47 2h-25q-4 0 -11 1t-11 1h-27q-3 0 -8 1t-6 1h-37q-8 -2 -35 -2h-2v-14q-2 -31 -2 -95q0 -65 4 -167q0 -13 1 -38.5 t1 -41.5q3 -28 0 -52v-55q0 -7 1 -20.5t1 -20.5h17l174 -4h63q16 2 56 2h45v-2q21 0 31.5 -3t17.5 -15q9 -20 0 -41q-13 -19 -39 -19l-6 1q-6 1 -10 1l-3 2q-16 2 -49 2q-32 0 -55 -2h-121q-4 0 -13.5 1t-14.5 1q-46 0 -62 2h-29v-55q0 -4 -1 -7l-1 -3v-25q-4 -28 -4 -41 v-28q0 -4 1 -7l1 -3q-2 -31 -2 -84q0 -8 -1 -23.5t-1 -22.5v-40q0 -21 2 -23v-20v-119h86q4 0 12.5 1t12.5 1h332q2 -2 14 -2l2 -1q2 -1 6 -1h12q28 0 46 -21q6 -14 6 -24q-10 -29 -56 -29h-8q-3 0 -6.5 1t-7.5 1l-2 1q-2 1 -6 1q-78 4 -129 4q-48 0 -146 -4h-76 q-16 -2 -55 -2h-26q-4 0 -6 -1t-3 -1h-20q-32 0 -41 12q-14 14 -14 66v35q0 3 -1 8t-1 8v111q0 45 4 139q0 20 -2 26q0 1 -1 4.5t-1 4.5v20q0 32 4 78v6l1 3q1 3 1 7t1 8t1 5q2 15 -2 57v29q-6 31 -6 100q2 44 -3 168q-4 78 -4 143q0 59 2 82v45q0 1 1 3t1 3 q-4 38 23.5 50.5t65.5 5.5q2 -1 5.5 -0.5t6.5 0.5q8 2 26 2h31q86 -4 117 -4q146 0 188 -4q14 -2 47 -2zM225 1434v24q0 11 1 19t4 20t9.5 15.5t17.5 6t28 -7.5q16 -16 16 -53v-31q0 -31 -16 -49q-60 -28 -60 56zM551 1434v24q0 10 0.5 16t1.5 16.5t5 15.5t10 9.5t16 3 t24 -7.5q19 -17 19 -53v-31q0 -30 -19 -49q-14 -6 -24 -7t-16 4t-10 10.5t-5 16t-1.5 16.5t-0.5 16z" />
<glyph unicode="&#xec;" horiz-adv-x="391" d="M209 231v240q0 3 -1 7t-1 7v41q-4 62 -4 111v104q2 49 2 144v112q0 7 1 20t1 21q0 4 1 11.5t1 11.5v76q-2 14 -2 39q0 18 2 24q0 27 29 45l12 -1q13 -1 18 -1q8 -25 8 -47v-166q-2 -41 -2 -135v-37q0 -4 -1 -9.5t-1 -8.5v-90q0 -4 -1 -11t-1 -12q2 -14 2 -49 q0 -89 7 -215v-207q0 -3 -1.5 -6.5t-1.5 -7.5v-13q0 -3 5 -61v2q12 -53 2 -113v-30q11 -34 -33 -50q-14 0 -37 23v45q2 38 -2 125q-2 14 -2 61zM139 1591q6 0 10.5 -2t7.5 -4t7.5 -7.5t5.5 -7.5t5 -9.5t5 -8.5l8 -10l13 -18l8 -19l18 -30l4 -11l2 -2l11 -14l2 -2 q14 -18 14 -47q-21 -21 -37 -21q-17 0 -26.5 10t-22.5 33q0 2 -2 4l-2 7l-14 28q-40 54 -52 94l-2 15q19 22 37 22z" />
<glyph unicode="&#xed;" horiz-adv-x="389" d="M109 469v2q0 3 -1.5 7t-1.5 7v41q-4 62 -4 111v104q2 49 2 144v112q0 7 1 20t1 21q0 4 1.5 11.5t1.5 11.5v76q-3 21 -3 39q0 15 3 24q0 24 30 45l13 -1q12 -1 18 -1q8 -25 8 -47v-166q-2 -41 -2 -135v-37q0 -4 -1 -9.5t-1 -8.5v-90q0 -4 -1 -11t-1 -12q2 -14 2 -49 q0 -107 6 -215v-207q0 -3 -1 -6.5t-1 -7.5v-13q0 -15 4 -61v2q12 -53 2 -113v-30q11 -34 -34 -50q-12 0 -35 23v45q2 38 -2 125q-4 28 -4 61v23l1 2q1 2 1 6v121q0 55 -2 86zM250 1591q15 0 37 -22l-2 -15q-9 -25 -49 -94l-19 -26q-3 -16 -12 -25q-2 -3 -6 -10.5t-6.5 -11 t-10 -6.5t-18.5 -3q-12 0 -35 23q0 22 16 51l5 6q2 -2 2 0v2q0 4 2 6l8 13l6 12l12 18q8 8 8 15l17 26q6 13 9.5 19.5t13.5 14t22 7.5z" />
<glyph unicode="&#xee;" horiz-adv-x="552" d="M242 469v2q0 3 -1 7t-1 7v41q-4 62 -4 111v104q2 49 2 144v112q0 7 1 20t1 21q0 4 1 11.5t1 11.5v76q-2 14 -2 39q0 18 2 24q0 28 28 45l13 -1q13 -1 18 -1q8 -25 8 -47v-166q-2 -41 -2 -135v-37q0 -4 -1 -9.5t-1 -8.5v-90q0 -4 -1 -11t-1 -12q2 -14 2 -49q0 -107 6 -215 v-207q0 -3 -1 -6.5t-1 -7.5v-13q0 -15 4 -61v2q12 -53 2 -113v-30q7 -13 0.5 -26.5t-32.5 -23.5q-14 0 -37 23v45v125q-4 28 -4 61v23l1 2q1 2 1 6v121q0 55 -2 86zM133 1382l-6 4q-25 6 -25 35q0 12 15 31q7 10 20 18l4 5l17 22l12 12l12 19l19 22q13 18 45 43h51v-2 q30 -16 35 -30l3 -5h-1q0 -4 2 -4l8 -6l12 -18l17 -19q12 -20 22 -30v-4l17 -21l14 -12q23 -14 25 -33q0 -33 -16 -41.5t-36 4.5q-18 11 -32 25q-11 18 -48 55l-18 23l-18 28l-17 19q0 -7 -6 -13l-16 -20l-8 -14l-19 -23l-39 -41q-6 -6 -6 -10q-19 -19 -39 -19z" />
<glyph unicode="&#xef;" horiz-adv-x="526" d="M221 469v2q0 3 -1 7t-1 7v41q0 16 -1 56t-1 55v104q2 49 2 144v153q0 4 1 11.5t1 11.5v76q-2 14 -2 39q0 18 2 24q0 23 31 45l12 -1q13 -1 19 -1q8 -25 8 -47v-166q-2 -41 -2 -135v-37q0 -4 -1 -9.5t-1 -8.5v-90q0 -4 -1 -11t-1 -12q2 -14 2 -49q0 -107 6 -215v-207 q0 -3 -1 -6.5t-1 -7.5v-13q0 -15 4 -61v2q12 -53 2 -113v-30q11 -34 -33 -50q-14 0 -37 23v45q2 38 -2 125q-4 28 -4 61v23l1 2q1 2 1 6v121q0 55 -2 86zM387 1454v23q0 10 0.5 17t2 17t5.5 15.5t10 10t16.5 3t24.5 -7.5q19 -19 19 -55v-29q0 -32 -19 -49q-14 -6 -24.5 -7.5 t-16.5 3t-10 10t-5.5 15.5t-2 17t-0.5 17zM63 1454v23q0 10 0.5 17t2 17t5.5 15.5t10 10t16 3t24 -7.5q18 -18 18 -55v-29q0 -33 -18 -49q-14 -6 -24 -7.5t-16 3t-10 10t-5.5 15.5t-2 17t-0.5 17z" />
<glyph unicode="&#xf0;" horiz-adv-x="911" d="M707 1139l18 -25q29 -47 43 -87.5t18 -111.5v-30q-2 -2 -2 -25q-2 -31 -2 -78v-243q0 -55 2 -86q4 -77 2 -125q-2 -2 -2 -19v-28l-1 -4q-1 -4 -1 -9q0 -3 1.5 -7.5t1 -7.5t-4.5 -7q-5 -68 -43 -128t-98 -89l6 4l-10 -6l-11 -4h1q-3 -3 -7 -3q-4 -4 -14 -4l-24 -6l2 2 q-7 -4 -31 -4q-16 -4 -37 -4q-27 -2 -98 -2h-33q-3 0 -7 1t-7 1h-29q-18 2 -66 2l-20 2l-14 2q-17 15 -17 43v19q0 6 1 33.5t1 44.5q0 19 -1 48t-1 35v195q0 3 1 13t1 18q0 36 -4 114q-2 0 -4.5 -0.5l-5 -1t-6 0.5t-6.5 3h-37q-30 -4 -51 -2q-26 0 -41 15q-9 6 -9 51 q5 1 19 4.5t22 3.5h11q1 0 1 1q1 1 5 1q12 0 14 -2h51q8 2 37 2v166q-2 31 -2 105q0 35 -2 53q-4 50 -2 80q0 23 -2 37v73q0 1 -1 3t-1 3v-2q-6 28 8 39q22 22 47 19q54 0 72 6h47q63 0 115 -8q59 -7 114 -31l31 -14l35 -17l8 -6zM709 864q2 14 2 39v21q-11 126 -72 176 q-8 0 -10 2h2q7 0 -4 5l-15 5q-6 0 -10 4l-14 8q-66 31 -199 31q-3 0 -6 -1t-6 -1h-31q-2 -2 -20 -2h-41v-8q0 -65 6 -127v-19q4 -62 4 -100v-248q42 0 65 -2h37q2 0 5.5 0.5t8.5 0.5t11 -1l2 1q2 1 6 1h12h4h6.5t5.5 -0.5t6 -1t5.5 -2t5 -3.5t4 -5t4 -7t2.5 -9 q4 -19 -10 -33q-15 -15 -47 -15q-12 0 -14 2h-11q-3 0 -6 -1t-6 -1h-14h-27q-18 2 -55 2q-2 -123 -2.5 -208.5t0 -116.5t1.5 -53t1 -27q0 -59 -8 -92h55h115q3 0 9.5 -1t10.5 -1h41l2 1q2 1 6 1q26 0 56 10l10 2q52 24 82.5 65t30.5 93q0 3 1 8t1 8q2 2 2 17q2 15 -2 57v151 q0 45 2 68v25q0 20 -2 34v58q2 10 2 76q-3 57 0 114z" />
<glyph unicode="&#xf1;" horiz-adv-x="958" d="M150 63l-5 52q0 4 -1 8.5t-1 5.5v35q0 21 4 67q3 27 3 50v12q0 41 6 90q0 7 1 23t1 24q2 16 -2 59v197q-6 115 -6 352v37q0 119 4 150q52 52 110 0q37 -61 66 -154v2l20 -45q4 -12 15 -36.5t14 -33.5v3q35 -72 53 -125v2l78 -183l16 -34l29 -64l29 -80q11 -38 30 -69 l29 -74l4 -8l-2 6l4 -8l6 -21q3 -4 9 -14l4 -6q0 -9 4 -9l18 -43l29 -69v2l4 -10q3 -12 6 -15l6 -12v217q0 25 -2 39v41q0 22 -4 68q-2 43 -2 129v18q0 3 -1 11t-1 12v61q-2 14 -2 53q-2 57 10 154q2 18 2 69v39q0 3 1 7.5t1 7.5q2 2 2 24v64q-4 67 2 100q22 19 31 19 q5 0 31 -9q12 -30 8 -49q-2 0 -2 -4l4 -49q0 -3 1 -8t1 -8v-33q0 -24 -4 -70q-2 -18 -2 -49v-14q0 -39 -6 -86q-4 -32 -4 -47q-3 -45 0 -84v-72q0 -69 2 -100q8 -164 8 -353v-39q0 -114 -4 -145q-20 -43 -82 -23q0 -2 -18 -2l-78 172l-19 45q-4 12 -15.5 36.5t-14.5 33.5v-2 q-4 10 -15.5 35t-21.5 48t-17 44v-2l-30 72l-31 75l-12 31l-19 37q-46 99 -59 143q0 5 -4 9q-18 51 -27 63l-29 70l-4 12l2 -8l-4 14l-8 19l-10 24l-2 2l-19 41l-12 35l-16 35l-4 8q-2 9 -7 14l-6 15q-1 -17 -1 -35t0.5 -39t0.5 -33v-112q0 -25 2 -39v-39q0 -24 4 -70v-78 q0 -4 -1 -12t-1 -12v-43q0 -4 1 -12.5t1 -12.5v-61q2 -14 2 -54q3 -77 -6 -153q-2 -18 -2 -70q0 -3 -1 -7t-1 -7v-39q-2 -2 -2 -25v-61q5 -70 -4 -103q-15 -18 -31 -18q-20 0 -28 10q-12 23 -9 47zM268 1374l-12 2q-28 19 -14 72q24 61 71 88q37 16 72 16q32 0 45 -8 q45 -20 57 -28l7 -7l22 -14q12 -12 19 -12q12 -5 45 -10h8l2 -1q2 -2 6 -2q25 0 41 13q15 7 20 15t6.5 20.5t4.5 19.5q3 9 12 18q5 0 10.5 1t8.5 0.5t8 -3.5q3 -1 5.5 -3t6 -5.5t6.5 -5.5q1 -50 -31 -90t-80 -51q-6 -2 -22 -2q-38 0 -103 26q-11 11 -16 13q-7 0 -24 12 l-37 25q-32 8 -33 8q-27 0 -48.5 -20t-25.5 -50q0 -37 -37 -37z" />
<glyph unicode="&#xf2;" horiz-adv-x="858" d="M727 274q0 -2 2 -2l2 -2l-9 -30l-5 -18v1l-6 -24l-6 -29q-32 -138 -234 -170l2 2q-9 -4 -29 -4q-3 0 -5 -1t-5 -1h-6q-108 -8 -193.5 64t-97.5 182v-2q-4 28 -4 30q-6 33 -6 107v31q0 5 1 14t1 14v78q0 23 -2 25q-2 25 -2 77l-1 4q-1 4 -1 7v57q0 3 1 5t1 5q0 29 2 39v12 q0 3 1 8.5t1 8.5q0 29 2 39v39q2 16 2 49q4 73 12 121l5 14v2q0 4 1 8l1 4q2 2 2 9q3 14 13.5 39t14.5 38q15 21 33 39q8 8 33 23l28 18l50 17q9 4 36 4q15 4 84 4h11q2 0 30 -4q9 0 25 -4q2 -2 12 -2l39 -17q64 -27 92 -65q64 -95 56 -168v-6q0 -1 1 -3.5t1 -3.5v-86 q0 -100 8 -176q8 -60 8 -192q2 -14 2 -41v-25q0 -4 1 -7l1 -3q0 -8 2 -10l-4 -76q-4 -46 -4 -66zM616 158l5 4l2 4q3 3 5 3l1 3q0 1 1 3.5t2.5 6.5t2.5 6l-2 -2l6 31q4 12 4 57q0 8 1 19t1 16q0 69 8 105l-1 2q-1 2 -1 6v100l-6 117q-6 55 -6 174v84q-2 8 -2 29q-3 21 0 45 q8 44 -35 110l-4 4q-32 41 -66 56q0 2 -4 2q-13 8 -41 8h-94q-3 0 -6 -1t-6 -1h-8q-28 0 -68 -14l-14 -9l-6 -2q-4 -3 -25 -24q-31 -52 -43 -99v3l-6 -39q-6 -33 -6 -95v-57q0 -3 -1 -6t-1 -6v-29q0 -31 -2 -41v-20q0 -25 -2 -33v-37q0 -59 6 -111v-120q0 -5 1 -14t1 -13 v-21q0 -62 4 -83q0 -18 4 -27q4 -81 71 -135.5t148 -46.5h-2q2 2 39 2q95 12 145 86zM315 1591q6 0 10.5 -2t7.5 -4t7.5 -7.5t5.5 -7.5t5 -9.5t5 -8.5l9 -10l12 -18l8 -19l18 -30l5 -11l2 -2l10 -14l2 -2q12 -15 12 -47q-18 -21 -35 -21t-26.5 10t-22.5 33q0 2 -2 4l-2 7 l-16 28q-41 71 -51 94l-3 15q22 22 39 22z" />
<glyph unicode="&#xf3;" horiz-adv-x="858" d="M727 268q0 -2 2 -2l2 -2l-9 -30l-5 -18v1l-6 -24l-6 -29q-32 -138 -234 -170l2 2q-9 -4 -29 -4q-3 0 -5 -1t-5 -1h-6q-108 -8 -193.5 64t-97.5 182v-3q-4 28 -4 31q-6 33 -6 107v30q0 5 1 14.5t1 14.5v100q0 23 -2 25q-2 25 -2 78q0 1 -1 4t-1 6v57q0 3 1 5.5t1 5.5 q0 29 2 39v12q0 3 1 8t1 8q0 29 2 39v33q2 16 2 49q4 73 12 121l5 14v2q0 4 1 8t1 5q2 2 2 8q3 14 13.5 39.5t14.5 38.5q15 21 33 39q6 6 33 22l28 18l50 17q9 4 36 4q15 4 84 4h11q2 0 30 -4q9 0 25 -4q2 -2 12 -2l39 -17q64 -27 92 -65q64 -95 56 -168v-6q0 -1 1 -3t1 -3 v-86q0 -94 8 -170q8 -60 8 -193q2 -14 2 -41v-47q0 -4 1 -7l1 -3q0 -8 2 -10l-4 -76q-4 -46 -4 -66zM616 152l5 4l2 4q3 3 5 3l1 3q0 1 1 3.5t2.5 6.5t2.5 6l-2 -2l6 31q4 12 4 57q0 8 1 19t1 16q0 69 8 105l-1 2q-1 2 -1 6v123l-6 116q-6 55 -6 174v78q-2 8 -2 29 q-3 21 0 45q8 45 -35 111l-4 4q-30 39 -66 55q0 2 -4 2q-13 8 -41 8h-94q-3 0 -6 -1t-6 -1h-8q-28 0 -68 -14l-14 -8l-6 -2l-25 -25q-31 -53 -43 -98v2l-6 -39q-6 -33 -6 -94v-52q0 -3 -1 -6t-1 -6v-29q0 -30 -2 -40v-21q0 -25 -2 -33v-37q0 -58 6 -110v-144q0 -5 1 -13.5 t1 -12.5v-21q0 -63 4 -84q0 -17 4 -26q4 -81 71.5 -136t147.5 -47h-2q3 3 39 3q95 12 145 86zM526 1591q15 0 37 -22l-2 -15q-19 -54 -49 -94l-18 -26q-3 -15 -13 -25q-2 -3 -6 -10.5t-6.5 -11t-10 -6.5t-18.5 -3q-3 0 -6.5 1t-5.5 2t-5 3.5t-5 4t-6 6t-6 6.5q0 22 16 51 l6 6v2q0 1 1 3t1 3l8 13l6 12l13 18q8 8 8 15l16 26q6 13 9.5 19.5t13.5 14t22 7.5z" />
<glyph unicode="&#xf4;" horiz-adv-x="858" d="M727 266q0 -2 2 -2l2 -2l-9 -30l-5 -18v1l-6 -25l-6 -28q-32 -138 -234 -170l2 2q-9 -4 -29 -4q-3 0 -5 -1t-5 -1h-6q-108 -8 -193.5 63.5t-97.5 181.5v-2q-4 28 -4 31q-6 33 -6 107v30q0 5 1 14.5t1 14.5v100q0 23 -2 25q-2 25 -2 78q0 1 -1 4t-1 6v57q0 3 1 5.5t1 5.5 q0 29 2 39v12q0 3 1 8t1 8q0 29 2 39v33q2 16 2 49q4 73 12 121l5 14v2q0 4 1 8t1 5q2 2 2 8q3 14 13.5 39.5t14.5 38.5q12 17 33 38q8 8 33 23l28 18l50 17q9 4 36 4q15 4 84 4h11q2 0 30 -4q9 0 25 -4q2 -2 12 -2l39 -17q64 -27 92 -65q64 -95 56 -168v-6q0 -1 1 -3t1 -3 v-86q0 -94 8 -170q8 -60 8 -193q2 -14 2 -41v-47q0 -4 1 -7l1 -3q0 -8 2 -10l-4 -76q-4 -46 -4 -66zM616 150l5 4l2 4q3 3 5 3l1 3q0 1 1 3.5t2.5 6.5t2.5 6l-2 -2l6 31q4 12 4 57q0 8 1 19t1 16q0 69 8 105l-1 2q-1 2 -1 6v123l-6 116q-6 55 -6 174v78q-2 8 -2 29 q-3 21 0 45q8 45 -35 111l-4 4q-30 39 -66 55q0 2 -4 2q-13 8 -41 8h-94q-3 0 -6 -1t-6 -1h-8q-28 0 -68 -14l-14 -8l-6 -2l-25 -25q-31 -53 -43 -98v2l-6 -39q-6 -33 -6 -94v-52q0 -3 -1 -6t-1 -6v-29q0 -31 -2 -41v-20q0 -25 -2 -33v-37q0 -57 6 -110v-144q0 -5 1 -13.5 t1 -12.5v-21q0 -63 4 -84q0 -17 4 -26q4 -81 71.5 -136t147.5 -47h-2q2 2 39 2q94 12 145 87zM276 1382l-6 4q-24 6 -24 35q0 13 14 31l19 18l4 5l18 22l12 12l13 19l18 22q19 26 43 43h53v-2q30 -16 35 -30l3 -5h-1q0 -4 2 -4l6 -6l15 -18l16 -19q2 -5 21 -30v-4l18 -21 l14 -12q16 -10 25 -33q0 -61 -53 -37q-24 18 -31 25q-12 20 -47 55l-19 23l-18 28l-16 19q0 -6 -7 -13l-8 -10l-10 -10l-6 -14l-19 -23l-38 -41q-7 -7 -7 -10q-19 -19 -39 -19z" />
<glyph unicode="&#xf5;" horiz-adv-x="856" d="M727 270q0 -2 2 -2l2 -2l-9 -30l-5 -18v1l-6 -24l-6 -29q-32 -138 -234 -170l2 2q-9 -4 -29 -4q-3 0 -5 -1t-5 -1h-6q-108 -8 -193.5 64t-97.5 182v-2q-4 28 -4 30q-6 33 -6 107v30q0 5 1 14.5t1 14.5v100q0 23 -2 25q-2 25 -2 78q0 1 -1 4t-1 6v57q0 3 1 5.5t1 5.5 q0 29 2 39v12q0 3 1 8t1 8q0 29 2 39v33q2 16 2 49q4 73 12 121l5 14v2q0 4 1 8t1 5q2 2 2 8q3 14 13.5 39.5t14.5 38.5q15 21 33 39q3 4 33 22l28 19l50 16q9 4 36 4q15 4 84 4h11q2 0 30 -4q9 0 25 -4q2 -2 12 -2l39 -17q64 -27 92 -65q64 -95 56 -168v-6q0 -1 1 -3t1 -3 v-86q0 -94 8 -170q8 -60 8 -193q2 -14 2 -41v-47q0 -4 1 -7l1 -3q0 -6 -2 -86q-4 -46 -4 -66zM616 154l5 4l2 4q3 3 5 3l1 3q0 -4 2 1q1 5 2 13l6 31q4 12 4 57q0 8 1 19t1 16q0 9 3 76.5t3 159.5l-6 116q-6 55 -6 174v78q-2 8 -2 29q-3 21 0 45q8 45 -35 111l-4 4 q-30 39 -66 55q-2 2 -4 2q-13 8 -41 8h-94q-3 0 -6 -1t-6 -1h-8q-28 0 -68 -14l-14 -8l-6 -2q-4 -3 -8.5 -7.5t-9.5 -10t-7 -7.5q-36 -61 -43 -96l-6 -39q-6 -33 -6 -94v-52q0 -3 -1 -6t-1 -6v-28q0 -31 -2 -41v-21q0 -25 -2 -33v-37q0 -58 6 -110v-143q0 -5 1 -14t1 -13 v-21q0 -63 4 -84q0 -17 4 -26q4 -81 71 -135.5t148 -46.5h-2q2 2 39 2q95 13 145 86zM203 1374l-13 2q-28 19 -14 72q24 60 72 88q37 16 71 16q33 0 46 -8q45 -20 57 -28l6 -7l23 -14q12 -12 18 -12q12 -5 45 -10h8l2 -1q2 -2 6 -2q25 0 41 13q15 7 20 15t6.5 20.5t4.5 19.5 q3 9 12 18q5 0 10.5 1t8.5 0.5t8 -3.5q3 -1 5.5 -3t6 -5.5t6.5 -5.5q1 -50 -30.5 -90t-79.5 -51q-6 -2 -23 -2q-37 0 -102 26q-12 11 -16 13q-8 0 -25 12l-37 25q-32 8 -33 8q-27 0 -48 -20t-25 -50q0 -37 -37 -37z" />
<glyph unicode="&#xf6;" horiz-adv-x="858" d="M727 270q0 -2 2 -2l2 -2l-9 -30l-5 -18v1l-6 -24l-6 -29q-32 -138 -234 -170l2 2q-9 -4 -29 -4q-3 0 -5 -1t-5 -1h-6q-108 -8 -193.5 64t-97.5 182v-2q-4 28 -4 30q-6 33 -6 107v30q0 5 1 14.5t1 14.5v100q0 23 -2 25q-2 25 -2 78q0 1 -1 4t-1 6v57q0 3 1 5.5t1 5.5 q0 29 2 39v12q0 3 1 8t1 8q0 29 2 39v33q2 16 2 49q4 73 12 121l5 14v2q0 4 1 8t1 5q2 2 2 8q3 14 13.5 39.5t14.5 38.5q15 21 33 39q6 6 33 22l28 19l50 16q9 4 36 4q15 4 84 4h11q2 0 30 -4q9 0 25 -4q2 -2 12 -2l39 -17q64 -27 92 -65q64 -95 56 -168v-6q0 -1 1 -3t1 -3 v-86q0 -94 8 -170q8 -60 8 -193q2 -14 2 -41v-47q0 -4 1 -7l1 -3q0 -8 2 -10l-4 -76q-4 -46 -4 -66zM616 154l5 4l2 4q3 3 5 3l1 3q0 1 1 3.5t2.5 6.5t2.5 6l-2 -2l6 31q4 12 4 57q0 8 1 19t1 16q0 69 8 105l-1 2q-1 2 -1 6v123l-6 116q-6 55 -6 174v78q-2 8 -2 29 q-3 21 0 45q8 45 -35 111l-4 4q-30 39 -66 55q0 2 -4 2q-13 8 -41 8h-94q-3 0 -6 -1t-6 -1h-8q-28 0 -68 -14l-14 -8l-6 -2q-4 -3 -8.5 -7.5t-9.5 -10t-7 -7.5q-31 -53 -43 -98v2l-6 -39q-6 -33 -6 -94v-52q0 -3 -1 -6t-1 -6v-28q0 -31 -2 -41v-21q0 -25 -2 -33v-37 q0 -58 6 -110v-143q0 -5 1 -14t1 -13v-21q0 -63 4 -84q0 -17 4 -26q4 -81 71 -135.5t148 -46.5h-2q2 2 39 2q95 12 145 86zM549 1454v23q0 10 0.5 17t2 17t5.5 15.5t10 10t16.5 3t24.5 -7.5q19 -19 19 -55v-29q0 -32 -19 -49q-14 -6 -24.5 -7.5t-16.5 3t-10 10t-5.5 15.5 t-2 17t-0.5 17zM225 1454v23q0 10 0.5 17t2 17t5.5 15.5t10 10t16 3t24 -7.5q18 -18 18 -55v-29q0 -33 -18 -49q-14 -6 -24 -7.5t-16 3t-10 10t-5.5 15.5t-2 17t-0.5 17z" />
<glyph unicode="&#xf7;" horiz-adv-x="956" d="M319 500h-155q-21 0 -37 16q-9 22 0 41q18 18 53 18h2q1 0 2 1.5t2 1.5h60q3 -3 24 -3h254q207 0 230 -4h37q29 0 38 -30q10 -13 -6 -29q-15 -18 -51 -18h-24q-1 0 -3.5 1t-3.5 1h-12q-14 2 -35 2h-190q-37 0 -79.5 0.5t-71.5 1t-34 0.5zM471 240h25q11 0 19 -1t19.5 -4 t15.5 -9.5t7 -17.5t-6 -28q-18 -16 -55 -16h-31q-31 0 -49 16q-31 60 55 60zM471 899h25q10 0 16 -0.5t16 -1.5t15 -5t10 -10t4.5 -16t-6.5 -24q-19 -19 -55 -19h-31q-30 0 -49 19q-7 14 -8 24t4 16t10.5 10t16 5t16.5 1.5t16 0.5z" />
</font>
</defs>
</svg>
