<?xml version="1.0" standalone="no"?>
<!DOCTYPE svg PUBLIC "-//W3C//DTD SVG 1.1//EN" "http://www.w3.org/Graphics/SVG/1.1/DTD/svg11.dtd" >
<svg xmlns="http://www.w3.org/2000/svg">
<metadata>Generated by IcoMoon</metadata>
<defs>
<font id="icomoon" horiz-adv-x="512">
<font-face units-per-em="512" ascent="480" descent="-32" />
<missing-glyph horiz-adv-x="512" />
<glyph unicode="&#x20;" d="" horiz-adv-x="256" />
<glyph unicode="&#x41;" d="M368.375 321.007h-223.334v-139.589h75.767l-47.855-55.842h167.501l-47.863 55.842h75.776v139.589zM320.222 134.878h-127.027l63.514 74.103 63.514-74.103zM359.074 190.72h-74.454l-27.913 32.581-27.921-32.581h-74.445v120.977h204.731v-120.977zM256-23.466c-136.44 0-247.466 111.001-247.466 247.466 0 136.44 111.027 247.466 247.466 247.466 136.465 0 247.466-111.027 247.466-247.466 0-136.465-111.001-247.466-247.466-247.466zM256 461.884c-131.157 0-237.883-106.727-237.883-237.884 0-131.183 106.727-237.884 237.883-237.884 131.183 0 237.884 106.701 237.884 237.884 0 131.158-106.701 237.884-237.884 237.884z" />
<glyph unicode="&#x42;" d="M333.491 286.106c-34.688 0-62.814-28.118-62.814-62.805 0-22.681 12.041-42.471 30.038-53.512h-87.978c17.988 11.042 30.020 30.831 30.020 53.512 0 34.688-28.118 62.805-62.814 62.805-34.679 0-62.814-28.118-62.814-62.805s28.135-62.831 62.814-62.831h153.549c34.68 0 62.805 28.143 62.805 62.831s-28.126 62.805-62.805 62.805zM126.43 223.3c0 29.483 24.013 53.495 53.512 53.495 29.508 0 53.504-24.013 53.504-53.495 0-29.517-23.995-53.512-53.504-53.512-29.5 0.009-53.513 24.005-53.513 53.512zM333.491 169.796c-29.509 0-53.521 23.995-53.521 53.512 0 29.483 24.013 53.495 53.521 53.495s53.495-24.013 53.495-53.495c0-29.517-23.987-53.512-53.495-53.512zM256-23.466c-136.44 0-247.466 111.001-247.466 247.466 0 136.44 111.027 247.466 247.466 247.466 136.465 0 247.466-111.027 247.466-247.466 0-136.465-111.001-247.466-247.466-247.466zM256 461.884c-131.157 0-237.883-106.727-237.883-237.884 0-131.183 106.727-237.884 237.883-237.884 131.183 0 237.884 106.701 237.884 237.884 0 131.158-106.701 237.884-237.884 237.884z" />
<glyph unicode="&#x43;" d="M356.096 285.943h-39.433l-22.912 22.989c-0.026 0.025-0.051 0.043-0.077 0.077l-0.026 0.025c-3.447 3.422-8.183 5.513-13.414 5.513h-47.65c-5.538 0-10.479-2.389-13.96-6.17l-0.008 0.051-22.459-22.502h-40.251c-10.53 0-19.064-8.525-19.064-19.055v-114.389c0-10.53 8.542-19.063 19.064-19.063h200.192c10.53 0 19.063 8.542 19.063 19.063v114.415c0 10.522-8.542 19.046-19.063 19.046zM365.627 152.507c0-5.248-4.284-9.523-9.531-9.523h-200.192c-5.248 0-9.523 4.267-9.523 9.523v114.389c0 5.265 4.267 9.531 9.523 9.531h44.177l2.808 2.799 11.537 11.571 0.239-0.717 10.94 11.844c1.843 2.006 4.318 3.106 6.963 3.106h47.65c2.517 0 4.906-0.982 6.776-2.825l25.711-25.779h43.383c5.248 0 9.531-4.267 9.531-9.531v-114.389zM256 276.429c-34.219 0-61.96-27.733-61.96-61.943 0-34.236 27.733-61.969 61.96-61.969s61.961 27.733 61.961 61.969c0 34.202-27.742 61.943-61.961 61.943zM256 162.039c-28.903 0-52.429 23.518-52.429 52.438 0 28.903 23.518 52.411 52.429 52.411 28.919 0 52.438-23.51 52.438-52.411 0-28.919-23.518-52.438-52.438-52.438zM256 257.357c-23.697 0-42.888-19.183-42.888-42.88s19.2-42.906 42.888-42.906c23.697 0 42.897 19.209 42.897 42.906s-19.2 42.88-42.897 42.88zM256 181.103c-18.389 0-33.357 14.985-33.357 33.374s14.968 33.349 33.357 33.349c18.389 0 33.357-14.959 33.357-33.349s-14.967-33.374-33.357-33.374zM256-23.466c-136.44 0-247.466 111.001-247.466 247.466 0 136.44 111.027 247.466 247.466 247.466 136.465 0 247.466-111.027 247.466-247.466 0-136.465-111.001-247.466-247.466-247.466zM256 461.884c-131.157 0-237.883-106.727-237.883-237.884 0-131.183 106.727-237.884 237.883-237.884 131.183 0 237.884 106.701 237.884 237.884 0 131.158-106.701 237.884-237.884 237.884z" />
<glyph unicode="&#x44;" d="M363.059 283.776l-59.819-35.959v40.618c0 7.689-6.255 13.952-13.952 13.952h-148.898c-7.714 0-13.96-6.263-13.96-13.952v-130.296c0-7.714 6.246-13.952 13.96-13.952h148.898c7.697 0 13.952 6.238 13.952 13.952v41.421l61.15-36.762h22.596v120.977h-23.928zM293.93 158.139c0-2.56-2.082-4.659-4.642-4.659h-148.898c-2.569 0-4.65 2.099-4.65 4.659v130.296c0 2.535 2.073 4.633 4.65 4.633h148.898c2.56 0 4.642-2.099 4.642-4.633v-130.296zM377.685 172.101h-10.726l-63.727 38.315v26.538l62.404 37.512h12.041v-102.366zM256-23.466c-136.44 0-247.466 111.001-247.466 247.466 0 136.44 111.027 247.466 247.466 247.466 136.465 0 247.466-111.027 247.466-247.466 0-136.465-111.001-247.466-247.466-247.466zM256 461.884c-131.157 0-237.883-106.727-237.883-237.884 0-131.183 106.727-237.884 237.883-237.884 131.183 0 237.884 106.701 237.884 237.884 0 131.158-106.701 237.884-237.884 237.884z" />
<glyph unicode="&#x45;" d="M256.009 224.017l133.435-76.262v152.499l-133.435-76.237zM379.913 164.173l-104.704 59.835 104.704 59.827v-119.663zM122.555 224.017l133.453-76.262v152.499l-133.453-76.237zM246.477 164.173l-104.721 59.835 104.721 59.827v-119.663zM256-23.466c-136.44 0-247.466 111.001-247.466 247.466 0 136.44 111.027 247.466 247.466 247.466 136.465 0 247.466-111.027 247.466-247.466 0-136.465-111.001-247.466-247.466-247.466zM256 461.884c-131.157 0-237.883-106.727-237.883-237.884 0-131.183 106.727-237.884 237.883-237.884 131.183 0 237.884 106.701 237.884 237.884 0 131.158-106.701 237.884-237.884 237.884z" />
<glyph unicode="&#x46;" d="M122.547 147.746l133.462 76.262-133.462 76.237v-152.499zM132.079 283.836l104.704-59.827-104.704-59.835v119.663zM389.453 224.017l-133.445 76.237v-152.499l133.445 76.262zM265.531 283.836l104.704-59.827-104.704-59.835v119.663zM256-23.466c-136.44 0-247.466 111.001-247.466 247.466 0 136.44 111.027 247.466 247.466 247.466 136.465 0 247.466-111.027 247.466-247.466 0-136.465-111.001-247.466-247.466-247.466zM256 461.884c-131.157 0-237.883-106.727-237.883-237.884 0-131.183 106.727-237.884 237.883-237.884 131.183 0 237.884 106.701 237.884 237.884 0 131.158-106.701 237.884-237.884 237.884z" />
<glyph unicode="&#x47;" d="M182.255 304.793l139.716-81.519-139.716-81.493v163.012zM172.962 321.007v-195.43l167.493 97.698-167.493 97.733zM256-23.466c-136.44 0-247.466 111.001-247.466 247.466 0 136.44 111.027 247.466 247.466 247.466 136.465 0 247.466-111.027 247.466-247.466 0-136.465-111.001-247.466-247.466-247.466zM256 461.884c-131.157 0-237.883-106.727-237.883-237.884 0-131.183 106.727-237.884 237.883-237.884 131.183 0 237.884 106.701 237.884 237.884 0 131.158-106.701 237.884-237.884 237.884z" />
<glyph unicode="&#x48;" d="M256-23.466c-136.44 0-247.466 111.001-247.466 247.466 0 136.44 111.027 247.466 247.466 247.466 136.465 0 247.466-111.027 247.466-247.466 0-136.465-111.001-247.466-247.466-247.466zM256 461.884c-131.157 0-237.883-106.727-237.883-237.884 0-131.183 106.727-237.884 237.883-237.884 131.183 0 237.884 106.701 237.884 237.884 0 131.158-106.701 237.884-237.884 237.884zM213.751 289.732l112.682-65.749-112.683-65.724v131.473zM206.259 302.805v-157.611l135.083 78.797-135.083 78.814zM255.642 361.199c-75.964 0-137.541-61.56-137.541-137.566 0-75.947 61.577-137.531 137.541-137.531s137.541 61.585 137.541 137.531c0 76.007-61.577 137.566-137.541 137.566zM255.642 97.118c-69.786 0-126.541 56.755-126.541 126.515 0 69.794 56.755 126.575 126.541 126.575 69.769 0 126.524-56.781 126.524-126.575 0.009-69.76-56.755-126.515-126.524-126.515z" />
<glyph unicode="&#x49;" d="M364.296 285.713c-0.094 0.026-0.162 0.103-0.273 0.128l-202.257 47.65c-2.569 0.581-5.129-0.981-5.726-3.524-0.606-2.568 0.973-5.145 3.542-5.726l162.338-38.264h-171.716c-7.373 0-13.355-5.99-13.355-13.363v-144.87c0-7.373 5.99-13.363 13.355-13.363h211.584c7.382 0 13.363 5.99 13.363 13.363v144.87c0 6.519-4.676 11.929-10.854 13.099zM365.611 127.744c0-2.099-1.707-3.815-3.823-3.815h-211.584c-2.107 0-3.823 1.724-3.823 3.815v144.87c0 2.125 1.715 3.823 3.823 3.823h211.584c2.125 0 3.823-1.698 3.823-3.823v-144.87zM229.76 202.582c0-3.954-3.206-7.159-7.16-7.159s-7.16 3.205-7.16 7.159c0 3.954 3.206 7.159 7.16 7.159s7.16-3.205 7.16-7.159zM170.214 202.582c0-3.95-3.202-7.151-7.151-7.151s-7.151 3.202-7.151 7.151c0 3.95 3.202 7.151 7.151 7.151s7.151-3.202 7.151-7.151zM289.374 202.582c0-3.954-3.205-7.159-7.159-7.159s-7.159 3.205-7.159 7.159c0 3.954 3.205 7.159 7.159 7.159s7.159-3.205 7.159-7.159zM203.571 188.672c0-3.95-3.202-7.151-7.151-7.151s-7.151 3.202-7.151 7.151c0 3.95 3.202 7.151 7.151 7.151s7.151-3.202 7.151-7.151zM256 188.288c0-3.95-3.202-7.151-7.151-7.151s-7.151 3.202-7.151 7.151c0 3.95 3.202 7.151 7.151 7.151s7.151-3.202 7.151-7.151zM203.563 216.858c0-3.945-3.198-7.142-7.143-7.142s-7.143 3.198-7.143 7.142c0 3.945 3.198 7.143 7.143 7.143s7.143-3.198 7.143-7.143zM255.992 216.858c0-3.945-3.198-7.142-7.143-7.142s-7.143 3.198-7.143 7.142c0 3.945 3.198 7.143 7.143 7.143s7.143-3.198 7.143-7.143zM179.738 173.849c0-3.95-3.202-7.151-7.151-7.151s-7.151 3.202-7.151 7.151c0 3.95 3.202 7.151 7.151 7.151s7.151-3.202 7.151-7.151zM279.834 173.849c0-3.95-3.202-7.151-7.151-7.151s-7.151 3.202-7.151 7.151c0 3.95 3.202 7.151 7.151 7.151s7.151-3.202 7.151-7.151zM172.587 238.327c-3.934 0-7.143-3.234-7.143-7.16 0-3.951 3.208-7.16 7.143-7.16 3.942 0 7.151 3.208 7.151 7.16 0 3.925-3.208 7.16-7.151 7.16zM272.683 224.008c3.942 0 7.151 3.208 7.151 7.16 0 3.925-3.2 7.16-7.151 7.16s-7.151-3.234-7.151-7.16c0-3.951 3.2-7.16 7.151-7.16zM198.434 154.914c0-3.945-3.198-7.142-7.143-7.142s-7.143 3.198-7.143 7.142c0 3.945 3.198 7.142 7.143 7.142s7.143-3.198 7.143-7.142zM260.574 154.914c0-3.945-3.198-7.142-7.143-7.142s-7.143 3.198-7.143 7.142c0 3.945 3.198 7.142 7.143 7.142s7.143-3.198 7.143-7.142zM198.801 250.214c0-3.95-3.202-7.151-7.151-7.151s-7.151 3.202-7.151 7.151c0 3.95 3.202 7.151 7.151 7.151s7.151-3.202 7.151-7.151zM260.582 250.214c0-3.95-3.202-7.151-7.151-7.151s-7.151 3.202-7.151 7.151c0 3.95 3.202 7.151 7.151 7.151s7.151-3.202 7.151-7.151zM229.743 173.849c0-3.95-3.202-7.151-7.151-7.151s-7.151 3.202-7.151 7.151c0 3.95 3.202 7.151 7.151 7.151s7.151-3.202 7.151-7.151zM222.592 152.542c-3.942 0-7.151-3.209-7.151-7.159 0-3.925 3.208-7.159 7.151-7.159s7.151 3.234 7.151 7.159c0 3.951-3.208 7.159-7.151 7.159zM222.592 238.327c-3.942 0-7.151-3.234-7.151-7.16 0-3.951 3.208-7.16 7.151-7.16s7.151 3.208 7.151 7.16c0 3.925-3.208 7.16-7.151 7.16zM229.734 259.763c0-3.945-3.198-7.143-7.143-7.143s-7.143 3.198-7.143 7.143c0 3.944 3.198 7.142 7.143 7.142s7.143-3.198 7.143-7.142zM332.262 257.365c-7.894 0-14.31-6.392-14.31-14.293 0-7.876 6.417-14.293 14.31-14.293 7.885 0 14.285 6.417 14.285 14.293 0.009 7.902-6.4 14.293-14.285 14.293zM332.262 238.327c-2.637 0-4.77 2.125-4.77 4.744 0 2.629 2.142 4.77 4.77 4.77s4.762-2.15 4.762-4.77c0-2.629-2.134-4.744-4.762-4.744zM332.262 219.255c-7.894 0-14.31-6.417-14.31-14.319 0-7.877 6.417-14.293 14.31-14.293 7.885 0 14.285 6.417 14.285 14.293 0.009 7.902-6.4 14.319-14.285 14.319zM332.262 200.192c-2.637 0-4.77 2.151-4.77 4.745 0 2.628 2.142 4.77 4.77 4.77s4.762-2.151 4.762-4.77c0-2.594-2.134-4.745-4.762-4.745zM256-23.466c-136.44 0-247.466 111.001-247.466 247.466 0 136.44 111.027 247.466 247.466 247.466 136.465 0 247.466-111.027 247.466-247.466 0-136.465-111.001-247.466-247.466-247.466zM256 461.884c-131.157 0-237.883-106.727-237.883-237.884 0-131.183 106.727-237.884 237.883-237.884 131.183 0 237.884 106.701 237.884 237.884 0 131.158-106.701 237.884-237.884 237.884z" />
<glyph unicode="&#x4a;" d="M213.103 247.825v-47.65h39.083l32.401-32.401v112.461l-32.401-32.41h-39.083zM258.927 241.093l16.137 16.145v-66.457l-18.935 18.901h-33.493v28.613h33.493l2.799 2.799zM256 343.159c-65.809 0-119.151-53.359-119.151-119.159 0-65.809 53.351-119.159 119.151-119.159s119.151 53.359 119.151 119.159c0 65.8-53.342 119.159-119.151 119.159zM256 114.389c-60.45 0-109.619 49.178-109.619 109.611 0 60.45 49.169 109.637 109.619 109.637s109.619-49.195 109.619-109.637c0-60.433-49.169-109.611-109.619-109.611zM256-23.466c-136.44 0-247.466 111.001-247.466 247.466 0 136.44 111.027 247.466 247.466 247.466 136.465 0 247.466-111.027 247.466-247.466 0-136.465-111.001-247.466-247.466-247.466zM256 461.884c-131.157 0-237.883-106.727-237.883-237.884 0-131.183 106.727-237.884 237.883-237.884 131.183 0 237.884 106.701 237.884 237.884 0 131.158-106.701 237.884-237.884 237.884z" />
<glyph unicode="&#x4b;" d="M213.103 247.825v-47.65h39.083l32.401-32.401v112.461l-32.401-32.41h-39.083zM258.927 241.093l16.128 16.145v-66.457l-18.927 18.901h-33.493v28.613h33.493l2.799 2.799zM351.574 295.159l-7.68-5.7c13.645-18.287 21.726-40.943 21.726-65.459s-8.081-47.163-21.726-65.433l7.68-5.726c14.805 19.857 23.577 44.493 23.577 71.159 0 26.675-8.772 51.328-23.577 71.159zM328.525 170.010c11.264 15.104 18.031 33.75 18.031 53.99s-6.767 38.904-18.031 54.007l-7.637-5.675c10.087-13.525 16.137-30.216 16.137-48.324 0-18.125-6.050-34.79-16.137-48.307l7.637-5.692zM305.613 187.050c7.714 10.342 12.339 23.108 12.339 36.95 0 13.858-4.616 26.641-12.339 36.95l-7.629-5.674c6.528-8.755 10.445-19.542 10.445-31.274 0-11.725-3.909-22.528-10.445-31.266l7.629-5.683zM256 114.389c-60.459 0-109.619 49.178-109.619 109.611 0 60.45 49.169 109.637 109.619 109.637 30.114 0 57.404-12.262 77.243-32.008l6.767 6.792c-21.546 21.453-51.217 34.739-84.010 34.739-65.809 0-119.151-53.325-119.151-119.159 0-65.809 53.342-119.159 119.151-119.159 32.793 0 62.464 13.286 84.010 34.739l-6.767 6.793c-19.84-19.729-47.13-31.983-77.243-31.983zM256-23.466c-136.44 0-247.466 111.001-247.466 247.466 0 136.44 111.027 247.466 247.466 247.466 136.465 0 247.466-111.027 247.466-247.466 0-136.465-111.001-247.466-247.466-247.466zM256 461.884c-131.157 0-237.883-106.727-237.883-237.884 0-131.183 106.727-237.884 237.883-237.884 131.183 0 237.884 106.701 237.884 237.884 0 131.158-106.701 237.884-237.884 237.884z" />
<glyph unicode="&#x61;" d="M385.365 335.625h-257.8v-161.126h87.458l-55.237-64.461h193.349l-55.245 64.461h87.475v161.126zM329.779 120.781h-146.629l73.31 85.538 73.318-85.538zM374.622 185.233h-85.939l-32.222 37.606-32.231-37.606h-85.93v139.648h236.322v-139.648z" />
<glyph unicode="&#x62;" d="M345.096 295.339c-40.038 0-72.507-32.452-72.507-72.49 0-26.18 13.892-49.024 34.671-61.764h-101.564c20.762 12.749 34.654 35.593 34.654 61.764 0 40.047-32.461 72.49-72.499 72.49s-72.507-32.452-72.507-72.49 32.478-72.525 72.507-72.525h177.246c40.038 0 72.499 32.486 72.499 72.525s-32.469 72.49-72.499 72.49zM106.087 222.848c0 34.040 27.716 61.755 61.764 61.755 34.065 0 61.764-27.716 61.764-61.755 0-34.065-27.69-61.764-61.764-61.764-34.048-0.009-61.764 27.69-61.764 61.764zM345.096 161.075c-34.057 0-61.773 27.699-61.773 61.764 0 34.040 27.716 61.755 61.773 61.755s61.755-27.716 61.755-61.755c-0.009-34.065-27.699-61.764-61.755-61.764z" />
<glyph unicode="&#x63;" d="M371.183 295.159h-45.517l-26.445 26.538c-0.026 0.026-0.060 0.043-0.094 0.094l-0.034 0.034c-3.976 3.951-9.447 6.366-15.488 6.366h-55.006c-6.4 0-12.091-2.756-16.119-7.117l-0.017 0.059-25.924-25.976h-46.439c-12.151 0-22.007-9.839-22.007-21.99v-132.036c0-12.151 9.856-22.007 22.007-22.007h231.074c12.151 0 22.007 9.856 22.007 22.007v132.028c0.009 12.151-9.848 21.999-21.999 21.999zM382.191 141.125c0-6.058-4.941-10.991-11.008-10.991h-231.074c-6.059 0-10.991 4.923-10.991 10.991v132.036c0 6.075 4.933 11 10.991 11h50.995l3.243 3.234 13.312 13.363 0.273-0.827 12.63 13.67c2.125 2.313 4.992 3.584 8.038 3.584h55.006c2.91 0 5.666-1.135 7.825-3.26l29.671-29.756h50.074c6.058 0 11.008-4.923 11.008-11v-132.045zM255.642 284.168c-39.501 0-71.518-32.017-71.518-71.51 0-39.518 32.017-71.535 71.518-71.535s71.518 32.017 71.518 71.535c0.009 39.493-32.009 71.51-71.518 71.51zM255.642 152.132c-33.365 0-60.519 27.153-60.519 60.536 0 33.365 27.153 60.501 60.519 60.501 33.382 0 60.536-27.136 60.536-60.501 0-33.391-27.153-60.536-60.536-60.536zM255.642 262.161c-27.35 0-49.511-22.144-49.511-49.493s22.161-49.528 49.511-49.528c27.349 0 49.51 22.178 49.51 49.528s-22.152 49.493-49.511 49.493zM255.642 174.139c-21.231 0-38.511 17.297-38.511 38.519s17.28 38.494 38.511 38.494c21.231 0 38.511-17.263 38.511-38.494s-17.28-38.519-38.511-38.519z" />
<glyph unicode="&#x64;" d="M379.23 292.65l-69.052-41.506v46.882c0 8.875-7.219 16.103-16.103 16.103h-171.879c-8.909 0-16.111-7.228-16.111-16.103v-150.4c0-8.909 7.21-16.103 16.111-16.103h171.87c8.892 0 16.103 7.202 16.103 16.103v47.813l70.588-42.437h26.087v139.648h-27.614zM299.426 147.627c0-2.961-2.406-5.376-5.359-5.376h-171.87c-2.969 0-5.368 2.423-5.368 5.376v150.4c0 2.927 2.398 5.351 5.368 5.351h171.87c2.952 0 5.359-2.423 5.359-5.351v-150.4zM396.109 163.738h-12.382l-73.558 44.228v30.626l72.030 43.298h13.901v-118.152z" />
<glyph unicode="&#x65;" d="M255.65 223.667l154.035-88.038v176.042l-154.035-88.004zM398.678 154.59l-120.866 69.077 120.866 69.060v-138.137zM101.606 223.667l154.043-88.038v176.042l-154.043-88.004zM244.65 154.59l-120.883 69.077 120.883 69.060v-138.137z" />
<glyph unicode="&#x66;" d="M101.598 135.629l154.061 88.038-154.061 88.005v-176.043zM112.597 292.719l120.866-69.060-120.866-69.077v138.137zM409.694 223.667l-154.035 88.005v-176.042l154.035 88.038zM266.649 292.719l120.866-69.060-120.866-69.077v138.137z" />
<glyph unicode="&#x67;" d="M170.522 316.911l161.28-94.106-161.28-94.072v188.177zM159.795 335.625v-225.587l193.34 112.776-193.339 112.81z" />
<glyph unicode="&#x68;" d="M213.751 289.732l112.682-65.749-112.683-65.724v131.473zM206.259 302.805v-157.611l135.083 78.797-135.083 78.814zM255.642 361.199c-75.964 0-137.541-61.56-137.541-137.566 0-75.947 61.577-137.531 137.541-137.531s137.541 61.585 137.541 137.531c0 76.007-61.577 137.566-137.541 137.566zM255.642 97.118c-69.786 0-126.541 56.755-126.541 126.515 0 69.794 56.755 126.575 126.541 126.575 69.769 0 126.524-56.781 126.524-126.575 0.009-69.76-56.755-126.515-126.524-126.515z" />
<glyph unicode="&#x69;" d="M380.647 294.887c-0.111 0.026-0.188 0.119-0.315 0.154l-233.464 55.006c-2.961 0.674-5.922-1.135-6.613-4.071-0.7-2.97 1.126-5.939 4.088-6.613l187.392-44.168h-198.213c-8.507 0-15.419-6.921-15.419-15.428v-167.228c0-8.507 6.912-15.428 15.419-15.428h244.232c8.517 0 15.428 6.921 15.428 15.428v167.227c0 7.527-5.401 13.773-12.536 15.121zM382.174 112.538c0-2.415-1.962-4.403-4.411-4.403h-244.241c-2.432 0-4.411 1.988-4.411 4.403v167.227c0 2.449 1.98 4.412 4.411 4.412h244.232c2.449 0 4.411-1.963 4.411-4.412v-167.227zM217.088 207.19c-4.557 0-8.261-3.704-8.261-8.269s3.703-8.26 8.261-8.26c4.54 0 8.243 3.704 8.243 8.26s-3.703 8.269-8.243 8.269zM156.621 198.921c0-4.562-3.698-8.26-8.261-8.26s-8.261 3.698-8.261 8.26c0 4.562 3.698 8.26 8.261 8.26s8.261-3.698 8.261-8.26zM294.17 198.921c0-4.567-3.702-8.269-8.269-8.269s-8.269 3.702-8.269 8.269c0 4.567 3.702 8.269 8.269 8.269s8.269-3.702 8.269-8.269zM186.871 191.121c-4.557 0-8.251-3.704-8.251-8.269 0-4.531 3.695-8.235 8.251-8.235s8.251 3.704 8.251 8.235c0 4.557-3.703 8.269-8.251 8.269zM255.642 182.425c0-4.558-3.695-8.252-8.251-8.252s-8.251 3.695-8.251 8.252c0 4.558 3.695 8.252 8.251 8.252s8.251-3.695 8.251-8.252zM186.871 223.659c-4.557 0-8.251-3.704-8.251-8.235 0-4.565 3.695-8.269 8.251-8.269s8.251 3.704 8.251 8.269c0 4.531-3.703 8.235-8.251 8.235zM247.399 207.155c4.548 0 8.251 3.704 8.251 8.269 0 4.531-3.703 8.235-8.251 8.235-4.557 0-8.261-3.704-8.261-8.235 0-4.565 3.703-8.269 8.261-8.269zM167.612 165.76c0-4.558-3.695-8.252-8.251-8.252s-8.251 3.695-8.251 8.252c0 4.558 3.695 8.252 8.251 8.252s8.251-3.695 8.251-8.252zM283.153 165.76c0-4.558-3.695-8.252-8.252-8.252s-8.252 3.695-8.252 8.252c0 4.558 3.695 8.252 8.252 8.252s8.252-3.695 8.252-8.252zM159.36 240.188c-4.548 0-8.251-3.729-8.251-8.261 0-4.557 3.703-8.269 8.251-8.269 4.557 0 8.261 3.703 8.261 8.269 0 4.523-3.703 8.261-8.261 8.261zM274.901 223.659c4.557 0 8.252 3.703 8.252 8.269 0 4.531-3.695 8.261-8.252 8.261s-8.252-3.729-8.252-8.261c0-4.565 3.687-8.269 8.252-8.269zM180.95 152.149c-4.531 0-8.251-3.704-8.251-8.26s3.72-8.235 8.251-8.235c4.565 0 8.261 3.678 8.261 8.235s-3.695 8.26-8.261 8.26zM260.933 143.897c0-4.558-3.695-8.252-8.251-8.252s-8.251 3.695-8.251 8.252c0 4.558 3.695 8.252 8.251 8.252s8.251-3.695 8.251-8.252zM181.368 245.666c4.565 0 8.251 3.703 8.251 8.234 0 4.566-3.678 8.269-8.251 8.269-4.54 0-8.251-3.703-8.251-8.269 0-4.531 3.712-8.234 8.251-8.234zM252.68 262.161c-4.557 0-8.261-3.704-8.261-8.269 0-4.531 3.712-8.234 8.261-8.234s8.252 3.703 8.252 8.234c0 4.565-3.704 8.269-8.251 8.269zM217.079 174.003c-4.557 0-8.261-3.704-8.261-8.269 0-4.531 3.703-8.235 8.261-8.235 4.548 0 8.251 3.704 8.251 8.235 0 4.565-3.703 8.269-8.251 8.269zM217.079 141.159c-4.557 0-8.261-3.704-8.261-8.269 0-4.531 3.703-8.26 8.261-8.26 4.548 0 8.251 3.738 8.251 8.26 0 4.565-3.703 8.269-8.251 8.269zM217.079 240.188c-4.557 0-8.261-3.729-8.261-8.261 0-4.557 3.703-8.269 8.261-8.269 4.548 0 8.251 3.703 8.251 8.269 0 4.523-3.703 8.261-8.251 8.261zM217.079 273.186c-4.557 0-8.261-3.704-8.261-8.235 0-4.557 3.703-8.26 8.261-8.26 4.548 0 8.251 3.703 8.251 8.26 0 4.531-3.703 8.235-8.251 8.235zM343.68 262.161c-9.113 0-16.521-7.373-16.521-16.504 0-9.088 7.407-16.495 16.52-16.495 9.096 0 16.486 7.407 16.486 16.495 0.009 9.131-7.39 16.504-16.486 16.504zM343.68 240.188c-3.038 0-5.512 2.449-5.512 5.478s2.474 5.512 5.512 5.512c3.029 0 5.495-2.483 5.495-5.512s-2.466-5.478-5.495-5.478zM343.68 218.18c-9.113 0-16.521-7.407-16.521-16.529 0-9.088 7.407-16.503 16.52-16.503 9.096 0 16.486 7.407 16.486 16.503 0.009 9.122-7.39 16.529-16.486 16.529zM343.68 196.164c-3.038 0-5.512 2.483-5.512 5.478 0 3.029 2.474 5.512 5.512 5.512 3.029 0 5.495-2.483 5.495-5.512 0-2.995-2.466-5.478-5.495-5.478z" />
<glyph unicode="&#x6a;" d="M206.131 251.153v-55.006h45.115l37.402-37.401v129.817l-37.401-37.41h-45.115zM259.029 243.379l18.628 18.637v-76.706l-21.854 21.829h-38.665v33.032h38.665l3.226 3.208zM255.642 361.199c-75.964 0-137.541-61.585-137.541-137.549s61.577-137.549 137.541-137.549 137.541 61.585 137.541 137.549c0 75.955-61.577 137.549-137.541 137.549zM255.642 97.118c-69.777 0-126.532 56.764-126.532 126.532 0 69.777 56.755 126.558 126.532 126.558s126.532-56.781 126.532-126.558c0.009-69.76-56.755-126.533-126.532-126.533z" />
<glyph unicode="&#x6b;" d="M206.131 251.153v-55.006h45.115l37.402-37.401v129.817l-37.401-37.41h-45.115zM259.029 243.379l18.62 18.637v-76.706l-21.854 21.829h-38.665v33.032h38.665l3.234 3.208zM365.961 305.792l-8.866-6.579c15.752-21.103 25.079-47.266 25.079-75.563s-9.327-54.442-25.079-75.529l8.866-6.613c17.092 22.929 27.221 51.362 27.221 82.142 0 30.797-10.129 59.247-27.221 82.142zM339.353 161.331c13.005 17.433 20.813 38.954 20.813 62.327s-7.817 44.903-20.813 62.336l-8.815-6.553c11.639-15.607 18.628-34.885 18.628-55.783 0-20.923-6.989-40.158-18.628-55.757l8.815-6.57zM312.918 180.992c8.909 11.938 14.242 26.675 14.242 42.658 0 15.992-5.334 30.745-14.242 42.658l-8.807-6.553c7.535-10.103 12.058-22.562 12.058-36.104 0-13.534-4.514-26.001-12.058-36.087l8.807-6.57zM255.642 97.118c-69.786 0-126.541 56.764-126.541 126.532 0 69.777 56.755 126.558 126.541 126.558 34.765 0 66.262-14.157 89.165-36.95l7.808 7.834c-24.875 24.763-59.119 40.098-96.973 40.098-75.964 0-137.541-61.559-137.541-137.549 0-75.964 61.577-137.549 137.541-137.549 37.854 0 72.098 15.334 96.973 40.098l-7.808 7.834c-22.895-22.759-54.4-36.906-89.165-36.906z" />
</font>
</defs>
</svg>
