<?xml version="1.0" standalone="no"?>
<!DOCTYPE svg PUBLIC "-//W3C//DTD SVG 1.1//EN" "http://www.w3.org/Graphics/SVG/1.1/DTD/svg11.dtd" >
<svg xmlns="http://www.w3.org/2000/svg">
<metadata>Generated by IcoMoon</metadata>
<defs>
<font id="icomoon" horiz-adv-x="512">
<font-face units-per-em="512" ascent="480" descent="-32" />
<missing-glyph horiz-adv-x="512" />
<glyph unicode="&#x20;" d="" horiz-adv-x="256" />
<glyph unicode="&#x41;" d="M363.733 339.592c-0.35 0-0.657-0.077-0.99-0.102h-26.931v0.102l-185.122-0.102c-0.341 0.025-0.657 0.102-0.999 0.102-10.274 0-18.602-8.337-18.602-18.611 0-5.154 2.107-9.839 5.512-13.226l41.019-40.977v3.029c0-42.12 32.939-76.45 74.445-78.882v-74.607h-37.214v-9.318h83.746v9.31h-37.222v74.607c41.506 2.432 74.445 36.762 74.445 78.882v-3.030l41.011 40.977c3.405 3.387 5.512 8.081 5.512 13.226-0.009 10.282-8.337 18.619-18.611 18.619zM177.613 279.894l-34.466 34.483c-1.767 1.758-2.748 4.113-2.748 6.605 0 4.992 3.951 9.088 8.926 9.293 0.273-0.051 0.571-0.051 0.862-0.077l0.256-0.025h27.178v-50.279zM326.511 269.798c0-38.494-31.317-69.794-69.794-69.794-38.486 0-69.794 31.3-69.794 69.794v60.476h139.589v-60.476zM370.27 314.376l-34.466-34.483v50.279l27.435 0.025c0.298 0.025 0.572 0.025 0.87 0.077 4.95-0.205 8.926-4.301 8.926-9.293 0-2.491-0.981-4.847-2.765-6.605zM256-23.466c-136.44 0-247.466 111.001-247.466 247.466 0 136.44 111.027 247.466 247.466 247.466 136.465 0 247.466-111.027 247.466-247.466 0-136.465-111.001-247.466-247.466-247.466zM256 461.884c-131.157 0-237.883-106.727-237.883-237.884 0-131.183 106.727-237.884 237.883-237.884 131.183 0 237.884 106.701 237.884 237.884 0 131.158-106.701 237.884-237.884 237.884z" />
<glyph unicode="&#x42;" d="M335.889 176.392v74.76c0 38.946-28.168 71.245-65.212 77.815v5.93c0 5.154-4.182 9.319-9.318 9.319h-9.31c-5.137 0-9.31-4.173-9.31-9.319v-5.957c-36.966-6.656-65.041-38.912-65.041-77.79v-74.76l-32.657-26.445v-15.079h223.334v15.079l-32.486 26.445zM359.074 144.162h-204.723v1.349l32.657 26.437v79.215c0 38.494 31.3 69.794 69.794 69.794 38.469 0 69.794-31.3 69.794-69.794v-79.19l3.413-2.799 29.056-23.646v-1.365zM256.7 102.349c12.868 0 23.296 10.437 23.296 23.271h-46.575c0.017-12.834 10.436-23.27 23.279-23.27zM256-23.466c-136.44 0-247.466 111.001-247.466 247.466 0 136.44 111.027 247.466 247.466 247.466 136.465 0 247.466-111.027 247.466-247.466 0-136.465-111.001-247.466-247.466-247.466zM256 461.884c-131.157 0-237.883-106.727-237.883-237.884 0-131.183 106.727-237.884 237.883-237.884 131.183 0 237.884 106.701 237.884 237.884 0 131.158-106.701 237.884-237.884 237.884z" />
<glyph unicode="&#x43;" d="M359.074 297.728l-46.524 46.532h-102.366v-37.231h-55.834v-204.714h148.898v37.222h55.825v158.191zM312.542 331.102l33.374-33.374h-33.374v33.374zM163.661 111.616v186.112h83.755v-46.523h46.524v-139.589h-130.279zM256.709 293.88l33.374-33.365h-33.374v33.365zM303.249 148.839v111.675l-46.533 46.524h-37.222v27.913h83.754v-46.524h46.524v-139.579h-46.524zM256-23.466c-136.44 0-247.466 111.001-247.466 247.466 0 136.44 111.027 247.466 247.466 247.466 136.465 0 247.466-111.027 247.466-247.466 0-136.465-111.001-247.466-247.466-247.466zM256 461.884c-131.157 0-237.883-106.727-237.883-237.884 0-131.183 106.727-237.884 237.883-237.884 131.183 0 237.884 106.701 237.884 237.884 0 131.158-106.701 237.884-237.884 237.884z" />
<glyph unicode="&#x44;" d="M289.28 300.049v23.271h-65.135v-23.271h-79.104v-176.785h223.334v176.785h-79.096zM233.446 314.001h46.532v-13.952h-46.532v13.952zM359.074 132.548h-204.723v74.454h69.794v-18.611h65.135v18.611h69.794v-74.454zM233.446 197.683v27.938h46.532v-27.93h-46.532zM359.074 216.303h-69.794v18.637h-65.135v-18.637h-69.794v74.454h204.723v-74.454zM256-23.466c-136.44 0-247.466 111.001-247.466 247.466 0 136.44 111.027 247.466 247.466 247.466 136.465 0 247.466-111.027 247.466-247.466 0-136.465-111.001-247.466-247.466-247.466zM256 461.884c-131.157 0-237.883-106.727-237.883-237.884 0-131.183 106.727-237.884 237.883-237.884 131.183 0 237.884 106.701 237.884 237.884 0 131.158-106.701 237.884-237.884 237.884z" />
<glyph unicode="&#x45;" d="M256.717 339.601c-64.248 0-116.327-52.087-116.327-116.344 0-64.231 52.079-116.293 116.327-116.293 64.231 0 116.318 52.062 116.318 116.293 0 64.256-52.087 116.344-116.318 116.344zM363.623 227.951h-83.447c0.879 31.975 10.889 62.336 29.107 88.507 31.207-17.681 52.693-50.56 54.341-88.507zM256.717 330.308c15.719 0 30.626-3.447 44.091-9.549-18.858-27.495-29.167-59.332-30.046-92.808h-28.101c-0.87 33.476-11.17 65.314-30.046 92.808 13.465 6.11 28.391 9.549 44.101 9.549zM204.151 316.458c18.219-26.146 28.228-56.542 29.125-88.507h-83.456c1.63 37.948 23.134 70.826 54.332 88.507zM149.82 218.632h83.55c-0.896-32-10.888-62.387-29.125-88.567-31.249 17.656-52.787 50.56-54.425 88.567zM256.717 116.267c-15.71 0-30.635 3.447-44.101 9.549 18.875 27.469 29.175 59.332 30.046 92.808h28.101c0.879-33.502 11.178-65.339 30.046-92.808-13.466-6.101-28.373-9.549-44.091-9.549zM309.163 130.065c-18.236 26.146-28.202 56.567-29.099 88.567h83.55c-1.639-38.007-23.185-70.912-54.451-88.567zM256-23.466c-136.44 0-247.466 111.001-247.466 247.466 0 136.44 111.027 247.466 247.466 247.466 136.465 0 247.466-111.027 247.466-247.466 0-136.465-111.001-247.466-247.466-247.466zM256 461.884c-131.157 0-237.883-106.727-237.883-237.884 0-131.183 106.727-237.884 237.883-237.884 131.183 0 237.884 106.701 237.884 237.884 0 131.158-106.701 237.884-237.884 237.884z" />
<glyph unicode="&#x46;" d="M113.144 271.829v-95.65c0-7.8 6.314-14.131 14.114-14.131h119.322v123.913h-119.322c-7.799 0-14.114-6.315-14.114-14.131zM237.056 171.563h-109.799c-2.526 0-4.6 2.099-4.6 4.616v95.65c0 2.543 2.073 4.617 4.6 4.617h109.799v-104.883zM370.509 252.57v19.251c0 7.825-6.315 14.131-14.123 14.131h-100.25v-9.523h100.258c2.534 0 4.591-2.065 4.591-4.616v-95.65c0-2.543-2.057-4.616-4.591-4.616h-100.258v-9.523h100.25c7.808 0 14.123 6.341 14.123 14.131v19.251c15.675 0.128 28.348 12.86 28.348 28.561 0 15.744-12.68 28.501-28.348 28.603zM370.509 204.945v38.084c10.394-0.128 18.816-8.593 18.816-19.038-0.009-10.428-8.423-18.885-18.816-19.046zM256-23.466c-136.44 0-247.466 111.001-247.466 247.466 0 136.44 111.027 247.466 247.466 247.466 136.465 0 247.466-111.027 247.466-247.466 0-136.465-111.001-247.466-247.466-247.466zM256 461.884c-131.157 0-237.883-106.727-237.883-237.884 0-131.183 106.727-237.884 237.883-237.884 131.183 0 237.884 106.701 237.884 237.884 0 131.158-106.701 237.884-237.884 237.884z" />
<glyph unicode="&#x47;" d="M349.781 295.416h-120.994v4.651c0 10.274-8.32 18.611-18.602 18.611h-46.532c-10.274 0-18.611-8.337-18.611-18.611v-153.541c0-10.283 8.337-18.611 18.611-18.611h186.129c10.274 0 18.603 8.329 18.603 18.611v130.27c-0.009 10.283-8.329 18.62-18.603 18.62zM359.082 146.517c0-5.128-4.182-9.301-9.31-9.301h-186.112c-5.129 0-9.31 4.173-9.31 9.301v111.667h204.732v-111.667zM359.082 267.495h-204.732v32.571c0 5.128 4.181 9.31 9.31 9.31h46.532c5.129 0 9.31-4.182 9.31-9.31v-13.96h130.279c5.128 0 9.31-4.182 9.31-9.31v-9.301zM256-23.466c-136.44 0-247.466 111.001-247.466 247.466 0 136.44 111.027 247.466 247.466 247.466 136.465 0 247.466-111.027 247.466-247.466 0-136.465-111.001-247.466-247.466-247.466zM256 461.884c-131.157 0-237.883-106.727-237.883-237.884 0-131.183 106.727-237.884 237.883-237.884 131.183 0 237.884 106.701 237.884 237.884 0 131.158-106.701 237.884-237.884 237.884z" />
<glyph unicode="&#x48;" d="M280.499 330.001l-10.701-86.954-1.305-10.436h53.137l-88.713-116.002 10.718 86.954 1.297 10.437h-53.129l88.695 116.002zM293.939 362.88l-120.986-158.208h61.457l-14.925-120.977 120.986 158.2h-61.449l14.916 120.986zM256-23.466c-136.44 0-247.466 111.001-247.466 247.466 0 136.44 111.027 247.466 247.466 247.466 136.465 0 247.466-111.027 247.466-247.466 0-136.465-111.001-247.466-247.466-247.466zM256 461.884c-131.157 0-237.883-106.727-237.883-237.884 0-131.183 106.727-237.884 237.883-237.884 131.183 0 237.884 106.701 237.884 237.884 0 131.158-106.701 237.884-237.884 237.884z" />
<glyph unicode="&#x49;" d="M256 343.159c-65.809 0-119.151-53.325-119.151-119.176 0-65.792 53.351-119.142 119.151-119.142s119.151 53.359 119.151 119.142c0 65.851-53.342 119.176-119.151 119.176zM256 114.389c-60.459 0-109.627 49.169-109.627 109.602 0 60.459 49.169 109.654 109.627 109.654 60.442 0 109.611-49.195 109.611-109.654 0-60.442-49.169-109.602-109.611-109.602zM315.597 266.547l-76.519-74.198-26.803 26.812c-2.791 2.782-7.313 2.782-10.103 0-2.799-2.808-2.799-7.322 0-10.129l31.778-31.769c1.399-1.408 3.226-2.099 5.060-2.099 1.8 0 3.584 0.666 4.975 2.014l81.561 79.104c2.841 2.731 2.901 7.262 0.162 10.103-2.765 2.841-7.279 2.893-10.112 0.162zM256-23.466c-136.44 0-247.466 111.001-247.466 247.466 0 136.44 111.027 247.466 247.466 247.466 136.465 0 247.466-111.027 247.466-247.466 0-136.465-111.001-247.466-247.466-247.466zM256 461.884c-131.157 0-237.883-106.727-237.883-237.884 0-131.183 106.727-237.884 237.883-237.884 131.183 0 237.884 106.701 237.884 237.884 0 131.158-106.701 237.884-237.884 237.884z" />
<glyph unicode="&#x4a;" d="M346.683 238.345c0.026 0.768 0.12 1.511 0.12 2.279 0 40.781-33.084 73.856-73.873 73.856-29.406 0-54.715-17.212-66.603-42.061-5.145 2.568-10.94 4.053-17.084 4.053-18.867 0-34.5-13.713-37.547-31.719-22.477-7.714-38.656-28.954-38.656-54.067 0-31.556 25.583-57.147 57.139-57.173h176.623c28.834 0.162 52.147 23.552 52.147 52.403 0.009 28.911-23.373 52.352-52.267 52.429zM346.752 143.045h-176.554c-26.257 0.026-47.616 21.401-47.616 47.65 0 20.335 12.945 38.451 32.213 45.056l5.359 1.826 0.939 5.598c2.329 13.79 14.183 23.782 28.151 23.782 4.454 0 8.755-1.033 12.791-3.047l8.687-4.377 4.198 8.772c10.649 22.247 33.425 36.651 58.010 36.651 35.473 0 64.341-28.851 64.341-64.333 0-0.214-0.017-0.427-0.043-0.606-0.026-0.478-0.060-0.956-0.077-1.434l-0.239-9.728 9.745-0.025c23.577-0.077 42.752-19.303 42.752-42.906 0.009-23.501-19.132-42.752-42.658-42.88zM256 176.401c-18.389 0-33.357 14.959-33.357 33.357 0 18.406 14.968 33.391 33.357 33.391v-17.605l35.874 20.71-35.874 20.702v-14.293c-23.697 0-42.897-19.2-42.897-42.905 0-23.68 19.2-42.88 42.897-42.88 23.688 0 42.897 19.2 42.897 42.88h-9.531c0-18.398-14.976-33.357-33.365-33.357zM256-23.466c-136.44 0-247.466 111.001-247.466 247.466 0 136.44 111.027 247.466 247.466 247.466 136.465 0 247.466-111.027 247.466-247.466 0-136.465-111.001-247.466-247.466-247.466zM256 461.884c-131.157 0-237.883-106.727-237.883-237.884 0-131.183 106.727-237.884 237.883-237.884 131.183 0 237.884 106.701 237.884 237.884 0 131.158-106.701 237.884-237.884 237.884z" />
<glyph unicode="&#x4b;" d="M327.253 190.626h38.358v76.262h-219.221v-71.493c0-50.014 40.542-90.555 90.555-90.555 48.401 0 87.834 38.024 90.308 85.786zM327.493 257.374h28.595v-57.199h-28.595v57.199zM236.945 114.389c-44.68 0-81.024 36.327-81.024 81.015v61.969h162.040v-61.969c0-44.689-36.344-81.015-81.016-81.015zM146.389 95.317h181.103v9.523h-181.103zM194.040 338.389h9.549v-42.88h-9.549v42.88zM270.293 338.389h9.531v-42.88h-9.531v42.88zM232.175 352.683h9.531v-57.173h-9.531v57.173zM256-23.466c-136.44 0-247.466 111.001-247.466 247.466 0 136.44 111.027 247.466 247.466 247.466 136.465 0 247.466-111.027 247.466-247.466 0-136.465-111.001-247.466-247.466-247.466zM256 461.884c-131.157 0-237.883-106.727-237.883-237.884 0-131.183 106.727-237.884 237.883-237.884 131.183 0 237.884 106.701 237.884 237.884 0 131.158-106.701 237.884-237.884 237.884z" />
<glyph unicode="&#x4c;" d="M376.977 136.738l-50.551 50.543 6.741 6.759-6.733 6.733-20.216-20.207-33.715 33.707 40.507 40.517c5.393-1.937 11.034-2.918 16.819-2.918 13.346 0 25.899 5.197 35.345 14.635 14.575 14.584 18.705 36.25 10.538 55.185l-2.782 6.469-21.718-21.718-17.493-0.239 0.239 16.683 22.135 22.144-6.425 2.782c-6.323 2.731-13.031 4.113-19.942 4.113-13.354 0-25.899-5.197-35.32-14.635-13.832-13.816-18.27-33.997-11.725-52.216l-40.49-40.465-57.302 57.285 6.742 6.733-37.052 37.069-20.241-20.207 37.077-37.069 6.733 6.733 57.302-57.285-40.49-40.516c-5.41 1.937-11.077 2.918-16.879 2.918-13.355 0-25.899-5.197-35.337-14.635-14.601-14.584-18.722-36.275-10.505-55.236l2.782-6.442 22.144 22.144 16.674 0.214-0.231-17.476-21.718-21.718 6.451-2.782c6.289-2.705 12.97-4.087 19.849-4.087 13.355 0 25.899 5.171 35.328 14.609 13.807 13.815 18.253 33.971 11.759 52.13l40.507 40.55 33.715-33.707-20.233-20.233 6.733-6.733 6.741 6.733 50.551-50.543c4.505-4.505 10.496-6.998 16.853-6.998 6.366 0 12.348 2.491 16.862 6.998 9.259 9.284 9.259 24.406-0.034 33.681zM171.409 301.901l-23.586 23.603 6.742 6.733 23.578-23.603-6.733-6.733zM214.024 169.25l1.272-2.944c6.613-15.351 3.268-32.904-8.525-44.68-7.637-7.663-17.784-11.853-28.595-11.853-3.106 0-6.153 0.341-9.139 1.033l14.029 14.029 0.427 31.155-30.336-0.426-14.489-14.481c-3.183 13.5 0.726 27.742 10.803 37.82 7.646 7.637 17.8 11.853 28.603 11.853 5.598 0 11.025-1.144 16.145-3.345l2.97-1.297 96.717 96.743-1.28 2.995c-6.647 15.326-3.303 32.913 8.507 44.706 7.629 7.637 17.784 11.853 28.587 11.853 3.14 0 6.212-0.375 9.216-1.058l-14.456-14.455-0.418-30.336 31.147 0.427 14.038 14.003c3.14-13.474-0.768-27.682-10.812-37.734-7.637-7.612-17.792-11.827-28.603-11.827-5.581 0-11 1.109-16.094 3.311l-2.969 1.272-96.743-96.76zM370.245 109.798c-2.697-2.705-6.298-4.19-10.12-4.19s-7.416 1.485-10.12 4.19l-50.543 50.543 20.216 20.207 50.56-50.543c5.589-5.563 5.589-14.635 0.009-20.207zM256-23.466c-136.44 0-247.466 111.001-247.466 247.466 0 136.44 111.027 247.466 247.466 247.466 136.465 0 247.466-111.027 247.466-247.466 0-136.465-111.001-247.466-247.466-247.466zM256 461.884c-131.157 0-237.883-106.727-237.883-237.884 0-131.183 106.727-237.884 237.883-237.884 131.183 0 237.884 106.701 237.884 237.884 0 131.158-106.701 237.884-237.884 237.884z" />
<glyph unicode="&#x4d;" d="M377.753 310.323l-121.054 44.527-125.619-46.106v-171.435l125.628-45.585 4.659 1.681 120.977 43.904v171.358l-4.591 1.655zM252.058 103.322l-111.667 40.517v154.888l111.667-40.516v-154.889zM256.709 266.419l-107.579 39.040 107.579 39.475 107.478-39.526-107.478-38.989zM373.034 143.838l-111.667-40.517v154.889l111.667 40.337v-154.709zM256-23.466c-136.44 0-247.466 111.001-247.466 247.466 0 136.44 111.027 247.466 247.466 247.466 136.465 0 247.466-111.027 247.466-247.466 0-136.465-111.001-247.466-247.466-247.466zM256 461.884c-131.157 0-237.883-106.727-237.883-237.884 0-131.183 106.727-237.884 237.883-237.884 131.183 0 237.884 106.701 237.884 237.884 0 131.158-106.701 237.884-237.884 237.884z" />
<glyph unicode="&#x4e;" d="M256.717 344.26c-59.119 0-107.017-22.912-107.017-51.183v-139.588c0-28.271 47.898-51.183 107.017-51.183 59.094 0 107.008 22.912 107.008 51.183v139.597c0 28.271-47.923 51.175-107.008 51.175zM256.717 334.942c57.575 0 97.715-22.058 97.715-41.865s-40.141-41.89-97.715-41.89c-57.591 0-97.707 22.084-97.707 41.89s40.106 41.865 97.707 41.865zM354.432 162.791v-9.293c0-19.806-40.141-41.865-97.715-41.865-57.591 0-97.707 22.058-97.707 41.865v25.651c16.709-17.861 54.153-30.319 97.707-30.319s81.015 12.45 97.715 30.319v-16.358zM354.432 200.013c0-19.806-40.141-41.865-97.715-41.865-57.591 0-97.707 22.058-97.707 41.865v25.651c16.709-17.834 54.153-30.293 97.707-30.293s81.015 12.45 97.715 30.293v-25.651zM354.432 246.536c0-19.806-40.141-41.865-97.715-41.865-57.591 0-97.707 22.059-97.707 41.864v25.677c16.709-17.861 54.153-30.319 97.707-30.319s81.015 12.45 97.715 30.319v-25.677zM256-23.466c-136.44 0-247.466 111.001-247.466 247.466 0 136.44 111.027 247.466 247.466 247.466 136.465 0 247.466-111.027 247.466-247.466 0-136.465-111.001-247.466-247.466-247.466zM256 461.884c-131.157 0-237.883-106.727-237.883-237.884 0-131.183 106.727-237.884 237.883-237.884 131.183 0 237.884 106.701 237.884 237.884 0 131.158-106.701 237.884-237.884 237.884z" />
<glyph unicode="&#x4f;" d="M227.243 169.541l28.766 28.757 28.774-28.757 6.716 6.75-28.757 28.749 28.68 28.672-6.75 6.733-28.663-28.672-28.663 28.672-6.75-6.733 28.672-28.672-28.766-28.749zM136.849 305.015v-9.531h7.014l2.526-19.064c0-7.603 4.48-14.114 10.923-17.169l16.81-98.065c1.767-9.976 8.141-18.202 18.202-18.202h127.385c10.035 0 16.12 8.064 18.193 18.202l16.81 98.065c6.434 3.055 10.914 9.566 10.914 17.169l2.534 19.063h6.998v9.531h-238.31zM328.525 162.944c-0.81-3.959-3.046-10.428-8.815-10.428h-127.394c-6.486 0-8.388 7.902-8.806 10.274l-16.214 94.558h177.417l-16.188-94.404zM356.182 277.666l-0.077-0.623v-0.623c0-5.257-4.284-9.531-9.531-9.531h-181.129c-5.248 0-9.523 4.275-9.523 9.531v0.623l-0.077 0.623-2.363 17.817h205.048l-2.346-17.817zM256-23.466c-136.44 0-247.466 111.001-247.466 247.466 0 136.44 111.027 247.466 247.466 247.466 136.465 0 247.466-111.027 247.466-247.466 0-136.465-111.001-247.466-247.466-247.466zM256 461.884c-131.157 0-237.883-106.727-237.883-237.884 0-131.183 106.727-237.884 237.883-237.884 131.183 0 237.884 106.701 237.884 237.884 0 131.158-106.701 237.884-237.884 237.884z" />
<glyph unicode="&#x50;" d="M189.278 366.985v-28.595l33.357-57.199v-200.175h66.731v200.175l33.365 57.199v28.595h-133.453zM279.834 90.547h-47.659v19.106h47.659v-19.106zM281.122 286.003l-1.288-2.227v-164.582h-47.659v164.582l-1.305 2.227-24.994 42.854h100.249l-25.002-42.854zM313.19 340.958l-1.502-2.568h-111.377l-1.502 2.568v16.495h114.389v-16.495zM255.992 185.856c7.902 0 14.311 6.417 14.311 14.293v19.089c0 7.876-6.409 14.293-14.31 14.293-7.885 0-14.293-6.417-14.293-14.293v-19.089c0-7.877 6.409-14.293 14.293-14.293zM251.23 219.238c0 2.628 2.133 4.762 4.762 4.762 2.637 0 4.761-2.134 4.761-4.762v-19.089c0-2.628-2.125-4.762-4.762-4.762-2.629 0-4.762 2.134-4.762 4.762v19.089zM256-23.466c-136.44 0-247.466 111.001-247.466 247.466 0 136.44 111.027 247.466 247.466 247.466 136.465 0 247.466-111.027 247.466-247.466 0-136.465-111.001-247.466-247.466-247.466zM256 461.884c-131.157 0-237.883-106.727-237.883-237.884 0-131.183 106.727-237.884 237.883-237.884 131.183 0 237.884 106.701 237.884 237.884 0 131.158-106.701 237.884-237.884 237.884z" />
<glyph unicode="&#x51;" d="M349.773 265.225c0 51.387-41.651 93.064-93.056 93.064s-93.065-41.677-93.065-93.064c0-30.259 14.489-57.080 36.881-74.070l-0.042-0.026c0.427-0.281 0.87-0.623 1.322-0.981 0.042-0.026 0.085-0.077 0.128-0.077 7.194-5.692 17.544-18.978 17.544-36.505v-65.288h74.445v65.288c0 18.611 10.752 31.974 18.611 37.282l-0.034 0.026c22.613 16.955 37.265 43.912 37.265 74.351zM228.796 125.637h55.834v-28.066h-55.834v28.066zM256.717 255.931c-5.137 0-9.31 4.173-9.31 9.293s4.173 9.318 9.31 9.318c5.128 0 9.301-4.19 9.301-9.318s-4.181-9.293-9.301-9.293zM306.927 198.306c-0.12-0.077-0.248-0.179-0.358-0.281-10.3-7.322-21.939-23.091-21.939-44.45v-18.611h-23.262v112.325c8.005 2.073 13.952 9.293 13.952 17.937 0 10.274-8.329 18.611-18.603 18.611s-18.611-8.337-18.611-18.611c0-8.644 5.939-15.872 13.952-17.937v-112.325h-23.262v18.611c0 20.036-11.358 36.113-21.017 43.725-0.069 0.051-0.162 0.128-0.239 0.205-0.307 0.231-0.606 0.443-0.905 0.674-0.145 0.128-0.315 0.256-0.478 0.392-21.103 16.026-33.195 40.311-33.195 66.662 0 46.183 37.572 83.746 83.755 83.746 46.174 0 83.746-37.564 83.746-83.746 0-26.538-12.219-50.927-33.536-66.927zM256-23.466c-136.44 0-247.466 111.001-247.466 247.466 0 136.44 111.027 247.466 247.466 247.466 136.465 0 247.466-111.027 247.466-247.466 0-136.465-111.001-247.466-247.466-247.466zM256 461.884c-131.157 0-237.883-106.727-237.883-237.884 0-131.183 106.727-237.884 237.883-237.884 131.183 0 237.884 106.701 237.884 237.884 0 131.158-106.701 237.884-237.884 237.884z" />
<glyph unicode="&#x52;" d="M303.36 339.601v-130.168c0-25.753-20.881-46.626-46.643-46.626-25.77 0-46.651 20.864-46.651 46.626v130.168h-55.714v-130.27c0-56.542 45.833-102.358 102.366-102.358s102.358 45.824 102.358 102.358v130.27h-55.714zM163.653 330.308h37.112v-27.904h-37.112v27.904zM349.773 209.331c0-51.311-41.745-93.065-93.056-93.065-51.32 0-93.065 41.753-93.065 93.065v83.746h37.112v-83.644c0-30.831 25.096-55.945 55.953-55.945 30.848 0 55.945 25.113 55.945 55.945v83.644h37.111v-83.746zM349.773 302.404h-37.111v27.904h37.111v-27.904zM256-23.466c-136.44 0-247.466 111.001-247.466 247.466 0 136.44 111.027 247.466 247.466 247.466 136.465 0 247.466-111.027 247.466-247.466 0-136.465-111.001-247.466-247.466-247.466zM256 461.884c-131.157 0-237.883-106.727-237.883-237.884 0-131.183 106.727-237.884 237.883-237.884 131.183 0 237.884 106.701 237.884 237.884 0 131.158-106.701 237.884-237.884 237.884z" />
<glyph unicode="&#x53;" d="M318.285 333.252l-1.092 0.546-4.642 2.329-4.651-2.304v-0.025l-51.183-25.575-55.834 27.904-4.65-2.329-55.833-27.904v-195.43l60.484 30.233 55.842-27.913 4.651 2.329 2.193 1.084 48.99 24.49 60.485-30.233v195.43l-54.759 27.366zM196.224 148.77l-46.524-23.245v174.609l46.524 23.245v-174.609zM252.066 125.526l-46.532 23.245v174.618l46.532-23.245v-174.618zM307.891 148.77l-46.524-23.245v174.609l46.524 23.245v-174.609zM363.716 125.526l-46.524 23.245v174.618l46.524-23.245v-174.618zM256-23.466c-136.44 0-247.466 111.001-247.466 247.466 0 136.44 111.027 247.466 247.466 247.466 136.465 0 247.466-111.027 247.466-247.466 0-136.465-111.001-247.466-247.466-247.466zM256 461.884c-131.157 0-237.883-106.727-237.883-237.884 0-131.183 106.727-237.884 237.883-237.884 131.183 0 237.884 106.701 237.884 237.884 0 131.158-106.701 237.884-237.884 237.884z" />
<glyph unicode="&#x54;" d="M385.63 312.303l-37.111 37.094-9.071-9.113-12.706 12.714c-1.809 1.834-4.753 1.834-6.562 0l-75.4-75.383c-1.826-1.834-1.826-4.762 0-6.579 0.905-0.93 2.082-1.374 3.286-1.374 1.195 0 2.373 0.443 3.286 1.374l72.098 72.098 9.413-9.421-159.881-159.863 10.778-10.794c-4.54 2.253-9.472 3.413-14.422 3.413-8.363 0-16.708-3.209-23.083-9.583-0.649-0.649-1.28-1.349-1.877-2.074-0.307-0.367-0.597-0.726-0.853-1.058-0.333-0.443-0.631-0.853-0.93-1.297-0.231-0.307-0.47-0.623-0.674-0.93-13.542-20.344-14.131-59.255-14.131-59.255s1.408-0.077 3.874-0.077c11.17 0 43.708 1.527 60.749 18.56 10.137 10.146 12.194 25.318 6.161 37.487l11.512-11.495 175.548 175.556zM348.519 336.222l23.945-23.919-55.176-55.193-23.962 23.919 55.193 55.193zM185.839 117.342c-10.393-10.385-28.603-13.978-41.617-15.198l21.189 21.206-6.579 6.579-20.301-20.301c1.655 12.399 4.95 27.443 11.17 36.787l0.273 0.392 0.222 0.307c0.205 0.281 0.418 0.598 0.776 1.058 0.154 0.205 0.298 0.418 0.581 0.726 0.401 0.495 0.819 0.955 1.28 1.425 4.411 4.429 10.266 6.835 16.504 6.835 6.23 0 12.091-2.406 16.495-6.835 9.088-9.088 9.088-23.894 0.008-32.981zM186.137 173.849l100.617 100.599 23.945-23.944-100.617-100.6-23.945 23.945zM256-23.466c-136.44 0-247.466 111.001-247.466 247.466 0 136.44 111.027 247.466 247.466 247.466 136.465 0 247.466-111.027 247.466-247.466 0-136.465-111.001-247.466-247.466-247.466zM256 461.884c-131.157 0-237.883-106.727-237.883-237.884 0-131.183 106.727-237.884 237.883-237.884 131.183 0 237.884 106.701 237.884 237.884 0 131.158-106.701 237.884-237.884 237.884z" />
<glyph unicode="&#x55;" d="M189.286 247.816c0-5.264-4.268-9.531-9.531-9.531s-9.531 4.268-9.531 9.531c0 5.264 4.268 9.531 9.531 9.531s9.531-4.267 9.531-9.531zM217.873 247.816c0-5.264-4.268-9.531-9.531-9.531s-9.531 4.268-9.531 9.531c0 5.264 4.268 9.531 9.531 9.531s9.531-4.267 9.531-9.531zM375.151 295.475h-52.411v47.684h-133.453v-47.685h-52.438c-2.637 0-4.762-2.125-4.762-4.77v-142.984c0-2.628 2.125-4.745 4.762-4.745h52.438v-38.135h133.453v38.135h52.411c2.637 0 4.762 2.125 4.762 4.745v142.984c0 2.654-2.125 4.77-4.762 4.77zM198.81 333.611h114.398v-38.135h-114.398v38.135zM313.207 114.363h-114.398v85.811h114.398v-85.811zM370.389 152.49h-47.65v57.199h-133.453v-57.199h-47.659v133.47h228.761v-133.47zM256-23.466c-136.44 0-247.466 111.001-247.466 247.466 0 136.44 111.027 247.466 247.466 247.466 136.465 0 247.466-111.027 247.466-247.466 0-136.465-111.001-247.466-247.466-247.466zM256 461.884c-131.157 0-237.883-106.727-237.883-237.884 0-131.183 106.727-237.884 237.883-237.884 131.183 0 237.884 106.701 237.884 237.884 0 131.158-106.701 237.884-237.884 237.884z" />
<glyph unicode="&#x56;" d="M141.611 252.603c-15.795 0-28.603-12.809-28.603-28.613 0-15.778 12.808-28.587 28.603-28.587 15.786 0 28.595 12.808 28.595 28.587 0.008 15.803-12.8 28.613-28.595 28.613zM141.611 204.945c-10.513 0-19.064 8.542-19.064 19.038 0 10.53 8.55 19.064 19.064 19.064s19.064-8.542 19.064-19.064c0.008-10.496-8.542-19.038-19.064-19.038zM370.389 252.603c-15.795 0-28.603-12.809-28.603-28.613 0-15.778 12.808-28.587 28.603-28.587 15.786 0 28.595 12.808 28.595 28.587 0 15.803-12.808 28.613-28.595 28.613zM370.389 204.945c-10.505 0-19.063 8.542-19.063 19.038 0 10.53 8.567 19.064 19.063 19.064 10.513 0 19.063-8.542 19.063-19.064 0-10.496-8.55-19.038-19.063-19.038zM256 252.603c-15.795 0-28.603-12.809-28.603-28.613 0-15.778 12.809-28.587 28.603-28.587 15.786 0 28.595 12.808 28.595 28.587 0.009 15.803-12.8 28.613-28.595 28.613zM256 204.945c-10.505 0-19.055 8.542-19.055 19.038 0 10.53 8.55 19.064 19.055 19.064 10.513 0 19.063-8.542 19.063-19.064 0-10.496-8.55-19.038-19.064-19.038zM256-23.466c-136.44 0-247.466 111.001-247.466 247.466 0 136.44 111.027 247.466 247.466 247.466 136.465 0 247.466-111.027 247.466-247.466 0-136.465-111.001-247.466-247.466-247.466zM256 461.884c-131.157 0-237.883-106.727-237.883-237.884 0-131.183 106.727-237.884 237.883-237.884 131.183 0 237.884 106.701 237.884 237.884 0 131.158-106.701 237.884-237.884 237.884z" />
<glyph unicode="&#x57;" d="M349.764 288.427v37.231h-218.675v-167.51h32.563v-37.222h218.684v167.501h-32.572zM163.653 167.458h-23.262v148.881h200.072v-27.913h-176.81v-120.969zM373.034 130.227h-200.064v148.889h200.073v-148.889zM256-23.466c-136.44 0-247.466 111.001-247.466 247.466 0 136.44 111.027 247.466 247.466 247.466 136.465 0 247.466-111.027 247.466-247.466 0-136.465-111.001-247.466-247.466-247.466zM256 461.884c-131.157 0-237.883-106.727-237.883-237.884 0-131.183 106.727-237.884 237.883-237.884 131.183 0 237.884 106.701 237.884 237.884 0 131.158-106.701 237.884-237.884 237.884z" />
<glyph unicode="&#x60;" d="M256-23.466c-136.44 0-247.466 111.001-247.466 247.466 0 136.44 111.027 247.466 247.466 247.466 136.465 0 247.466-111.027 247.466-247.466 0-136.465-111.001-247.466-247.466-247.466zM256 461.884c-131.157 0-237.883-106.727-237.883-237.884 0-131.183 106.727-237.884 237.883-237.884 131.183 0 237.884 106.701 237.884 237.884 0 131.158-106.701 237.884-237.884 237.884z" />
<glyph unicode="&#x61;" d="M379.998 357.077c-0.401 0-0.751-0.094-1.144-0.12h-31.087v0.12l-213.683-0.12c-0.393 0.026-0.76 0.12-1.152 0.12-11.862 0-21.478-9.625-21.478-21.487 0-5.947 2.432-11.358 6.358-15.274l47.352-47.309v3.498c0-48.623 38.016-88.243 85.93-91.050v-86.118h-42.957v-10.76h96.674v10.76h-42.966v86.127c47.914 2.808 85.93 42.436 85.93 91.050v-3.498l47.343 47.309c3.925 3.917 6.366 9.327 6.366 15.274-0.009 11.853-9.625 21.478-21.487 21.478zM165.162 288.171l-39.791 39.8c-2.040 2.031-3.174 4.753-3.174 7.62 0 5.768 4.566 10.487 10.299 10.726 0.315-0.060 0.657-0.060 0.999-0.094l0.29-0.025h31.377v-58.026zM337.033 276.514c0-44.433-36.147-80.563-80.563-80.563-44.424 0-80.563 36.13-80.563 80.563v69.803h161.126v-69.803zM387.55 327.97l-39.782-39.8v58.026l31.659 0.025c0.341 0.034 0.666 0.034 1.007 0.094 5.717-0.239 10.3-4.958 10.3-10.726 0.009-2.867-1.127-5.59-3.183-7.62z" />
<glyph unicode="&#x62;" d="M347.861 168.695v86.306c0 44.962-32.512 82.236-75.272 89.831v6.843c0 5.948-4.83 10.761-10.76 10.761h-10.744c-5.93 0-10.744-4.813-10.744-10.761v-6.878c-42.675-7.68-75.077-44.911-75.077-89.796v-86.298l-37.701-30.524v-17.408h257.801v17.408l-37.504 30.515zM374.622 131.49h-236.314v1.553l37.701 30.507v91.452c0 44.433 36.13 80.563 80.563 80.563 44.408 0 80.563-36.13 80.563-80.563v-91.409l3.942-3.226 33.544-27.298v-1.579zM256.452 83.234c14.848 0 26.897 12.041 26.897 26.863h-53.76c0.008-14.822 12.041-26.863 26.863-26.863z" />
<glyph unicode="&#x63;" d="M374.622 308.762l-53.709 53.718h-118.153v-42.974h-64.453v-236.313h171.87v42.966h64.443v182.605zM320.913 347.281l38.528-38.528h-38.528v38.528zM149.052 93.918v214.844h96.674v-53.709h53.709v-161.126h-150.383zM256.469 304.315l38.528-38.519h-38.528v38.519zM310.178 136.892v128.905l-53.717 53.709h-42.957v32.222h96.674v-53.709h53.709v-161.118h-53.709z" />
<glyph unicode="&#x64;" d="M294.058 311.433v26.863h-75.187v-26.863h-91.306v-204.075h257.801v204.075h-91.307zM229.615 327.543h53.717v-16.111h-53.718v16.111zM374.622 118.093h-236.314v85.939h80.563v-21.487h75.187v21.487h80.563v-85.939zM229.615 193.272v32.248h53.717v-32.248h-53.718zM374.622 214.759h-80.563v21.512h-75.187v-21.512h-80.563v85.947h236.314v-85.947z" />
<glyph unicode="&#x65;" d="M256.469 357.094c-74.163 0-134.28-60.126-134.28-134.289 0-74.137 60.118-134.229 134.28-134.229 74.137 0 134.263 60.091 134.263 134.23 0 74.163-60.118 134.289-134.264 134.289zM379.87 228.207h-96.325c1.015 36.906 12.57 71.962 33.604 102.169 36.028-20.411 60.825-58.359 62.72-102.169zM256.469 346.368c18.142 0 35.353-3.976 50.893-11.025-21.769-31.736-33.664-68.488-34.68-107.127h-32.435c-0.999 38.639-12.894 75.392-34.679 107.127 15.547 7.048 32.768 11.025 50.901 11.025zM195.798 330.376c21.026-30.183 32.589-65.263 33.621-102.169h-96.341c1.886 43.81 26.701 81.758 62.72 102.169zM133.077 217.447h96.435c-1.032-36.933-12.57-72.022-33.621-102.23-36.062 20.386-60.919 58.368-62.814 102.23zM256.469 99.294c-18.142 0-35.362 3.976-50.901 11.025 21.786 31.71 33.681 68.488 34.679 107.127h32.435c1.015-38.673 12.911-75.426 34.68-107.127-15.539-7.048-32.751-11.025-50.893-11.025zM317.014 115.217c-21.051 30.183-32.555 65.297-33.587 102.23h96.443c-1.894-43.861-26.769-81.843-62.856-102.23z" />
<glyph unicode="&#x66;" d="M90.743 278.852v-110.404c0-9.002 7.287-16.315 16.29-16.315h137.737v143.036h-137.728c-9.011 0-16.299-7.279-16.299-16.315zM233.77 163.115h-126.728c-2.918 0-5.308 2.415-5.308 5.325v110.413c0 2.935 2.398 5.325 5.308 5.325h126.737v-121.063zM387.823 256.631v22.221c0 9.029-7.288 16.316-16.298 16.316h-115.729v-10.991h115.729c2.927 0 5.299-2.389 5.299-5.325v-110.404c0-2.935-2.373-5.325-5.299-5.325h-115.729v-10.991h115.721c9.011 0 16.298 7.313 16.298 16.315v22.221c18.091 0.154 32.726 14.848 32.726 32.964 0 18.15-14.626 32.879-32.717 32.999zM387.823 201.659v43.955c11.998-0.154 21.717-9.916 21.717-21.974 0-12.041-9.719-21.803-21.717-21.982z" />
<glyph unicode="&#x67;" d="M363.896 306.082h-139.656v5.368c0 11.862-9.608 21.487-21.47 21.487h-53.718c-11.862 0-21.487-9.625-21.487-21.487v-177.238c0-11.87 9.625-21.487 21.487-21.487h214.844c11.861 0 21.47 9.617 21.47 21.487v150.375c0 11.87-9.608 21.495-21.47 21.495zM374.639 134.212c0-5.922-4.83-10.735-10.743-10.735h-214.844c-5.922 0-10.744 4.813-10.744 10.735v128.896h236.331v-128.896zM374.639 273.851h-236.331v37.589c0 5.913 4.83 10.743 10.744 10.743h53.718c5.913 0 10.744-4.83 10.744-10.743v-16.119h150.383c5.922 0 10.743-4.83 10.743-10.744v-10.726z" />
<glyph unicode="&#x68;" d="M283.93 346.010l-12.356-100.377-1.51-12.041h61.329l-102.392-133.913 12.374 100.377 1.494 12.041h-61.338l102.4 133.913zM299.435 383.957l-139.656-182.613h70.938l-17.221-139.648 139.656 182.613h-70.929l17.212 139.648z" />
<glyph unicode="&#x69;" d="M255.642 361.199c-75.964 0-137.541-61.56-137.541-137.566 0-75.947 61.577-137.531 137.541-137.531s137.541 61.585 137.541 137.531c0 76.007-61.577 137.566-137.541 137.566zM255.642 97.118c-69.786 0-126.541 56.755-126.541 126.515 0 69.794 56.755 126.575 126.541 126.575 69.769 0 126.524-56.781 126.524-126.575 0.009-69.76-56.755-126.515-126.524-126.515zM324.438 272.76l-88.32-85.64-30.942 30.95c-3.226 3.217-8.44 3.217-11.665 0-3.226-3.243-3.226-8.448 0-11.69l36.677-36.668c1.613-1.622 3.729-2.415 5.837-2.415 2.073 0 4.138 0.768 5.743 2.329l94.149 91.315c3.277 3.157 3.353 8.388 0.188 11.665-3.183 3.251-8.397 3.311-11.665 0.154z" />
<glyph unicode="&#x6a;" d="M360.329 240.214c0.034 0.887 0.137 1.741 0.137 2.637 0 47.078-38.187 85.248-85.274 85.248-33.937 0-63.155-19.865-76.877-48.546-5.939 2.97-12.63 4.685-19.721 4.685-21.777 0-39.825-15.829-43.341-36.608-25.942-8.909-44.621-33.425-44.621-62.413 0-36.429 29.534-65.962 65.954-65.997h203.878c33.28 0.179 60.194 27.178 60.194 60.484 0 33.357-26.983 60.416-60.33 60.51zM360.406 130.193h-203.802c-30.311 0.026-54.971 24.704-54.971 55.006 0 23.475 14.942 44.382 37.189 52.002l6.186 2.117 1.083 6.459c2.696 15.915 16.367 27.46 32.504 27.46 5.145 0 10.112-1.195 14.771-3.524l10.026-5.052 4.847 10.129c12.297 25.685 38.588 42.308 66.961 42.308 40.952 0 74.266-33.305 74.266-74.257 0-0.248-0.026-0.487-0.043-0.7-0.034-0.554-0.068-1.101-0.086-1.655l-0.273-11.23 11.247-0.034c27.221-0.094 49.349-22.28 49.349-49.528 0-27.119-22.101-49.349-49.255-49.502zM255.642 168.704c-21.231 0-38.511 17.263-38.511 38.511s17.28 38.536 38.511 38.536v-20.327l41.413 23.902-41.412 23.911v-16.495c-27.35 0-49.511-22.161-49.511-49.527 0-27.332 22.161-49.493 49.511-49.493 27.341 0 49.519 22.161 49.519 49.493h-11c-0.009-21.248-17.288-38.511-38.519-38.511z" />
<glyph unicode="&#x6b;" d="M337.894 185.122h44.279v88.038h-253.056v-82.526c0-57.728 46.805-104.534 104.534-104.534 55.867 0 101.384 43.895 104.243 99.021zM338.168 262.169h33.015v-66.031h-33.015v66.031zM233.651 97.118c-51.576 0-93.525 41.933-93.525 93.517v71.535h187.042v-71.535c0-51.575-41.95-93.517-93.517-93.517zM129.118 75.111h209.050v10.991h-209.049zM184.124 355.687h11.017v-49.494h-11.017v49.493zM272.145 355.687h11v-49.494h-11v49.493zM228.138 372.19h11v-65.997h-11v65.997z" />
<glyph unicode="&#x6c;" d="M395.289 122.923l-58.351 58.342 7.783 7.808-7.765 7.774-23.339-23.322-38.912 38.904 46.754 46.771c6.221-2.236 12.731-3.37 19.413-3.37 15.402 0 29.892 5.999 40.798 16.896 16.819 16.837 21.589 41.847 12.16 63.702l-3.217 7.466-25.071-25.071-20.19-0.273 0.273 19.251 25.549 25.558-7.416 3.217c-7.305 3.157-15.045 4.745-23.023 4.745-15.411 0-29.901-5.999-40.772-16.896-15.966-15.949-21.094-39.245-13.534-60.271l-46.745-46.712-66.142 66.116 7.782 7.774-42.769 42.795-23.364-23.322 42.803-42.795 7.774 7.774 66.142-66.116-46.737-46.762c-6.246 2.236-12.792 3.37-19.482 3.37-15.411 0-29.901-5.999-40.79-16.896-16.853-16.837-21.615-41.873-12.126-63.761l3.217-7.441 25.557 25.558 19.251 0.248-0.264-20.173-25.071-25.071 7.45-3.217c7.262-3.123 14.976-4.711 22.912-4.711 15.411 0 29.901 5.974 40.781 16.87 15.931 15.949 21.069 39.211 13.568 60.177l46.754 46.805 38.921-38.904-23.356-23.356 7.774-7.774 7.783 7.774 58.351-58.342c5.197-5.205 12.118-8.081 19.456-8.081 7.347 0 14.259 2.875 19.464 8.081 10.692 10.701 10.692 28.151-0.034 38.861zM157.994 313.566l-27.23 27.247 7.782 7.774 27.221-27.247-7.774-7.774zM207.198 160.452l1.468-3.397c7.637-17.724 3.772-37.99-9.839-51.575-8.815-8.849-20.531-13.679-33.016-13.679-3.584 0-7.1 0.401-10.547 1.195l16.197 16.197 0.487 35.968-35.021-0.486-16.717-16.717c-3.678 15.582 0.845 32.017 12.467 43.648 8.823 8.815 20.548 13.679 33.016 13.679 6.469 0 12.723-1.314 18.637-3.857l3.43-1.502 111.641 111.667-1.476 3.456c-7.68 17.69-3.815 37.99 9.822 51.609 8.806 8.815 20.531 13.688 32.998 13.688 3.618 0 7.168-0.426 10.641-1.229l-16.691-16.682-0.486-35.021 35.951 0.487 16.205 16.162c3.627-15.548-0.887-31.958-12.485-43.563-8.815-8.781-20.539-13.654-33.016-13.654-6.442 0-12.697 1.288-18.577 3.823l-3.43 1.467-111.659-111.685zM387.524 91.827c-3.115-3.123-7.271-4.839-11.673-4.839-4.411 0-8.559 1.715-11.682 4.839l-58.342 58.342 23.339 23.322 58.359-58.342c6.434-6.425 6.434-16.896 0-23.322z" />
<glyph unicode="&#x6d;" d="M396.194 323.294l-139.733 51.397-145.007-53.223v-197.888l145.007-52.625 145.015 52.625v197.803l-5.282 1.911zM251.094 84.352l-128.896 46.762v178.791l128.896-46.771v-178.782zM256.461 272.615l-124.177 45.064 124.177 45.568 124.058-45.627-124.058-45.005zM390.733 131.115l-128.896-46.762v178.791l128.896 46.558v-178.586z" />
<glyph unicode="&#x6e;" d="M256.469 362.471c-68.241 0-123.529-26.445-123.529-59.077v-161.126c0-32.632 55.287-59.077 123.529-59.077 68.207 0 123.52 26.445 123.52 59.077v161.126c0 32.632-55.313 59.077-123.52 59.077zM256.469 351.71c66.457 0 112.793-25.464 112.793-48.325s-46.336-48.35-112.793-48.35c-66.483 0-112.785 25.489-112.785 48.35s46.302 48.325 112.785 48.325zM369.263 152.994v-10.726c0-22.861-46.336-48.325-112.793-48.325-66.483 0-112.785 25.464-112.785 48.325v29.611c19.285-20.616 62.506-34.995 112.785-34.995s93.517 14.37 112.793 34.995v-18.885zM369.263 195.968c0-22.861-46.336-48.325-112.793-48.325-66.483 0-112.785 25.464-112.785 48.325v29.619c19.285-20.591 62.506-34.961 112.785-34.961s93.517 14.378 112.793 34.961v-29.619zM369.263 249.668c0-22.861-46.336-48.325-112.793-48.325-66.483 0-112.785 25.464-112.785 48.325v29.645c19.285-20.616 62.506-34.995 112.785-34.995s93.517 14.37 112.793 34.995v-29.645z" />
<glyph unicode="&#x6f;" d="M222.447 160.793l33.203 33.186 33.211-33.186 7.765 7.783-33.203 33.186 33.11 33.101-7.791 7.774-33.093-33.101-33.083 33.101-7.782-7.774 33.093-33.101-33.212-33.186zM118.102 317.167v-11.008h8.098l2.918-21.999c0-8.781 5.171-16.29 12.603-19.823l19.405-113.195c2.040-11.52 9.395-21.009 21.009-21.009h147.047c11.589 0 18.611 9.31 21 21.009l19.405 113.195c7.424 3.524 12.595 11.042 12.595 19.823l2.927 21.999h8.081v11.008h-275.089zM339.353 153.173c-0.93-4.565-3.524-12.041-10.18-12.041h-147.038c-7.483 0-9.677 9.122-10.172 11.861l-18.714 109.15h204.792l-18.688-108.971zM371.286 285.594l-0.094-0.717v-0.717c0-6.067-4.941-11-11.008-11h-209.066c-6.059 0-11 4.933-11 11v0.717l-0.094 0.717-2.731 20.565h236.697l-2.705-20.565z" />
<glyph unicode="&#x70;" d="M178.629 388.702v-33.015l38.502-66.031v-231.065h77.022v231.074l38.519 66.031v33.015h-154.043zM283.153 69.606h-55.014v22.050h55.014v-22.050zM284.647 295.219l-1.493-2.569v-189.986h-55.014v189.986l-1.511 2.568-28.851 49.468h115.72l-28.851-49.468zM321.656 358.656l-1.733-2.969h-128.563l-1.741 2.969v19.038h132.036v-19.038zM255.633 179.618c9.122 0 16.512 7.407 16.512 16.503v22.041c0 9.088-7.39 16.495-16.512 16.495-9.096 0-16.504-7.407-16.504-16.495v-22.041c0-9.096 7.407-16.503 16.504-16.503zM250.137 218.154c0 3.029 2.466 5.495 5.495 5.495 3.046 0 5.504-2.466 5.504-5.495v-22.041c0-3.029-2.457-5.495-5.504-5.495-3.030 0-5.495 2.466-5.495 5.495v22.041z" />
<glyph unicode="&#x71;" d="M363.887 271.24c0 59.315-48.086 107.426-107.418 107.426s-107.418-48.111-107.418-107.426c0-34.935 16.726-65.894 42.565-85.495l-0.051-0.026c0.495-0.333 1.007-0.717 1.528-1.135 0.051-0.026 0.094-0.086 0.145-0.086 8.311-6.57 20.258-21.905 20.258-42.137v-75.375h85.939v75.366c0 21.487 12.408 36.906 21.487 43.034l-0.034 0.026c26.087 19.575 43 50.688 43 85.829zM224.239 110.114h64.453v-32.392h-64.452v32.392zM256.469 260.514c-5.93 0-10.744 4.813-10.744 10.726s4.813 10.76 10.744 10.76c5.913 0 10.735-4.838 10.735-10.76s-4.822-10.726-10.735-10.726zM314.437 193.988c-0.137-0.094-0.281-0.214-0.418-0.333-11.887-8.457-25.327-26.658-25.327-51.311v-21.487h-26.846v129.673c9.241 2.389 16.111 10.726 16.111 20.711 0 11.861-9.617 21.487-21.478 21.487s-21.487-9.625-21.487-21.487c0-9.984 6.861-18.321 16.102-20.711v-129.664h-26.846v21.487c0 23.125-13.107 41.685-24.261 50.474-0.085 0.060-0.188 0.154-0.273 0.239-0.358 0.273-0.7 0.512-1.049 0.776-0.171 0.154-0.367 0.298-0.554 0.452-24.354 18.5-38.315 46.524-38.315 76.945 0 53.308 43.367 96.674 96.683 96.674 53.299 0 96.674-43.358 96.674-96.674-0.009-30.635-14.114-58.777-38.716-77.252z" />
<glyph unicode="&#x72;" d="M310.315 357.094v-150.255c0-29.73-24.106-53.82-53.837-53.82-29.747 0-53.854 24.089-53.854 53.82v150.255h-64.315v-150.375c0-65.263 52.906-118.152 118.161-118.152s118.153 52.889 118.153 118.153v150.375h-64.307zM149.052 346.368h42.838v-32.214h-42.838v32.214zM363.887 206.72c0-59.23-48.188-107.426-107.418-107.426-59.247 0-107.418 48.205-107.418 107.426v96.674h42.838v-96.554c0-35.592 28.97-64.581 64.581-64.581 35.601 0 64.58 28.988 64.58 64.581v96.555h42.837v-96.674zM363.887 314.154h-42.837v32.214h42.837v-32.214z" />
<glyph unicode="&#x73;" d="M327.543 349.755l-1.263 0.632-5.359 2.688-5.376-2.662v-0.034l-59.077-29.526-64.452 32.205-69.82-34.901v-225.57l69.811 34.901 64.461-32.214 5.368 2.688 2.534 1.255 56.542 28.271 69.82-34.901v225.578l-63.19 31.591zM186.641 136.807l-53.709-26.837v201.558l53.709 26.837v-201.558zM251.102 109.978l-53.718 26.837v201.558l53.718-26.838v-201.558zM315.546 136.807l-53.709-26.837v201.558l53.709 26.837v-201.558zM379.99 109.978l-53.709 26.837v201.558l53.709-26.838v-201.558z" />
<glyph unicode="&#x74;" d="M405.274 325.581l-42.837 42.82-10.471-10.522-14.669 14.669c-2.091 2.125-5.487 2.125-7.577 0l-87.040-87.014c-2.107-2.125-2.107-5.495 0-7.586 1.041-1.075 2.406-1.587 3.798-1.587 1.374 0 2.731 0.512 3.798 1.587l83.226 83.226 10.863-10.88-184.542-184.534 12.441-12.459c-5.239 2.603-10.94 3.942-16.649 3.942-9.651 0-19.286-3.704-26.641-11.059-0.743-0.743-1.477-1.553-2.168-2.389-0.359-0.418-0.683-0.837-0.981-1.229-0.392-0.512-0.734-0.99-1.075-1.493-0.273-0.358-0.537-0.717-0.776-1.075-15.633-23.483-16.316-68.403-16.316-68.403s1.63-0.086 4.472-0.086c12.894 0 50.457 1.767 70.118 21.427 11.699 11.716 14.071 29.226 7.108 43.272l13.286-13.269 202.632 202.641zM362.437 353.186l27.639-27.614-63.693-63.71-27.656 27.614 63.71 63.71zM174.651 100.531c-11.998-11.981-33.024-16.137-48.034-17.536l24.457 24.474-7.586 7.586-23.433-23.433c1.912 14.319 5.709 31.675 12.894 42.462l0.315 0.452 0.256 0.358c0.239 0.333 0.478 0.691 0.896 1.229 0.179 0.239 0.341 0.478 0.674 0.837 0.461 0.572 0.939 1.11 1.476 1.647 5.095 5.111 11.845 7.885 19.047 7.885 7.185 0 13.952-2.782 19.038-7.885 10.488-10.496 10.488-27.589 0-38.075zM174.993 165.76l116.138 116.121 27.639-27.639-116.138-116.121-27.639 27.639z" />
<glyph unicode="&#x75;" d="M178.637 251.136c0-6.079-4.928-11.008-11.008-11.008s-11.008 4.928-11.008 11.008c0 6.080 4.928 11.008 11.008 11.008s11.008-4.928 11.008-11.008zM211.635 251.136c0-6.079-4.928-11.008-11.008-11.008s-11.008 4.928-11.008 11.008c0 6.080 4.928 11.008 11.008 11.008s11.008-4.928 11.008-11.008zM393.182 306.159h-60.502v55.040h-154.043v-55.040h-60.535c-3.046 0-5.496-2.449-5.496-5.512v-165.051c0-3.029 2.449-5.478 5.495-5.478h60.536v-44.015h154.043v44.015h60.502c3.046 0 5.495 2.449 5.495 5.478v165.052c0 3.063-2.449 5.512-5.495 5.512zM189.627 350.174h132.054v-44.015h-132.054v44.015zM321.681 97.092h-132.054v99.055h132.054v-99.055zM387.687 141.107h-55.006v66.031h-154.043v-66.031h-55.014v154.061h264.064v-154.061z" />
<glyph unicode="&#x76;" d="M123.606 256.666c-18.227 0-33.016-14.78-33.016-33.032 0-18.21 14.788-32.998 33.016-32.998s33.016 14.788 33.016 32.998c0 18.244-14.788 33.033-33.016 33.033zM123.606 201.659c-12.135 0-22.007 9.856-22.007 21.974 0 12.151 9.873 22.007 22.007 22.007s22.007-9.856 22.007-22.007c0-12.118-9.864-21.974-22.007-21.974zM387.687 256.666c-18.227 0-33.015-14.78-33.015-33.032 0-18.21 14.788-32.998 33.015-32.998s33.015 14.788 33.015 32.998c-0.009 18.244-14.788 33.033-33.015 33.033zM387.687 201.659c-12.126 0-22.007 9.856-22.007 21.974 0 12.151 9.89 22.007 22.007 22.007 12.135 0 22.007-9.856 22.007-22.007 0-12.118-9.873-21.974-22.007-21.974zM255.642 256.666c-18.227 0-33.016-14.78-33.016-33.032 0-18.21 14.788-32.998 33.016-32.998s33.016 14.788 33.016 32.998c0 18.244-14.788 33.033-33.016 33.033zM255.642 201.659c-12.126 0-21.999 9.856-21.999 21.974 0 12.151 9.873 22.007 21.999 22.007 12.135 0 22.007-9.856 22.007-22.007 0.009-12.118-9.865-21.974-22.007-21.974z" />
<glyph unicode="&#x77;" d="M363.878 298.018v42.974h-252.424v-193.357h37.59v-42.966h252.433v193.349h-37.598zM149.043 158.378h-26.846v171.862h230.946v-32.222h-204.101v-139.639zM390.741 115.405h-230.946v171.87h230.946v-171.87z" />
</font>
</defs>
</svg>
