<?xml version="1.0" standalone="no"?>
<!DOCTYPE svg PUBLIC "-//W3C//DTD SVG 1.1//EN" "http://www.w3.org/Graphics/SVG/1.1/DTD/svg11.dtd" >
<svg xmlns="http://www.w3.org/2000/svg">
<metadata>Generated by IcoMoon</metadata>
<defs>
<font id="icomoon" horiz-adv-x="512">
<font-face units-per-em="512" ascent="480" descent="-32" />
<missing-glyph horiz-adv-x="512" />
<glyph unicode="&#x20;" d="" horiz-adv-x="256" />
<glyph unicode="&#x41;" d="M337.024 259.524c-11.52 0-21.145-8.184-23.347-19.055h-162.526v-9.531h162.535c2.202-10.889 11.827-19.081 23.347-19.081 13.167 0 23.825 10.683 23.825 23.842-0.009 13.15-10.666 23.825-23.834 23.825zM337.024 221.406c-7.885 0-14.293 6.409-14.293 14.293 0 7.876 6.409 14.31 14.293 14.31 7.894 0 14.293-6.434 14.293-14.31 0-7.885-6.4-14.293-14.293-14.293zM157.619 224.99h9.531v-36.514h-9.531v36.514zM186.709 224.99h9.531v-36.514h-9.531v36.514zM172.416 224.99h9.531v-28.177h-9.531v28.177zM256-23.466c-136.44 0-247.466 111.001-247.466 247.466 0 136.44 111.027 247.466 247.466 247.466 136.465 0 247.466-111.027 247.466-247.466 0-136.465-111.001-247.466-247.466-247.466zM256 461.884c-131.157 0-237.883-106.727-237.883-237.884 0-131.183 106.727-237.884 237.883-237.884 131.183 0 237.884 106.701 237.884 237.884 0 131.158-106.701 237.884-237.884 237.884z" />
<glyph unicode="&#x42;" d="M255.923 314.538c-57.916 0-104.849-46.951-104.849-104.841 0-26.291 9.702-50.304 25.685-68.711l-24.542-30.055 7.399-6.033 23.757 29.142c18.841-18.082 44.391-29.192 72.55-29.192 28.246 0 53.862 11.187 72.713 29.329l23.748-29.303 7.416 6.007-24.559 30.267c15.914 18.406 25.541 42.334 25.541 68.548-0.009 57.89-46.959 104.841-104.858 104.841zM255.923 114.363c-52.557 0-95.309 42.777-95.309 95.334s42.744 95.309 95.309 95.309 95.334-42.743 95.334-95.309-42.777-95.334-95.334-95.334zM212.83 343.151h-28.322c-26.334 0-47.65-21.334-47.65-47.667v-28.681h13.534l62.439 62.78v13.568zM203.281 333.517l-56.909-57.173v19.149c0 21.026 17.101 38.136 38.136 38.136h18.773v-0.111zM327.493 343.151h-28.348v-13.568l62.438-62.779h13.568v28.68c-0.009 26.334-21.351 47.667-47.659 47.667zM365.627 276.344h-0.077l-56.858 57.173v0.103h18.799c21.026 0 38.135-17.101 38.135-38.136v-19.141zM251.23 209.698h-52.54v-9.531h62.080v85.786h-9.541zM256-23.466c-136.44 0-247.466 111.001-247.466 247.466 0 136.44 111.027 247.466 247.466 247.466 136.465 0 247.466-111.027 247.466-247.466 0-136.465-111.001-247.466-247.466-247.466zM256 461.884c-131.157 0-237.883-106.727-237.883-237.884 0-131.183 106.727-237.884 237.883-237.884 131.183 0 237.884 106.701 237.884 237.884 0 131.158-106.701 237.884-237.884 237.884z" />
<glyph unicode="&#x43;" d="M337.11 175.966v76.587c0 39.894-28.851 72.977-66.799 79.71v6.075c0 5.274-4.284 9.549-9.549 9.549h-9.531c-5.265 0-9.531-4.267-9.531-9.549v-6.101c-37.871-6.818-66.629-39.859-66.629-79.684v-76.587l-33.451-27.085v-15.445h228.77v15.445l-33.28 27.085zM360.858 142.95h-209.707v1.382l33.451 27.067v81.152c0 39.433 32.059 71.493 71.493 71.493 39.407 0 71.493-32.060 71.493-71.493v-81.118l3.498-2.867 29.764-24.226v-1.391zM255.992 100.122c13.176 0 23.867 10.692 23.867 23.842h-47.71c0.008-13.159 10.684-23.842 23.842-23.842zM256-23.466c-136.44 0-247.466 111.001-247.466 247.466 0 136.44 111.027 247.466 247.466 247.466 136.465 0 247.466-111.027 247.466-247.466 0-136.465-111.001-247.466-247.466-247.466zM256 461.884c-131.157 0-237.883-106.727-237.883-237.884 0-131.183 106.727-237.884 237.883-237.884 131.183 0 237.884 106.701 237.884 237.884 0 131.158-106.701 237.884-237.884 237.884z" />
<glyph unicode="&#x44;" d="M174.984 171.571c-15.804 0-28.603-12.791-28.603-28.595 0-15.778 12.792-28.587 28.603-28.587 15.786 0 28.587 12.808 28.587 28.587 0 15.803-12.8 28.595-28.587 28.595zM174.984 123.904c-10.513 0-19.072 8.567-19.072 19.063 0 10.513 8.559 19.063 19.072 19.063 10.505 0 19.064-8.55 19.064-19.063 0-10.496-8.559-19.063-19.064-19.063zM174.984 333.611c-15.804 0-28.603-12.791-28.603-28.587s12.792-28.587 28.603-28.587c15.786 0 28.587 12.791 28.587 28.587s-12.8 28.587-28.587 28.587zM174.984 285.961c-10.513 0-19.072 8.55-19.072 19.063 0 10.505 8.559 19.063 19.072 19.063 10.505 0 19.064-8.567 19.064-19.063 0-10.513-8.559-19.063-19.064-19.063zM174.984 252.783c-15.804 0-28.603-12.792-28.603-28.587 0-15.804 12.792-28.586 28.603-28.586 15.786 0 28.587 12.783 28.587 28.587 0 15.795-12.8 28.587-28.587 28.587zM174.984 205.133c-10.513 0-19.072 8.567-19.072 19.064s8.559 19.064 19.072 19.064c10.505 0 19.064-8.567 19.064-19.064s-8.559-19.064-19.064-19.064zM256 171.571c-15.786 0-28.595-12.791-28.595-28.595 0-15.778 12.809-28.587 28.595-28.587 15.795 0 28.595 12.808 28.595 28.587 0 15.803-12.8 28.595-28.595 28.595zM256 123.904c-10.513 0-19.064 8.567-19.064 19.063 0 10.513 8.55 19.063 19.064 19.063s19.063-8.55 19.063-19.063c0-10.496-8.542-19.063-19.064-19.063zM256 333.611c-15.786 0-28.595-12.791-28.595-28.587s12.809-28.587 28.595-28.587c15.795 0 28.595 12.791 28.595 28.587s-12.8 28.587-28.595 28.587zM256 285.961c-10.513 0-19.064 8.55-19.064 19.063 0 10.505 8.55 19.063 19.064 19.063s19.063-8.567 19.063-19.063c0-10.513-8.542-19.063-19.064-19.063zM256 252.783c-15.786 0-28.595-12.792-28.595-28.587 0-15.804 12.809-28.586 28.595-28.586 15.795 0 28.595 12.783 28.595 28.587 0 15.795-12.8 28.587-28.595 28.587zM256 205.133c-10.513 0-19.064 8.567-19.064 19.064s8.55 19.064 19.064 19.064c10.513 0 19.063-8.567 19.063-19.064s-8.542-19.064-19.064-19.064zM337.033 171.571c-15.795 0-28.595-12.791-28.595-28.595 0-15.778 12.808-28.587 28.595-28.587s28.587 12.808 28.587 28.587c0 15.803-12.808 28.595-28.587 28.595zM337.033 123.904c-10.513 0-19.072 8.567-19.072 19.063 0 10.513 8.559 19.063 19.072 19.063s19.063-8.55 19.063-19.063c-0.009-10.496-8.55-19.063-19.063-19.063zM337.033 276.438c15.786 0 28.587 12.791 28.587 28.587s-12.8 28.587-28.587 28.587c-15.795 0-28.595-12.791-28.595-28.587s12.8-28.587 28.595-28.587zM337.033 324.096c10.513 0 19.063-8.567 19.063-19.063 0-10.513-8.542-19.064-19.063-19.064s-19.072 8.55-19.072 19.064c-0.009 10.496 8.559 19.063 19.072 19.063zM337.033 252.783c-15.795 0-28.595-12.792-28.595-28.587 0-15.804 12.808-28.586 28.595-28.586s28.587 12.783 28.587 28.587c0 15.795-12.808 28.587-28.587 28.587zM337.033 205.133c-10.513 0-19.072 8.567-19.072 19.064s8.559 19.064 19.072 19.064 19.063-8.567 19.063-19.064-8.55-19.064-19.063-19.064zM256-23.466c-136.44 0-247.466 111.001-247.466 247.466 0 136.44 111.027 247.466 247.466 247.466 136.465 0 247.466-111.027 247.466-247.466 0-136.465-111.001-247.466-247.466-247.466zM256 461.884c-131.157 0-237.883-106.727-237.883-237.884 0-131.183 106.727-237.884 237.883-237.884 131.183 0 237.884 106.701 237.884 237.884 0 131.158-106.701 237.884-237.884 237.884z" />
<glyph unicode="&#x45;" d="M165.445 338.389v-228.77l90.555 66.714 90.555-66.722v228.779h-181.112zM337.024 128.469l-81.024 59.716-5.657-4.19-75.367-55.526v200.38h162.057v-200.38zM208.333 281.19h95.335v-9.531h-95.334v9.531zM208.333 243.064h95.335v-9.531h-95.334v9.531zM256-23.466c-136.44 0-247.466 111.001-247.466 247.466 0 136.44 111.027 247.466 247.466 247.466 136.465 0 247.466-111.027 247.466-247.466 0-136.465-111.001-247.466-247.466-247.466zM256 461.884c-131.157 0-237.883-106.727-237.883-237.884 0-131.183 106.727-237.884 237.883-237.884 131.183 0 237.884 106.701 237.884 237.884 0 131.158-106.701 237.884-237.884 237.884z" />
<glyph unicode="&#x46;" d="M354.432 330.342h-83.746c-5.589 0-10.565-2.526-13.969-6.442-3.413 3.926-8.371 6.442-13.969 6.442h-83.763c-10.291 0-18.611-8.345-18.611-18.628v-158.25c0-10.274 8.32-18.611 18.611-18.611h83.763c0.077 0 0.171 0.026 0.256 0.026 4.95-0.12 8.96-4.113 9.063-9.046v-9.591h9.31v5.163h0.094v4.207c0 5.026 4.010 9.113 9.011 9.267 0.068 0 0.154-0.026 0.205-0.026h83.746c10.274 0 18.611 8.337 18.611 18.611v158.25c0 10.282-8.337 18.628-18.611 18.628zM149.683 153.464v158.25c0 5.137 4.181 9.319 9.31 9.319h83.763c5.129 0 9.293-4.182 9.293-9.319v-158.25c0-5.128-4.173-9.293-9.293-9.293h-83.763c-5.129 0-9.31 4.164-9.31 9.293zM363.75 153.464c0-5.128-4.182-9.293-9.318-9.293h-83.746c-5.128 0-9.31 4.173-9.31 9.293v158.25c0 5.137 4.181 9.319 9.31 9.319h83.746c5.137 0 9.318-4.182 9.318-9.319v-158.25zM256-23.466c-136.44 0-247.466 111.001-247.466 247.466 0 136.44 111.027 247.466 247.466 247.466 136.465 0 247.466-111.027 247.466-247.466 0-136.465-111.001-247.466-247.466-247.466zM256 461.884c-131.157 0-237.883-106.727-237.883-237.884 0-131.183 106.727-237.884 237.883-237.884 131.183 0 237.884 106.701 237.884 237.884 0 131.158-106.701 237.884-237.884 237.884z" />
<glyph unicode="&#x47;" d="M141.611 331.238v-61.96h9.549v-152.517h209.706v152.517h9.531v61.96h-228.787zM351.326 126.285h-190.651v142.993h190.651v-142.993zM360.858 278.81h-209.707v42.897h209.707v-42.897zM221.517 207.274h69.197c9.839 0 17.834 7.774 17.834 17.339v3.456c0 9.583-7.995 17.34-17.834 17.34h-69.197c-9.839 0-17.817-7.766-17.817-17.339v-3.456c0-9.566 7.987-17.34 17.817-17.34zM213.231 228.071c0 4.301 3.729 7.808 8.286 7.808h69.197c4.565 0 8.303-3.507 8.303-7.808v-3.456c0-4.301-3.738-7.8-8.303-7.8h-69.197c-4.565 0-8.286 3.498-8.286 7.799v3.456zM256-23.466c-136.44 0-247.466 111.001-247.466 247.466 0 136.44 111.027 247.466 247.466 247.466 136.465 0 247.466-111.027 247.466-247.466 0-136.465-111.001-247.466-247.466-247.466zM256 461.884c-131.157 0-237.883-106.727-237.883-237.884 0-131.183 106.727-237.884 237.883-237.884 131.183 0 237.884 106.701 237.884 237.884 0 131.158-106.701 237.884-237.884 237.884z" />
<glyph unicode="&#x48;" d="M189.278 276.429h133.47v38.136h-133.47v-38.136zM198.801 305.033h114.398v-19.064h-114.398v19.064zM322.748 338.381h-133.47c-10.53 0-19.064-8.525-19.064-19.063v-190.635c0-10.53 8.542-19.063 19.064-19.063h133.47c10.513 0 19.038 8.542 19.038 19.063v190.643c0 10.53-8.525 19.055-19.038 19.055zM332.262 128.683c0-5.274-4.267-9.531-9.523-9.531h-133.462c-5.248 0-9.514 4.258-9.514 9.531v190.643c0 5.248 4.267 9.531 9.514 9.531h133.47c5.248 0 9.523-4.284 9.523-9.531v-190.643zM198.801 233.541v28.595h-9.523v-38.135h38.136v9.541h-9.531zM198.801 185.873v28.595h-9.523v-38.127h38.136v9.531h-9.531zM198.801 138.206v28.603h-9.523v-38.127h38.136v9.523h-9.531zM246.469 233.541v28.595h-9.523v-38.135h38.119v9.541h-9.514zM294.135 233.541v28.595h-9.523v-38.135h38.135v9.541h-9.549zM246.469 185.873v28.595h-9.523v-38.127h38.119v9.531h-9.514zM246.469 138.206v28.603h-9.523v-38.127h38.119v9.523h-9.514zM294.135 138.206v76.262h-9.523v-85.786h38.135v9.523h-9.549zM256-23.466c-136.44 0-247.466 111.001-247.466 247.466 0 136.44 111.027 247.466 247.466 247.466 136.465 0 247.466-111.027 247.466-247.466 0-136.465-111.001-247.466-247.466-247.466zM256 461.884c-131.157 0-237.883-106.727-237.883-237.884 0-131.183 106.727-237.884 237.883-237.884 131.183 0 237.884 106.701 237.884 237.884 0 131.158-106.701 237.884-237.884 237.884z" />
<glyph unicode="&#x49;" d="M141.611 338.389v-228.77h228.77v228.77h-228.77zM360.849 119.134h-209.707v157.303h209.707v-157.303zM360.849 285.961h-209.707v42.905h209.707v-42.906zM213.103 314.555h14.293v-14.293h-14.293v14.293zM284.595 314.555h14.293v-14.293h-14.293v14.293zM222.097 169.301h10.001v74.726h-8.525l-0.222-1.511c-1.698-11.614-7.21-11.802-18.321-12.211l-1.724-0.069v-8.072h18.799v-52.864zM279.313 176.734c-8.977 0-15.437 6.075-15.685 14.745l-0.068 1.724h-9.967l0.042-1.826c0.315-14.106 10.437-23.603 25.165-23.603 14.865 0 26.505 11.375 26.505 25.882 0 15.803-10.325 26.402-25.685 26.402-4.429 0-8.986-1.459-12.595-3.857l3.397 17.451h31.428v9.481h-38.853l-7.586-40.482h8.618l0.529 0.819c3.012 4.702 8.507 7.611 14.344 7.611 9.523 0 16.418-7.031 16.418-16.709-0.009-8.772-5.495-17.639-16.009-17.639zM256-23.466c-136.44 0-247.466 111.001-247.466 247.466 0 136.44 111.027 247.466 247.466 247.466 136.465 0 247.466-111.027 247.466-247.466 0-136.465-111.001-247.466-247.466-247.466zM256 461.884c-131.157 0-237.883-106.727-237.883-237.884 0-131.183 106.727-237.884 237.883-237.884 131.183 0 237.884 106.701 237.884 237.884 0 131.158-106.701 237.884-237.884 237.884z" />
<glyph unicode="&#x4a;" d="M303.24 269.824v69.794h-162.85v-125.637h69.777v-69.794h96.563l37.231-37.231h5.803v37.231h23.27v125.637h-69.794zM149.691 223.291v107.008h144.239v-60.476h-83.763v-46.533h-60.475zM363.707 153.498h-23.262v-29.875l-29.866 29.875h-91.085v107.008h144.222v-107.008zM256-23.466c-136.44 0-247.466 111.001-247.466 247.466 0 136.44 111.027 247.466 247.466 247.466 136.465 0 247.466-111.027 247.466-247.466 0-136.465-111.001-247.466-247.466-247.466zM256 461.884c-131.157 0-237.883-106.727-237.883-237.884 0-131.183 106.727-237.884 237.883-237.884 131.183 0 237.884 106.701 237.884 237.884 0 131.158-106.701 237.884-237.884 237.884z" />
<glyph unicode="&#x4b;" d="M373.026 223.291c0 62.678-49.579 113.75-111.667 116.216v0.103h-9.31v-0.103c-62.080-2.458-111.659-53.538-111.659-116.216 0-64.256 52.062-116.318 116.318-116.318 22.57 0 43.606 6.451 61.449 17.553l0.068-0.077 3.464 2.355c0.043 0.026 0.077 0.026 0.12 0.077l4.113 2.799-0.060 0.077c28.613 21.171 47.163 55.194 47.163 93.534zM261.359 330.18c41.668-1.784 77.209-27.52 93.261-63.761l-93.261-36.318v100.079zM256.709 116.267c-59.025 0-107.025 48.026-107.025 107.017 0 57.447 45.508 104.431 102.366 106.889v-108.305l60.859-89.6c-16.358-10.12-35.592-16-56.2-16zM320.606 137.498l-56.772 83.567 94.157 36.71c3.704-10.82 5.752-22.417 5.752-34.483-0.009-35.081-16.99-66.279-43.136-85.794zM256-23.466c-136.44 0-247.466 111.001-247.466 247.466 0 136.44 111.027 247.466 247.466 247.466 136.465 0 247.466-111.027 247.466-247.466 0-136.465-111.001-247.466-247.466-247.466zM256 461.884c-131.157 0-237.883-106.727-237.883-237.884 0-131.183 106.727-237.884 237.883-237.884 131.183 0 237.884 106.701 237.884 237.884 0 131.158-106.701 237.884-237.884 237.884z" />
<glyph unicode="&#x4c;" d="M270.882 281.6c0-7.894-6.399-14.293-14.293-14.293s-14.293 6.399-14.293 14.293c0 7.894 6.399 14.293 14.293 14.293s14.293-6.399 14.293-14.293zM266.3 248.243v9.531h-28.595v-9.531h9.541v-81.024h-9.541v-9.531h38.136v9.531h-9.541zM256.009 343.151c-65.809 0-119.159-53.342-119.159-119.142 0-65.817 53.359-119.159 119.159-119.159 65.792 0 119.142 53.342 119.142 119.159 0 65.8-53.351 119.142-119.142 119.142zM256.009 114.381c-60.45 0-109.611 49.178-109.611 109.627 0 60.433 49.161 109.627 109.611 109.627 60.433 0 109.611-49.195 109.611-109.627 0-60.45-49.178-109.627-109.611-109.627zM256-23.466c-136.44 0-247.466 111.001-247.466 247.466 0 136.44 111.027 247.466 247.466 247.466 136.465 0 247.466-111.027 247.466-247.466 0-136.465-111.001-247.466-247.466-247.466zM256 461.884c-131.157 0-237.883-106.727-237.883-237.884 0-131.183 106.727-237.884 237.883-237.884 131.183 0 237.884 106.701 237.884 237.884 0 131.158-106.701 237.884-237.884 237.884z" />
<glyph unicode="&#x4d;" d="M256 343.151c-65.817 0-119.142-53.325-119.142-119.159 0-65.792 53.325-119.142 119.142-119.142s119.142 53.359 119.142 119.142c0 65.834-53.325 119.159-119.142 119.159zM256 114.381c-60.45 0-109.627 49.178-109.627 109.611 0 60.459 49.178 109.637 109.627 109.637s109.627-49.178 109.627-109.637c0-60.433-49.178-109.611-109.627-109.611zM255.599 286.472c-24.201 0-37.709-14.942-37.88-38.622h10.513c-0.341 17.169 8.67 29.79 26.863 29.79 12.996 0 23.842-9.19 23.842-22.528 0-8.687-4.668-15.685-10.846-21.529-12.663-11.759-16.231-17.288-16.862-33.399h10.65c0.623 14.609 0.307 14.319 13.065 27.077 8.507 7.995 14.515 16.017 14.515 28.357-0.009 19.345-15.343 30.857-33.861 30.857zM265.531 171.579c0-5.264-4.267-9.531-9.531-9.531s-9.531 4.267-9.531 9.531c0 5.264 4.268 9.531 9.531 9.531s9.531-4.267 9.531-9.531zM256-23.466c-136.44 0-247.466 111.001-247.466 247.466 0 136.44 111.027 247.466 247.466 247.466 136.465 0 247.466-111.027 247.466-247.466 0-136.465-111.001-247.466-247.466-247.466zM256 461.884c-131.157 0-237.883-106.727-237.883-237.884 0-131.183 106.727-237.884 237.883-237.884 131.183 0 237.884 106.701 237.884 237.884 0 131.158-106.701 237.884-237.884 237.884z" />
<glyph unicode="&#x4e;" d="M363.563 297.736h-223.173v-148.898h232.653v148.898h-9.481zM354.262 288.435l-89.882-89.882c-4.096-4.104-11.256-4.104-15.343 0l-89.89 89.882h195.114zM149.691 284.723l60.424-60.416-60.424-60.416v120.832zM157.125 158.157l59.579 59.571 25.754-25.745c3.806-3.806 8.875-5.913 14.259-5.913s10.445 2.108 14.25 5.913l25.753 25.745 59.579-59.571h-199.177zM363.725 163.874l-60.425 60.433 60.425 60.433v-120.866zM256-23.466c-136.44 0-247.466 111.001-247.466 247.466 0 136.44 111.027 247.466 247.466 247.466 136.465 0 247.466-111.027 247.466-247.466 0-136.465-111.001-247.466-247.466-247.466zM256 461.884c-131.157 0-237.883-106.727-237.883-237.884 0-131.183 106.727-237.884 237.883-237.884 131.183 0 237.884 106.701 237.884 237.884 0 131.158-106.701 237.884-237.884 237.884z" />
<glyph unicode="&#x4f;" d="M256.009 366.985c-52.642 0-95.334-42.692-95.334-95.317 0-17.4 4.677-33.656 12.809-47.667l82.518-142.985 82.517 142.985c8.141 14.012 12.808 30.267 12.808 47.667 0 52.625-42.683 95.317-95.317 95.317zM330.265 228.762l-74.266-128.666-74.266 128.683c-7.543 13.022-11.52 27.861-11.52 42.897 0 47.309 38.477 85.803 85.794 85.803 47.291 0 85.777-38.494 85.777-85.803 0.009-15.045-3.976-29.883-11.52-42.914zM256.009 305.015c-18.398 0-33.374-14.967-33.374-33.348 0-18.407 14.976-33.374 33.374-33.374 18.389 0 33.357 14.968 33.357 33.374 0.009 18.372-14.967 33.348-33.357 33.348zM256.009 247.825c-13.159 0-23.842 10.675-23.842 23.842 0 13.142 10.684 23.825 23.842 23.825 13.15 0 23.817-10.683 23.817-23.825 0.009-13.167-10.658-23.842-23.817-23.842zM256-23.466c-136.44 0-247.466 111.001-247.466 247.466 0 136.44 111.027 247.466 247.466 247.466 136.465 0 247.466-111.027 247.466-247.466 0-136.465-111.001-247.466-247.466-247.466zM256 461.884c-131.157 0-237.883-106.727-237.883-237.884 0-131.183 106.727-237.884 237.883-237.884 131.183 0 237.884 106.701 237.884 237.884 0 131.158-106.701 237.884-237.884 237.884z" />
<glyph unicode="&#x50;" d="M374.264 247.757l-103.663 103.663c-3.899 3.899-9.096 6.058-14.609 6.058s-10.684-2.159-14.583-6.058l-22.622-22.605h-34.279v-34.262l-47.667-47.659v-156.365h238.31v156.339l-0.887 0.887zM327.483 281.054l36.915-36.915-36.915-36.915v73.83zM248.141 344.687c4.19 4.19 11.52 4.19 15.71 0l15.855-15.872h-47.446l15.881 15.872zM194.048 319.292h95.198l28.706-28.715v-92.868l-22.067-22.093-25.284 25.301c-3.899 3.909-9.096 6.058-14.609 6.058s-10.684-2.151-14.583-6.058l-25.668-25.642-21.691 21.666v122.351zM152.107 248.679l32.41 32.376v-74.573l-37.299 37.282 4.889 4.915zM146.381 223.479v7.655l62.609-62.592-0.7-0.743-0.008 0.026-61.893-61.892v117.546zM153.976 100.045l5.12 5.146h0.025l89.019 88.994c4.19 4.207 11.52 4.207 15.71 0l94.149-94.131h-204.024zM365.619 229.718v-123.785l-61.892 61.909-0.026-0.043-1.075 1.084 62.993 62.993v-2.159zM222.635 290.697h66.722v-9.532h-66.722v9.532zM222.635 233.498h66.722v-9.523h-66.722v9.523zM222.635 262.093h47.65v-9.523h-47.65v9.523zM256-23.466c-136.44 0-247.466 111.001-247.466 247.466 0 136.44 111.027 247.466 247.466 247.466 136.465 0 247.466-111.027 247.466-247.466 0-136.465-111.001-247.466-247.466-247.466zM256 461.884c-131.157 0-237.883-106.727-237.883-237.884 0-131.183 106.727-237.884 237.883-237.884 131.183 0 237.884 106.701 237.884 237.884 0 131.158-106.701 237.884-237.884 237.884z" />
<glyph unicode="&#x51;" d="M372.164 246.486l-101.188 101.197c-3.806 3.806-8.883 5.913-14.267 5.913s-10.436-2.107-14.25-5.913l-102.058-102.050v-152.644h232.644v152.636l-0.879 0.862zM155.29 247.381l93.756 93.73c4.088 4.105 11.247 4.105 15.334 0l98.15-98.15-66.885-66.893-24.678 24.695c-3.806 3.815-8.883 5.905-14.267 5.905s-10.436-2.082-14.25-5.905l-25.046-25.037-66.893 66.867 4.779 4.787zM210.816 169.147l-0.683-0.726-0.017 0.026-60.424-60.425v122.223l61.125-61.099zM157.115 102.298l5 5h0.017l86.904 86.878c4.088 4.104 11.247 4.104 15.334 0l91.921-91.878h-199.177zM363.725 227.038v-119.023l-61.5 61.457 61.5 61.5v-3.934zM256-23.466c-136.44 0-247.466 111.001-247.466 247.466 0 136.44 111.027 247.466 247.466 247.466 136.465 0 247.466-111.027 247.466-247.466 0-136.465-111.001-247.466-247.466-247.466zM256 461.884c-131.157 0-237.883-106.727-237.883-237.884 0-131.183 106.727-237.884 237.883-237.884 131.183 0 237.884 106.701 237.884 237.884 0 131.158-106.701 237.884-237.884 237.884z" />
<glyph unicode="&#x52;" d="M256 266.897c-23.654 0-42.897-19.243-42.897-42.897 0-23.663 19.243-42.923 42.897-42.923 23.637 0 42.897 19.251 42.897 42.923 0 23.654-19.26 42.897-42.897 42.897zM256 190.626c-18.44 0-33.374 14.933-33.374 33.374 0 18.415 14.934 33.374 33.374 33.374 18.432 0 33.357-14.959 33.357-33.374 0-18.44-14.925-33.374-33.357-33.374zM375.159 200.175v47.65h-26.555c-2.134 8.926-5.504 17.357-9.959 25.113l18.457 18.458-33.707 33.707-18.074-18.082c-7.834 4.762-16.401 8.406-25.498 10.752v25.395h-47.65v-25.395c-9.122-2.346-17.664-5.99-25.514-10.752l-18.073 18.082-33.69-33.707 18.458-18.458c-4.454-7.757-7.825-16.188-9.976-25.113h-26.547v-47.65h27.367c2.346-8.542 5.863-16.546 10.343-23.936l-19.653-19.661 33.69-33.707 20.036 20.045c7.296-4.19 15.198-7.416 23.552-9.549v-28.536h47.65v28.544c8.354 2.134 16.239 5.359 23.552 9.549l20.019-20.045 33.707 33.707-19.652 19.661c4.48 7.382 7.978 15.394 10.342 23.936h27.375zM338.603 202.692c-2.082-7.543-5.214-14.771-9.293-21.504l-3.882-6.409 18.202-18.202-20.233-20.207-18.44 18.457-6.323-3.635c-6.579-3.763-13.696-6.673-21.188-8.593l-7.151-1.861v-26.385h-28.595v26.394l-7.151 1.861c-7.493 1.92-14.609 4.83-21.171 8.593l-6.34 3.635-5.145-5.171-13.295-13.286-20.224 20.207 18.202 18.202-3.882 6.409c-4.088 6.733-7.21 13.961-9.31 21.504l-1.92 6.998h-25.088v28.603h24.525l1.767 7.304c1.911 7.953 4.915 15.565 8.96 22.596l3.635 6.341-5.171 5.145-11.725 11.725 20.224 20.224 16.623-16.632 6.392 3.883c7.143 4.327 14.865 7.586 22.954 9.668l7.134 1.843v23.236h28.595v-23.236l7.151-1.843c8.089-2.082 15.803-5.342 22.938-9.668l6.392-3.883 5.299 5.291 11.324 11.341 20.233-20.224-11.725-11.725-5.171-5.146 3.635-6.34c4.027-7.031 7.057-14.635 8.96-22.596l1.75-7.304h24.525v-28.604h-25.079l-1.911-7.006zM256-23.466c-136.44 0-247.466 111.001-247.466 247.466 0 136.44 111.027 247.466 247.466 247.466 136.465 0 247.466-111.027 247.466-247.466 0-136.465-111.001-247.466-247.466-247.466zM256 461.884c-131.157 0-237.883-106.727-237.883-237.884 0-131.183 106.727-237.884 237.883-237.884 131.183 0 237.884 106.701 237.884 237.884 0 131.158-106.701 237.884-237.884 237.884z" />
<glyph unicode="&#x53;" d="M341.786 338.389c-13.175 0-23.842-10.675-23.842-23.842 0-11.52 8.192-21.137 19.063-23.339v-162.543h9.531v162.543c10.872 2.202 19.081 11.81 19.081 23.339 0.009 13.167-10.683 23.842-23.834 23.842zM341.786 300.254c-7.877 0-14.293 6.417-14.293 14.293 0 7.893 6.417 14.293 14.293 14.293s14.293-6.409 14.293-14.293c0-7.877-6.417-14.293-14.293-14.293zM174.976 156.791v162.526h-9.531v-162.534c-10.888-2.202-19.064-11.827-19.064-23.339 0-13.175 10.658-23.842 23.816-23.842 13.175 0 23.842 10.658 23.842 23.842-0.017 11.52-8.209 21.146-19.064 23.347zM170.189 119.142c-7.876 0-14.293 6.409-14.293 14.31 0 7.877 6.417 14.293 14.293 14.293 7.902 0 14.319-6.417 14.319-14.293 0-7.902-6.417-14.31-14.319-14.31zM260.762 247.347v71.97h-9.531v-71.97c-10.871-2.219-19.064-11.827-19.064-23.364 0-11.52 8.192-21.137 19.064-23.339v-71.987h9.531v71.987c10.863 2.202 19.055 11.818 19.055 23.339 0 11.537-8.2 21.154-19.055 23.364zM256 209.69c-7.902 0-14.319 6.434-14.319 14.293 0 7.893 6.417 14.293 14.319 14.293 7.877 0 14.293-6.4 14.293-14.293 0-7.859-6.417-14.293-14.293-14.293zM256-23.466c-136.44 0-247.466 111.001-247.466 247.466 0 136.44 111.027 247.466 247.466 247.466 136.465 0 247.466-111.027 247.466-247.466 0-136.465-111.001-247.466-247.466-247.466zM256 461.884c-131.157 0-237.883-106.727-237.883-237.884 0-131.183 106.727-237.884 237.883-237.884 131.183 0 237.884 106.701 237.884 237.884 0 131.158-106.701 237.884-237.884 237.884z" />
<glyph unicode="&#x54;" d="M256.026 166.87c28.954 0 52.429 23.466 52.429 52.411v95.334c0 28.945-23.475 52.429-52.429 52.429s-52.429-23.483-52.429-52.429v-95.334c0-28.945 23.475-52.411 52.429-52.411zM213.129 314.615c0 23.654 19.243 42.897 42.897 42.897s42.897-19.243 42.897-42.897v-95.334c0-23.637-19.243-42.889-42.897-42.889-23.646 0-42.897 19.251-42.897 42.889v95.334zM327.501 266.948v-47.667c0-39.416-32.077-71.493-71.493-71.493-39.424 0-71.493 32.077-71.493 71.493v47.667h-9.531v-47.667c0-43.264 34.142-78.643 76.894-80.81h-0.614v-47.974h-42.922v-9.531h95.326v9.531h-42.871v47.974h-0.657c42.752 2.176 76.894 37.546 76.894 80.81v47.667h-9.531zM256-23.466c-136.44 0-247.466 111.001-247.466 247.466 0 136.44 111.027 247.466 247.466 247.466 136.465 0 247.466-111.027 247.466-247.466 0-136.465-111.001-247.466-247.466-247.466zM256 461.884c-131.157 0-237.883-106.727-237.883-237.884 0-131.183 106.727-237.884 237.883-237.884 131.183 0 237.884 106.701 237.884 237.884 0 131.158-106.701 237.884-237.884 237.884z" />
<glyph unicode="&#x55;" d="M256.017 338.389c-63.181 0-114.398-51.234-114.398-114.398s51.217-114.373 114.398-114.373c63.163 0 114.373 51.209 114.373 114.373s-51.209 114.398-114.373 114.398zM256.017 119.134c-57.822 0-104.866 47.044-104.866 104.858 0 57.822 47.044 104.866 104.866 104.866 57.813 0 104.858-47.045 104.858-104.866-0.009-57.813-47.053-104.858-104.858-104.858zM256.017 214.469h-57.208v-9.549h66.722v94.933h-9.514zM256-23.466c-136.44 0-247.466 111.001-247.466 247.466 0 136.44 111.027 247.466 247.466 247.466 136.465 0 247.466-111.027 247.466-247.466 0-136.465-111.001-247.466-247.466-247.466zM256 461.884c-131.157 0-237.883-106.727-237.883-237.884 0-131.183 106.727-237.884 237.883-237.884 131.183 0 237.884 106.701 237.884 237.884 0 131.158-106.701 237.884-237.884 237.884z" />
<glyph unicode="&#x56;" d="M244.258 215.723c0.188-0.214 0.435-0.426 0.631-0.632 2.629-3.26 6.605-5.385 11.111-5.385 7.877 0 14.293 6.392 14.293 14.293 0 4.207-1.843 7.928-4.719 10.555-0.375 0.427-0.717 0.845-1.263 1.255l-57.787 43.981c-1.681 1.272-4.096 1.349-5.863 0-2.107-1.63-2.492-4.642-0.879-6.767l44.476-57.301zM256.009 343.143c-1.561 0-3.106-0.171-4.642-0.239v-4.933h-0.137v-52.002h9.531v47.402c58.231-2.534 104.849-50.534 104.849-109.371 0-60.433-49.169-109.602-109.611-109.602-60.459 0-109.627 49.169-109.627 109.602 0 30.233 12.305 57.634 32.154 77.482l-6.775 6.767c-21.572-21.555-34.91-51.337-34.91-84.25 0-65.792 53.342-119.134 119.159-119.134s119.142 53.342 119.142 119.134c0.009 65.809-53.317 119.142-119.134 119.142zM256-23.466c-136.44 0-247.466 111.001-247.466 247.466 0 136.44 111.027 247.466 247.466 247.466 136.465 0 247.466-111.027 247.466-247.466 0-136.465-111.001-247.466-247.466-247.466zM256 461.884c-131.157 0-237.883-106.727-237.883-237.884 0-131.183 106.727-237.884 237.883-237.884 131.183 0 237.884 106.701 237.884 237.884 0 131.158-106.701 237.884-237.884 237.884z" />
<glyph unicode="&#x57;" d="M368.401 149.572h-39.108v31.291h39.108v-31.291zM282.36 180.856h39.108v-31.291h-39.108v31.291zM235.426 180.856h39.108v-31.291h-39.108v31.291zM188.493 180.856h39.108v-31.291h-39.108v31.291zM141.56 180.856h39.108v-31.291h-39.108v31.291zM282.36 219.973h39.108v-31.291h-39.108v31.291zM235.426 219.973h39.108v-31.291h-39.108v31.291zM188.493 219.973h39.108v-31.291h-39.108v31.291zM227.601 227.789h-39.108v31.291h39.108v-31.291zM274.534 227.789h-39.108v31.291h39.108v-31.291zM321.467 227.789h-39.108v31.291h39.108v-31.291zM141.56 259.081h39.108v-31.292h-39.108v31.291zM141.56 219.973h39.108v-31.291h-39.108v31.291zM368.401 188.68h-39.108v31.291h39.108v-31.291zM368.401 227.789h-39.108v31.291h39.108v-31.291zM141.56 313.839h46.934c0-4.241 3.26-7.825 7.825-7.825 4.232 0 7.825 3.584 7.825 7.825h43.025c0-4.241 3.26-7.825 7.825-7.825 4.233 0 7.825 3.584 7.825 7.825h43.025c0-4.241 3.26-7.825 7.825-7.825 4.233 0 7.825 3.584 7.825 7.825h46.933v-46.934h-226.867v46.934zM376.226 329.481h-54.759c0 4.232-3.584 7.825-7.825 7.825-4.565 0-7.825-3.593-7.825-7.825h-43.025c0 4.232-3.584 7.825-7.825 7.825-4.565 0-7.825-3.593-7.825-7.825h-43.025c0 4.232-3.584 7.825-7.825 7.825-4.566 0-7.825-3.593-7.825-7.825h-54.758c-4.565 0-7.825-3.592-7.825-7.825v-179.909c0-4.241 3.259-7.825 7.825-7.825h242.491c4.233 0 7.825 3.584 7.825 7.825v179.909c0.026 4.233-3.567 7.825-7.8 7.825zM256-23.466c-136.44 0-247.466 111.001-247.466 247.466 0 136.44 111.027 247.466 247.466 247.466 136.465 0 247.466-111.027 247.466-247.466 0-136.465-111.001-247.466-247.466-247.466zM256 461.884c-131.157 0-237.883-106.727-237.883-237.884 0-131.183 106.727-237.884 237.883-237.884 131.183 0 237.884 106.701 237.884 237.884 0 131.158-106.701 237.884-237.884 237.884z" />
<glyph unicode="&#x58;" d="M232.243 203.998h-15.446c-2.253 0-3.865-1.928-3.865-3.865 0-2.253 1.605-3.865 3.865-3.865h15.446c2.253 0 3.865 1.604 3.865 3.865-0.008 1.937-1.613 3.865-3.865 3.865zM185.899 203.998h-15.446c-2.253 0-3.865-1.928-3.865-3.865 0-2.253 1.605-3.865 3.865-3.865h15.446c2.253 0 3.865 1.604 3.865 3.865 0 1.937-1.613 3.865-3.865 3.865zM139.554 203.998h-15.445c-2.253 0-3.865-1.928-3.865-3.865 0-2.253 1.605-3.865 3.865-3.865h15.445c2.253 0 3.865 1.604 3.865 3.865 0 1.937-1.605 3.865-3.865 3.865zM363.537 147.678c-13.192 0-23.808 10.949-23.808 23.817 0 13.192 10.615 23.808 23.808 23.808s23.808-10.615 23.808-23.808c0-12.868-10.615-23.817-23.808-23.817zM313.976 215.911c-3.865 0-7.074 3.217-7.074 7.074 0 4.19 3.217 7.407 7.074 7.407s7.082-3.217 7.082-7.407c0-3.865-3.217-7.074-7.082-7.074zM363.537 298.615c13.192 0 23.808-10.948 23.808-23.808 0-13.201-10.615-23.816-23.808-23.816s-23.808 10.615-23.808 23.816c0 12.86 10.615 23.808 23.808 23.808zM386.705 197.563c-4.19 4.505-11.913 7.074-11.913 7.074-3.541 0.964-7.399 1.928-11.264 1.928-3.541 0-6.759-0.64-9.976-1.604-0.64 0.325-1.28 0.64-2.568 0.964-4.505 2.568-8.687 5.47-10.291 7.082-3.541 3.865-4.19 7.074-4.514 9.002v2.253c0.325 1.929 0.964 5.154 4.514 9.011 1.604 1.605 5.794 4.506 10.291 7.074 0.964 0.325 1.928 0.649 2.568 0.964 3.217-0.964 6.442-1.605 9.976-1.605 18.986 0 34.757 15.769 34.757 35.081 0 18.986-15.769 34.756-34.757 34.756-19.311 0-35.080-15.769-35.080-34.757 0-5.478 1.288-10.3 3.217-14.805-1.928-16.085-21.88-18.023-21.88-18.023-56.96 34.756-104.593 42.155-104.593 42.155l89.147-61.15-39.262-26.709v-0.325h40.226c4.83 2.893 9.651 5.478 14.481 8.371 0 0 19.951-1.928 21.88-18.022-1.928-4.505-3.217-9.327-3.217-14.797 0-19.311 15.769-34.757 35.080-34.757 18.986 0 34.757 15.761 34.757 34.757 0.009 10.308-4.497 19.644-11.579 26.078zM256-23.466c-136.44 0-247.466 111.001-247.466 247.466 0 136.44 111.027 247.466 247.466 247.466 136.465 0 247.466-111.027 247.466-247.466 0-136.465-111.001-247.466-247.466-247.466zM256 461.884c-131.157 0-237.883-106.727-237.883-237.884 0-131.183 106.727-237.884 237.883-237.884 131.183 0 237.884 106.701 237.884 237.884 0 131.158-106.701 237.884-237.884 237.884z" />
<glyph unicode="&#x61;" d="M349.175 264.661c-13.303 0-24.414-9.447-26.949-21.999h-187.614v-11h187.605c2.543-12.569 13.654-22.025 26.949-22.025 15.198 0 27.503 12.339 27.503 27.52 0.009 15.181-12.296 27.503-27.495 27.503zM349.175 220.655c-9.105 0-16.495 7.39-16.495 16.504 0 9.088 7.39 16.512 16.495 16.512s16.503-7.424 16.503-16.512c-0.009-9.113-7.399-16.504-16.503-16.504zM142.080 224.785h11v-42.146h-11v42.146zM175.659 224.785h11.008v-42.146h-11.008v42.146zM159.163 224.785h11v-32.52h-11v32.52z" />
<glyph unicode="&#x62;" d="M255.548 328.158c-66.85 0-121.037-54.195-121.037-121.019 0-30.353 11.204-58.070 29.645-79.309l-28.331-34.697 8.542-6.963 27.426 33.639c21.751-20.873 51.243-33.698 83.746-33.698 32.597 0 62.174 12.92 83.934 33.851l27.409-33.826 8.559 6.938-28.348 34.944c18.363 21.24 29.483 48.87 29.483 79.13 0.009 66.816-54.187 121.011-121.029 121.011zM255.548 97.101c-60.672 0-110.012 49.374-110.012 110.046s49.339 110.012 110.012 110.012 110.046-49.339 110.046-110.012-49.374-110.046-110.046-110.046zM205.807 361.19h-32.691c-30.395 0-55.006-24.627-55.006-55.023v-33.101h15.625l72.073 72.473v15.65zM194.791 350.063l-65.69-65.997v22.101c0 24.277 19.746 44.015 44.015 44.015h21.674v-0.119zM338.168 361.19h-32.726v-15.658l72.072-72.474h15.659v33.101c0 30.405-24.635 55.032-55.006 55.032zM382.191 284.066h-0.094l-65.63 65.997v0.12h21.7c24.277 0 44.015-19.746 44.015-44.015v-22.101zM250.137 207.147h-60.647v-11.008h71.663v99.021h-11.017z" />
<glyph unicode="&#x63;" d="M349.269 168.2v88.406c0 46.054-33.305 84.241-77.107 92.015v7.014c0 6.093-4.941 11.017-11.017 11.017h-11c-6.076 0-11.008-4.933-11.008-11.017v-7.048c-43.708-7.868-76.911-46.003-76.911-91.981v-88.406l-38.614-31.266v-17.834h264.072v17.834l-38.417 31.266zM376.678 130.091h-242.065v1.596l38.613 31.249v93.671c0 45.517 37.009 82.526 82.526 82.526 45.483 0 82.526-37.009 82.526-82.526v-93.637l4.036-3.303 34.363-27.964v-1.613zM255.633 80.649c15.215 0 27.545 12.339 27.545 27.52h-55.065c0.017-15.181 12.331-27.52 27.52-27.52z" />
<glyph unicode="&#x64;" d="M162.125 163.132c-18.244 0-33.016-14.771-33.016-33.016 0-18.21 14.771-32.998 33.016-32.998 18.219 0 32.999 14.788 32.999 32.998 0 18.245-14.78 33.015-32.999 33.015zM162.125 108.109c-12.135 0-22.016 9.89-22.016 22.007 0 12.135 9.881 22.007 22.016 22.007 12.126 0 21.999-9.873 21.999-22.007 0-12.118-9.864-22.007-21.999-22.007zM162.125 350.174c-18.244 0-33.016-14.771-33.016-32.998s14.771-32.998 33.016-32.998c18.219 0 32.999 14.771 32.999 32.998s-14.78 32.998-32.999 32.998zM162.125 295.168c-12.135 0-22.016 9.873-22.016 22.007 0 12.126 9.881 22.007 22.016 22.007 12.126 0 21.999-9.89 21.999-22.007 0-12.135-9.864-22.007-21.999-22.007zM162.125 256.879c-18.244 0-33.016-14.771-33.016-32.999 0-18.245 14.771-32.998 33.016-32.998 18.219 0 32.999 14.754 32.999 32.998 0 18.227-14.78 32.999-32.999 32.999zM162.125 201.873c-12.135 0-22.016 9.89-22.016 22.007s9.881 22.007 22.016 22.007c12.126 0 21.999-9.89 21.999-22.007 0-12.126-9.864-22.007-21.999-22.007zM255.65 163.132c-18.227 0-33.016-14.771-33.016-33.016 0-18.21 14.788-32.998 33.016-32.998s33.007 14.788 33.007 32.998c0 18.245-14.779 33.015-33.007 33.015zM255.65 108.109c-12.135 0-22.007 9.89-22.007 22.007 0 12.135 9.873 22.007 22.007 22.007s21.999-9.873 21.999-22.007c0-12.118-9.865-22.007-21.999-22.007zM255.65 350.174c-18.227 0-33.016-14.771-33.016-32.998s14.788-32.998 33.016-32.998c18.227 0 33.007 14.771 33.007 32.998s-14.779 32.998-33.007 32.998zM255.65 295.168c-12.135 0-22.007 9.873-22.007 22.007 0 12.126 9.873 22.007 22.007 22.007s21.999-9.89 21.999-22.007c0-12.135-9.865-22.007-21.999-22.007zM255.65 256.879c-18.227 0-33.016-14.771-33.016-32.999 0-18.245 14.788-32.998 33.016-32.998s33.007 14.754 33.007 32.998c0 18.227-14.779 32.999-33.007 32.999zM255.65 201.873c-12.135 0-22.007 9.89-22.007 22.007s9.873 22.007 22.007 22.007c12.134 0 21.999-9.89 21.999-22.007 0-12.126-9.865-22.007-21.999-22.007zM349.175 163.132c-18.227 0-33.016-14.771-33.016-33.016 0-18.21 14.779-32.998 33.015-32.998 18.219 0 32.998 14.788 32.998 32.998 0 18.245-14.771 33.015-32.998 33.015zM349.175 108.109c-12.135 0-22.016 9.89-22.016 22.007 0 12.135 9.882 22.007 22.016 22.007s21.999-9.873 21.999-22.007c0.009-12.118-9.856-22.007-21.999-22.007zM349.175 284.185c18.219 0 32.998 14.771 32.998 32.998s-14.779 32.999-32.998 32.999c-18.227 0-33.016-14.771-33.016-32.999s14.788-32.998 33.015-32.998zM349.175 339.192c12.135 0 21.999-9.89 21.999-22.008 0-12.135-9.865-22.007-21.999-22.007s-22.016 9.873-22.016 22.007c0 12.118 9.882 22.008 22.016 22.008zM349.175 256.879c-18.227 0-33.016-14.771-33.016-32.999 0-18.245 14.779-32.998 33.015-32.998 18.219 0 32.998 14.754 32.998 32.998 0 18.227-14.771 32.999-32.998 32.999zM349.175 201.873c-12.135 0-22.016 9.89-22.016 22.007s9.882 22.007 22.016 22.007c12.135 0 21.999-9.89 21.999-22.007 0.009-12.126-9.856-22.007-21.999-22.007z" />
<glyph unicode="&#x65;" d="M151.108 355.687v-264.072l104.534 77.014 104.534-77.014v264.072h-209.066zM349.175 113.374l-93.534 68.933-6.536-4.839-86.998-64.094v231.304h187.059v-231.304zM200.619 289.664h110.046v-11h-110.046v11zM200.619 245.657h110.046v-11.008h-110.046v11.008z" />
<glyph unicode="&#x66;" d="M369.263 346.402h-96.666c-6.451 0-12.194-2.91-16.12-7.441-3.942 4.531-9.668 7.441-16.119 7.441h-96.691c-11.879 0-21.487-9.634-21.487-21.504v-182.673c0-11.861 9.608-21.487 21.487-21.487h96.691c0.085 0 0.196 0.026 0.298 0.026 5.709-0.137 10.343-4.753 10.462-10.445v-11.067h10.744v5.965h0.103v4.856c0 5.794 4.634 10.522 10.402 10.701 0.077 0 0.179-0.026 0.239-0.026h96.674c11.861 0 21.487 9.625 21.487 21.487v182.664c-0.017 11.87-9.634 21.504-21.504 21.504zM132.923 142.225v182.673c0 5.93 4.83 10.76 10.744 10.76h96.691c5.913 0 10.726-4.83 10.726-10.76v-182.673c0-5.913-4.813-10.726-10.726-10.726h-96.691c-5.922 0-10.744 4.813-10.744 10.726zM380.024 142.225c0-5.913-4.83-10.726-10.76-10.726h-96.666c-5.913 0-10.743 4.813-10.743 10.726v182.673c0 5.93 4.83 10.76 10.743 10.76h96.674c5.93 0 10.76-4.83 10.76-10.76v-182.673z" />
<glyph unicode="&#x67;" d="M123.597 347.435v-71.518h11.016v-176.051h242.065v176.051h11v71.518h-264.081zM365.679 110.856h-220.075v165.060h220.075v-165.060zM376.687 286.917h-242.065v49.51h242.065v-49.51zM215.842 204.339h79.881c11.358 0 20.582 8.977 20.582 20.019v3.985c0 11.059-9.224 20.019-20.582 20.019h-79.88c-11.358 0-20.574-8.96-20.574-20.019v-3.985c0.008-11.042 9.216-20.019 20.574-20.019zM206.276 228.344c0 4.966 4.301 9.011 9.566 9.011h79.881c5.265 0 9.583-4.045 9.583-9.011v-3.985c0-4.966-4.318-9.011-9.583-9.011h-79.88c-5.265 0-9.566 4.036-9.566 9.011v3.985z" />
<glyph unicode="&#x68;" d="M178.629 284.168h154.061v44.015h-154.061v-44.015zM189.619 317.184h132.054v-22.007h-132.054v22.007zM332.689 355.687h-154.061c-12.151 0-22.007-9.839-22.007-21.999v-220.058c0-12.151 9.856-22.007 22.007-22.007h154.061c12.135 0 21.982 9.856 21.982 22.007v220.049c0 12.16-9.848 22.008-21.982 22.008zM343.68 113.622c0-6.093-4.933-11-10.991-11h-154.061c-6.059 0-10.991 4.915-10.991 11v220.058c0 6.059 4.923 11.008 10.991 11.008h154.061c6.058 0 10.991-4.941 10.991-11.008v-220.058zM189.619 234.658v33.016h-10.991v-44.024h44.015v11.008h-11zM189.619 179.644v33.007h-10.991v-44.015h44.015v11.008h-11zM189.619 124.613v33.024h-10.991v-44.015h44.015v10.991h-11zM244.642 234.658v33.016h-10.991v-44.024h43.998v11.008h-10.983zM299.665 234.658v33.016h-10.991v-44.024h44.015v11.008h-11.017zM244.642 179.644v33.007h-10.991v-44.015h43.998v11.008h-10.983zM244.642 124.613v33.024h-10.991v-44.015h43.998v10.991h-10.983zM299.665 124.613v88.038h-10.991v-99.029h44.015v10.991h-11.017z" />
<glyph unicode="&#x69;" d="M123.606 355.687v-264.072h264.072v264.072h-264.072zM376.678 102.596h-242.065v181.589h242.065v-181.589zM376.678 295.168h-242.065v49.528h242.065v-49.528zM206.131 328.183h16.495v-16.503h-16.495v16.503zM288.657 328.183h16.503v-16.503h-16.503v16.503zM216.507 160.512h11.537v86.263h-9.839l-0.256-1.741c-1.963-13.406-8.328-13.619-21.154-14.097l-1.988-0.077v-9.319h21.701v-61.031zM282.547 169.088c-10.36 0-17.817 7.014-18.108 17.024l-0.077 1.988h-11.512l0.051-2.116c0.367-16.281 12.041-27.238 29.048-27.238 17.161 0 30.592 13.133 30.592 29.875 0 18.245-11.921 30.473-29.645 30.473-5.111 0-10.377-1.681-14.541-4.454l3.917 20.138h36.275v10.948h-44.843l-8.755-46.728h9.95l0.615 0.947c3.473 5.435 9.822 8.781 16.563 8.781 10.991 0 18.944-8.115 18.944-19.286 0-10.112-6.332-20.352-18.474-20.352z" />
<glyph unicode="&#x6a;" d="M310.17 276.548v80.563h-187.972v-145.024h80.546v-80.563h111.462l42.974-42.974h6.69v42.974h26.863v145.024h-80.563zM132.933 222.831v123.52h166.494v-69.803h-96.683v-53.717h-69.811zM379.981 142.267h-26.846v-34.483l-34.474 34.491h-105.156v123.512h166.477v-123.52z" />
<glyph unicode="&#x6b;" d="M390.733 222.831c0 72.346-57.224 131.303-128.896 134.144v0.12h-10.744v-0.12c-71.663-2.841-128.887-61.798-128.887-134.144 0-74.171 60.091-134.264 134.263-134.264 26.061 0 50.338 7.441 70.929 20.258l0.077-0.094 4.002 2.722c0.043 0.034 0.094 0.034 0.137 0.094l4.753 3.226-0.077 0.094c33.024 24.44 54.442 63.71 54.442 107.964zM261.829 346.214c48.094-2.065 89.122-31.769 107.656-73.6l-107.656-41.925v115.524zM256.469 99.294c-68.13 0-123.537 55.433-123.537 123.537 0 66.313 52.531 120.55 118.161 123.384v-125.031l70.255-103.424c-18.893-11.682-41.096-18.466-64.879-18.466zM330.214 123.801l-65.536 96.461 108.68 42.377c4.275-12.493 6.63-25.882 6.63-39.808 0.009-40.49-19.593-76.502-49.775-99.029z" />
<glyph unicode="&#x6c;" d="M272.827 290.142c0-9.114-7.389-16.503-16.503-16.503s-16.504 7.389-16.504 16.503c0 9.114 7.389 16.503 16.504 16.503s16.503-7.389 16.503-16.503zM267.529 251.631v11.008h-32.999v-11.008h11.008v-93.525h-11.008v-11.008h44.015v11.008h-11.017zM255.65 361.19c-75.963 0-137.549-61.576-137.549-137.531 0-75.972 61.585-137.549 137.549-137.549 75.946 0 137.532 61.577 137.532 137.549 0 75.955-61.585 137.531-137.531 137.531zM255.65 97.118c-69.777 0-126.523 56.764-126.523 126.541 0 69.76 56.746 126.541 126.524 126.541 69.76 0 126.524-56.781 126.524-126.541 0.009-69.777-56.764-126.541-126.524-126.541z" />
<glyph unicode="&#x6d;" d="M255.642 361.19c-75.972 0-137.531-61.56-137.531-137.549 0-75.947 61.56-137.531 137.531-137.531s137.531 61.585 137.531 137.531c0 75.99-61.551 137.549-137.531 137.549zM255.642 97.118c-69.777 0-126.541 56.764-126.541 126.524 0 69.794 56.763 126.558 126.541 126.558s126.541-56.763 126.541-126.558c0.009-69.76-56.764-126.524-126.541-126.524zM255.19 295.757c-27.929 0-43.529-17.246-43.725-44.587h12.135c-0.401 19.823 10.010 34.389 31.010 34.389 15.001 0 27.52-10.607 27.52-26.001 0-10.026-5.385-18.107-12.519-24.857-14.618-13.577-18.731-19.959-19.464-38.553h12.288c0.717 16.87 0.35 16.529 15.079 31.257 9.822 9.225 16.76 18.483 16.76 32.734-0.009 22.341-17.724 35.618-39.083 35.618zM266.649 163.14c0-6.079-4.928-11.008-11.008-11.008s-11.008 4.928-11.008 11.008c0 6.079 4.928 11.008 11.008 11.008s11.008-4.928 11.008-11.008z" />
<glyph unicode="&#x6e;" d="M379.81 308.77h-257.613v-171.878h268.544v171.878h-10.931zM369.067 298.035l-103.749-103.757c-4.728-4.736-12.988-4.736-17.715 0l-103.766 103.757h225.229zM132.933 293.743l69.743-69.743-69.743-69.743v139.486zM141.508 147.644l68.778 68.762 29.73-29.713c4.394-4.394 10.24-6.827 16.461-6.827 6.212 0 12.058 2.432 16.452 6.827l29.73 29.713 68.77-68.762h-229.922zM379.998 154.248l-69.743 69.752 69.743 69.751v-139.503z" />
<glyph unicode="&#x6f;" d="M255.659 388.702c-60.766 0-110.046-49.28-110.046-110.029 0-20.079 5.401-38.844 14.788-55.023l95.249-165.052 95.24 165.052c9.395 16.179 14.779 34.944 14.779 55.023 0.009 60.749-49.263 110.029-110.012 110.029zM341.368 229.145l-85.718-148.523-85.726 148.54c-8.713 15.027-13.304 32.154-13.304 49.511 0 54.613 44.416 99.038 99.029 99.038 54.596 0 99.021-44.433 99.021-99.038 0-17.357-4.599-34.483-13.303-49.528zM255.659 317.167c-21.239 0-38.519-17.28-38.519-38.494 0-21.248 17.288-38.519 38.519-38.519s38.511 17.28 38.511 38.519c-0.009 21.214-17.288 38.494-38.511 38.494zM255.659 251.153c-15.19 0-27.52 12.322-27.52 27.52 0 15.163 12.331 27.503 27.52 27.503 15.181 0 27.495-12.339 27.495-27.503 0-15.198-12.313-27.52-27.494-27.52z" />
<glyph unicode="&#x70;" d="M392.158 251.077l-119.654 119.654c-4.497 4.497-10.496 6.998-16.87 6.998-6.366 0-12.339-2.491-16.837-6.998l-26.112-26.095h-39.56v-39.552l-55.023-55.023v-180.497h275.080v180.48l-1.024 1.032zM338.159 289.51l42.607-42.607-42.607-42.607v85.214zM246.579 362.957c4.839 4.839 13.303 4.839 18.134 0l18.304-18.321h-54.767l18.329 18.321zM184.132 333.645h109.892l33.135-33.152v-107.195l-25.472-25.498-29.192 29.201c-4.497 4.514-10.496 6.998-16.87 6.998-6.366 0-12.339-2.483-16.837-6.998l-29.627-29.602-25.037 25.011v141.235zM135.722 252.135l37.41 37.376v-86.075l-43.050 43.042 5.641 5.657zM129.109 223.053v8.832l72.269-72.251-0.81-0.853-0.017 0.026-71.441-71.441v135.688zM137.881 80.563l5.905 5.939h0.034l102.758 102.724c4.839 4.856 13.304 4.856 18.133 0l108.68-108.672h-235.512zM382.183 230.246v-142.891l-72.704 72.67 72.713 72.713v-2.492zM217.131 300.638h77.013v-11h-77.013v11zM217.131 234.607h77.013v-10.991h-77.013v10.991zM217.131 267.623h55.006v-10.991h-55.006v10.991z" />
<glyph unicode="&#x71;" d="M389.735 249.6l-116.822 116.804c-4.394 4.394-10.248 6.827-16.469 6.827-6.213 0-12.041-2.432-16.452-6.827l-117.802-117.802v-176.205h268.544v176.205l-0.998 0.999zM139.392 250.632l108.219 108.194c4.719 4.736 12.988 4.736 17.707 0l113.305-113.305-77.201-77.218-28.493 28.51c-4.394 4.411-10.248 6.818-16.469 6.818-6.213 0-12.041-2.406-16.452-6.818l-28.911-28.894-77.218 77.184 5.512 5.53zM203.494 160.333l-0.793-0.837-0.017 0.026-69.743-69.743v141.082l70.554-70.528zM141.5 83.175l5.768 5.769h0.025l100.318 100.284c4.719 4.736 12.988 4.736 17.707 0l106.095-106.061h-229.913zM379.998 227.157v-137.387l-70.981 70.946 70.989 70.989v-4.548z" />
<glyph unicode="&#x72;" d="M255.642 273.161c-27.306 0-49.511-22.203-49.511-49.51 0-27.315 22.203-49.545 49.511-49.545 27.289 0 49.51 22.221 49.51 49.544 0.009 27.306-22.221 49.51-49.511 49.51zM255.642 185.122c-21.291 0-38.519 17.238-38.519 38.519 0 21.256 17.238 38.528 38.519 38.528 21.274 0 38.511-17.263 38.511-38.528 0-21.282-17.238-38.519-38.511-38.519zM393.19 196.147v55.006h-30.661c-2.466 10.299-6.349 20.036-11.495 28.987l21.308 21.308-38.904 38.904-20.864-20.872c-9.046 5.495-18.935 9.702-29.431 12.416v29.312h-55.006v-29.312c-10.53-2.713-20.386-6.92-29.448-12.416l-20.864 20.872-38.895-38.904 21.308-21.308c-5.145-8.952-9.029-18.688-11.512-28.987h-30.643v-55.006h31.59c2.705-9.856 6.767-19.098 11.938-27.623l-22.681-22.699 38.895-38.904 23.125 23.142c8.423-4.839 17.544-8.559 27.178-11.025v-32.938h55.006v32.938c9.642 2.466 18.748 6.187 27.178 11.025l23.108-23.142 38.904 38.904-22.681 22.699c5.171 8.525 9.216 17.767 11.938 27.623h31.608zM350.993 199.057c-2.406-8.712-6.016-17.050-10.726-24.824l-4.48-7.39 21.017-21.017-23.356-23.322-21.291 21.299-7.296-4.19c-7.594-4.344-15.813-7.697-24.457-9.916l-8.252-2.142v-30.464h-33.016v30.456l-8.251 2.142c-8.644 2.219-16.862 5.572-24.44 9.916l-7.313 4.19-5.939-5.965-15.351-15.334-23.339 23.322 21.018 21.017-4.48 7.39c-4.71 7.774-8.328 16.12-10.744 24.824l-2.219 8.081h-28.953v33.016h28.314l2.040 8.431c2.202 9.182 5.674 17.971 10.351 26.078l4.19 7.313-5.999 5.947-13.534 13.534 23.339 23.338 19.191-19.2 7.373 4.48c8.251 4.992 17.16 8.755 26.496 11.153l8.234 2.125v26.812h33.016v-26.812l8.252-2.125c9.336-2.406 18.245-6.169 26.479-11.153l7.373-4.48 6.118 6.11 13.073 13.090 23.356-23.339-13.534-13.534-5.965-5.939 4.19-7.313c4.651-8.115 8.141-16.896 10.351-26.078l2.022-8.431h28.313v-33.016h-28.962l-2.21-8.081z" />
<glyph unicode="&#x73;" d="M354.671 355.687c-15.215 0-27.52-12.322-27.52-27.52 0-13.303 9.455-24.397 22.007-26.94v-187.631h11v187.639c12.553 2.543 22.024 13.637 22.024 26.94 0.009 15.19-12.331 27.512-27.512 27.512zM354.671 311.672c-9.088 0-16.495 7.407-16.495 16.495 0 9.105 7.407 16.503 16.495 16.503s16.503-7.39 16.503-16.503c-0.009-9.088-7.416-16.495-16.503-16.495zM162.117 146.065v187.614h-11v-187.614c-12.57-2.543-22.007-13.654-22.007-26.94 0-15.215 12.305-27.52 27.486-27.52 15.215 0 27.52 12.305 27.52 27.52-0.008 13.286-9.464 24.406-21.999 26.94zM156.587 102.613c-9.088 0-16.504 7.39-16.504 16.512 0 9.088 7.407 16.503 16.504 16.503 9.122 0 16.529-7.407 16.529-16.503 0-9.113-7.407-16.512-16.529-16.512zM261.137 250.599v83.080h-11.008v-83.080c-12.553-2.56-22.007-13.654-22.007-26.966 0-13.303 9.455-24.397 22.007-26.94v-83.089h11.008v83.089c12.536 2.543 21.99 13.637 21.99 26.94 0.009 13.312-9.455 24.414-21.99 26.965zM255.642 207.138c-9.122 0-16.529 7.424-16.529 16.495 0 9.105 7.407 16.495 16.529 16.495 9.088 0 16.495-7.39 16.495-16.495 0.009-9.071-7.399-16.495-16.495-16.495z" />
<glyph unicode="&#x74;" d="M255.667 157.704c33.417 0 60.518 27.094 60.518 60.502v110.038c0 33.408-27.102 60.518-60.519 60.518s-60.519-27.102-60.519-60.518v-110.046c0.008-33.408 27.102-60.493 60.519-60.493zM206.157 328.243c0 27.306 22.213 49.511 49.511 49.511 27.307 0 49.51-22.204 49.51-49.511v-110.046c0-27.289-22.204-49.51-49.511-49.51-27.298 0-49.511 22.221-49.511 49.51v110.046zM338.176 273.221v-55.023c0-45.5-37.026-82.526-82.526-82.526-45.508 0-82.526 37.026-82.526 82.526v55.023h-11v-55.023c0-49.937 39.407-90.778 88.755-93.286h-0.708v-55.365h-49.544v-11.008h110.038v11.008h-49.493v55.373h-0.76c49.357 2.509 88.755 43.341 88.755 93.286v55.023h-10.991z" />
<glyph unicode="&#x75;" d="M255.659 355.687c-72.926 0-132.054-59.136-132.054-132.054s59.127-132.027 132.054-132.027c72.918 0 132.019 59.111 132.019 132.028 0.009 72.918-59.102 132.053-132.019 132.053zM255.659 102.605c-66.748 0-121.046 54.306-121.046 121.037 0 66.748 54.306 121.046 121.046 121.046 66.731 0 121.037-54.306 121.037-121.046s-54.306-121.037-121.037-121.037zM255.659 212.642h-66.022v-11.017h77.013v109.585h-10.991z" />
<glyph unicode="&#x76;" d="M242.090 214.093c0.214-0.248 0.504-0.486 0.734-0.734 3.030-3.763 7.62-6.212 12.826-6.212 9.088 0 16.495 7.382 16.495 16.495 0 4.856-2.125 9.156-5.445 12.185-0.426 0.487-0.827 0.982-1.45 1.451l-66.697 50.765c-1.946 1.468-4.727 1.561-6.767 0-2.432-1.886-2.875-5.359-1.007-7.808l51.311-66.142zM255.65 361.173c-1.809 0-3.584-0.197-5.359-0.273v-5.692h-0.154v-60.024h11.008v54.715c67.217-2.927 121.037-58.325 121.037-126.25 0-69.76-56.755-126.515-126.524-126.515-69.794 0-126.541 56.755-126.541 126.515 0 34.893 14.2 66.534 37.112 89.447l-7.816 7.808c-24.9-24.883-40.303-59.264-40.303-97.246 0-75.947 61.577-137.514 137.549-137.514s137.532 61.577 137.532 137.514c-0.009 75.955-61.568 137.514-137.541 137.514z" />
<glyph unicode="&#x77;" d="M372.693 137.105h-39.108v31.291h39.108v-31.291zM286.651 168.397h39.108v-31.291h-39.108v31.291zM239.719 168.397h39.108v-31.291h-39.108v31.291zM192.785 168.397h39.108v-31.291h-39.108v31.291zM145.851 168.397h39.108v-31.291h-39.108v31.291zM286.651 207.505h39.108v-31.291h-39.108v31.291zM239.719 207.505h39.108v-31.291h-39.108v31.291zM192.785 207.505h39.108v-31.291h-39.108v31.291zM231.893 215.33h-39.108v31.283h39.108v-31.283zM278.827 215.33h-39.108v31.283h39.108v-31.283zM325.76 215.33h-39.108v31.283h39.108v-31.283zM145.851 246.613h39.108v-31.291h-39.108v31.291zM145.851 207.505h39.108v-31.291h-39.108v31.291zM372.693 176.214h-39.108v31.291h39.108v-31.291zM372.693 215.33h-39.108v31.283h39.108v-31.283zM145.851 301.371h46.934c0-4.241 3.26-7.825 7.825-7.825 4.232 0 7.825 3.584 7.825 7.825h43.025c0-4.241 3.26-7.825 7.825-7.825 4.233 0 7.825 3.584 7.825 7.825h43.025c0-4.241 3.26-7.825 7.825-7.825 4.233 0 7.825 3.584 7.825 7.825h46.933v-46.933h-226.867v46.933zM380.519 317.014h-54.759c0 4.232-3.584 7.825-7.825 7.825-4.565 0-7.825-3.592-7.825-7.825h-43.017c0 4.232-3.584 7.825-7.825 7.825-4.565 0-7.825-3.592-7.825-7.825h-43.025c0 4.232-3.584 7.825-7.825 7.825-4.566 0-7.825-3.592-7.825-7.825h-54.758c-4.565 0-7.825-3.593-7.825-7.825v-179.909c0-4.241 3.26-7.825 7.825-7.825h242.492c4.233 0 7.825 3.584 7.825 7.825v179.917c0.009 4.232-3.575 7.816-7.808 7.816z" />
<glyph unicode="&#x78;" d="M232.243 203.998h-15.446c-2.253 0-3.865-1.928-3.865-3.865 0-2.253 1.605-3.865 3.865-3.865h15.446c2.253 0 3.865 1.604 3.865 3.865-0.008 1.937-1.613 3.865-3.865 3.865zM185.899 203.998h-15.446c-2.253 0-3.865-1.928-3.865-3.865 0-2.253 1.605-3.865 3.865-3.865h15.446c2.253 0 3.865 1.604 3.865 3.865 0 1.937-1.613 3.865-3.865 3.865zM139.554 203.998h-15.445c-2.253 0-3.865-1.928-3.865-3.865 0-2.253 1.605-3.865 3.865-3.865h15.445c2.253 0 3.865 1.604 3.865 3.865 0 1.937-1.605 3.865-3.865 3.865zM363.537 147.678c-13.192 0-23.808 10.949-23.808 23.817 0 13.192 10.615 23.808 23.808 23.808s23.808-10.615 23.808-23.808c0-12.868-10.615-23.817-23.808-23.817zM313.976 215.911c-3.865 0-7.074 3.217-7.074 7.074 0 4.19 3.217 7.407 7.074 7.407s7.082-3.217 7.082-7.407c0-3.865-3.217-7.074-7.082-7.074zM363.537 298.615c13.192 0 23.808-10.948 23.808-23.808 0-13.201-10.615-23.816-23.808-23.816s-23.808 10.615-23.808 23.816c0 12.86 10.615 23.808 23.808 23.808zM386.705 197.563c-4.19 4.505-11.913 7.074-11.913 7.074-3.541 0.964-7.399 1.928-11.264 1.928-3.541 0-6.759-0.64-9.976-1.604-0.64 0.325-1.28 0.64-2.568 0.964-4.505 2.568-8.687 5.47-10.291 7.082-3.541 3.865-4.19 7.074-4.514 9.002v2.253c0.325 1.929 0.964 5.154 4.514 9.011 1.604 1.605 5.794 4.506 10.291 7.074 0.964 0.325 1.928 0.649 2.568 0.964 3.217-0.964 6.442-1.605 9.976-1.605 18.986 0 34.757 15.769 34.757 35.081 0 18.986-15.769 34.756-34.757 34.756-19.311 0-35.080-15.769-35.080-34.757 0-5.478 1.288-10.3 3.217-14.805-1.928-16.085-21.88-18.023-21.88-18.023-56.96 34.756-104.593 42.155-104.593 42.155l89.147-61.15-39.262-26.709v-0.325h40.226c4.83 2.893 9.651 5.478 14.481 8.371 0 0 19.951-1.928 21.88-18.022-1.928-4.505-3.217-9.327-3.217-14.797 0-19.311 15.769-34.757 35.080-34.757 18.986 0 34.757 15.761 34.757 34.757 0.009 10.308-4.497 19.644-11.579 26.078z" />
</font>
</defs>
</svg>
